#TITLE:PEACEFUL PLANET PARTY;
#SUBTITLE:;
#ARTIST:seiya-murai + A.I. Units;
#TITLETRANSLIT:;
#SUBTITLETRANSLIT:;
#ARTISTTRANSLIT:;
#GENRE:;
#CREDIT:;
#BANNER:PEACEFUL PLANET PARTY.png;
#BACKGROUND:PEACEFULPLANETPARTY-bg.png;
#LYRICSPATH:;
#CDTITLE:;
#MUSIC:PEACEFUL PLANET PARTY.ogg;
#OFFSET:-0.197000;
#SAMPLESTART:41.327999;
#SAMPLELENGTH:15.000000;
#SELECTABLE:YES;
#BPMS:0.000000=140.000000
;
#STOPS:
;
#BGCHANGES:;
#KEYSOUNDS:;
#ATTACKS:;

//---------------dance-single - ----------------
#NOTES:
     dance-single:
     :
     Hard:
     13:
     0.540096,0.783921,0.269446,0.286287,0.391539,449.000000,417.000000,32.000000,34.000000,0.000000,0.000000,0.540096,0.783921,0.269446,0.286287,0.391539,449.000000,417.000000,32.000000,34.000000,0.000000,0.000000:
// measure 0
0000
0000
0000
0000
,  // measure 1
0000
0000
0000
0000
,  // measure 2
0000
0000
0000
0000
,  // measure 3
0000
0000
0000
0000
,  // measure 4
1000
0010
1000
0010
1000
0000
0100
0000
0000
0010
0000
0000
0001
0000
0000
0000
,  // measure 5
0100
0010
0100
0010
0100
0000
0001
0000
0000
1000
0000
0000
0010
0000
0000
0000
,  // measure 6
1000
0001
1000
0001
1000
0000
0010
0000
0000
1000
0000
0000
0100
0000
0000
0000
,  // measure 7
0010
0001
0010
0001
0010
0000
0100
0010
0100
0010
0100
0000
0010
0000
1000
0000
,  // measure 8
0002
0000
1003
0200
0000
1300
0020
0000
,  // measure 9
0230
0000
0301
2000
0000
0001
3001
0000
,  // measure 10
0200
0000
0310
2000
0000
3001
0020
0000
,  // measure 11
0130
0000
0000
0001
0000
0000
0010
0000
0001
0000
0000
0000
1000
0000
0100
0010
,  // measure 12
0100
1000
0010
0100
0000
0001
0010
0110
,  // measure 13
0000
1010
0000
1001
0000
0100
0100
0010
,  // measure 14
2000
0000
3001
0200
0000
0010
0310
1000
,  // measure 15
0010
0000
0000
0100
0000
0000
0001
0000
0010
0000
0100
1000
0000
0100
0010
0000
,  // measure 16
0200
0000
1300
0020
0000
1030
0002
0000
,  // measure 17
0023
0000
0130
0002
0000
0100
0103
0000
,  // measure 18
2000
0000
3010
0200
0000
0310
2000
0000
,  // measure 19
3001
0000
0000
1000
0000
0000
1010
0000
0000
0000
0100
0000
0001
0000
0100
0000
,  // measure 20
0010
0000
0000
1000
0000
0000
0110
0000
0000
0000
1000
0000
0001
0000
0011
0000
,  // measure 21
0000
0110
0000
0101
0000
1000
1000
0010
,  // measure 22
0200
0000
0000
0000
0300
0000
0001
1000
0002
0000
0000
0000
0003
0000
0100
0001
,  // measure 23
1000
0000
0000
1100
0000
0000
0100
0000
0010
0000
0000
0011
0000
0000
0001
0000
,  // measure 24
1000
0100
1000
0010
0100
0000
0001
0000
0000
0100
0000
0000
0010
0000
0000
0000
,  // measure 25
0100
0010
0100
0001
1000
0000
0001
0000
0000
0100
0000
0000
0010
0000
0000
0000
,  // measure 26
1000
0010
0100
0010
1000
0000
0001
0000
0000
0010
0000
0000
0100
0000
0000
0000
,  // measure 27
0010
0001
0100
0001
0010
0000
1000
0000
0000
0010
0000
0000
0100
0000
0000
0000
,  // measure 28
0001
1000
0001
0010
0100
0000
0110
0000
0000
0011
0000
0000
1001
0000
0000
0000
,  // measure 29
0100
0001
0100
0010
1000
0000
1010
0000
0000
1100
0000
0000
0101
0000
0000
0000
,  // measure 30
0010
0100
1000
0100
0010
0000
0110
0000
0000
0011
0000
0000
1010
0000
0000
0000
,  // measure 31
1000
0001
0100
0001
1000
0000
0010
0100
0001
0100
0010
0000
1000
0000
0001
0000
,  // measure 32
0200
0000
0000
0000
0300
0000
1000
0001
2000
0000
0000
0000
3020
0000
0000
0000
,  // measure 33
0230
0000
0000
0000
0300
0000
0001
0000
0020
0000
0000
0000
0030
0000
0000
1000
,  // measure 34
0002
0000
0003
1000
0100
0000
0010
0001
,  // measure 35
0200
0000
0000
0000
0300
0000
0001
0000
0010
0000
0001
1000
0001
0000
0100
0000
,  // measure 36
0020
0000
0000
0000
0030
0000
0100
0001
0100
0000
0000
0000
0010
0000
0000
0000
,  // measure 37
1000
0001
1000
0010
0100
0000
0001
0010
,  // measure 38
0100
0010
0100
1000
0010
0000
0100
0000
,  // measure 39
0001
0001
0000
1000
1000
0000
0010
0010
0000
0100
0100
0000
0010
0000
1000
0000
,  // measure 40
0120
0000
0000
0100
0030
0001
0100
0010
,  // measure 41
0000
1000
0000
0010
0020
0000
0130
0000
,  // measure 42
0010
0000
1000
0010
0000
1000
0001
1000
,  // measure 43
0000
0010
0000
0100
0200
0000
0301
0000
,  // measure 44
1000
0000
0010
0100
0000
0001
0010
0001
,  // measure 45
0000
0100
0000
1000
2000
0000
3010
0000
,  // measure 46
0001
0000
0100
0100
0000
0000
0000
0110
,  // measure 47
0000
1000
0010
1000
0001
0000
0010
0000
,  // measure 48
0100
1000
0100
0010
0001
0000
0100
0000
0000
0000
0001
0000
1000
0000
0010
0000
,  // measure 49
0000
0100
0000
0001
0100
0000
0010
0000
,  // measure 50
1000
0001
0100
0010
1000
0000
0010
0000
0000
0000
0100
0000
0001
0000
0010
0000
,  // measure 51
0000
0000
0100
0000
0000
0000
0010
0000
0001
0000
0000
0000
1000
0000
0010
0100
,  // measure 52
0010
0100
0001
0010
0000
0001
0000
1000
,  // measure 53
0000
0010
1000
0010
0100
0000
0001
0000
,  // measure 54
0100
0100
0010
0001
0000
1000
0010
0100
,  // measure 55
0000
0010
0010
0100
0010
0000
1001
0000
,  // measure 56
0010
0001
0010
0001
0010
0000
0100
0000
0000
0001
0000
0000
1000
0000
0000
0000
,  // measure 57
0010
0100
0010
0100
0010
0000
1000
0000
0000
0001
0000
0000
0100
0000
0000
0000
,  // measure 58
1000
0100
1000
0100
1000
0000
0010
0000
0000
0001
0000
0000
0100
0000
0000
0000
,  // measure 59
0001
0010
0001
0010
0001
0000
0100
0000
0000
0010
0000
0000
1000
0000
0000
0000
,  // measure 60
0001
1000
0010
1000
0001
0000
0101
0000
0000
0011
0000
0000
0110
0000
0000
0000
,  // measure 61
0010
0100
1000
0100
0010
0000
1010
0000
0000
1001
0000
0000
0011
0000
0000
0000
,  // measure 62
1000
0010
0100
0010
1000
0000
1010
0000
0000
0011
0000
0000
0101
0000
0000
0000
,  // measure 63
1000
0001
1000
0001
1000
0000
0010
1000
0010
1000
0010
0000
0100
0010
0100
0010
,  // measure 64
0100
0000
0001
0100
0001
0100
0001
0000
1000
0100
0010
0001
0100
0000
0010
0000
,  // measure 65
2002
0000
0000
0000
,  // measure 66
0003
0000
3000
0000
;
