#TITLE:Noisy Minority;
#SUBTITLE:;
#ARTIST:DJ Grimoire;
#TITLETRANSLIT:;
#SUBTITLETRANSLIT:;
#ARTISTTRANSLIT:;
#GENRE:;
#CREDIT:;
#BANNER:Noisy Minority.png;
#BACKGROUND:Noisy Minority-bg.png;
#LYRICSPATH:;
#CDTITLE:;
#MUSIC:Noisy Minority.ogg;
#OFFSET:-0.146000;
#SAMPLESTART:86.813004;
#SAMPLELENGTH:15.000000;
#SELECTABLE:YES;
#BPMS:0.000000=180.000000
,222.000000=360.000000
,286.000000=180.000000
,362.000000=178.000000
,363.000000=175.000000
,364.000000=172.000000
,365.000000=167.000000
,366.000000=163.000000
,368.000000=155.000000
,369.000000=148.000000
,370.000000=142.000000
,371.000000=138.000000
,372.000000=128.000000
,373.000000=115.000000
,373.500000=110.000000
,374.000000=100.000000
;
#STOPS:64.000000=1.000000,
189.000000=1.000000
;
#BGCHANGES:;
#KEYSOUNDS:;
#ATTACKS:;

//---------------dance-single - ----------------
#NOTES:
     dance-single:
     :
     Beginner:
     4:
     0.170748,0.262194,0.058920,0.050503,0.000000,142.000000,135.000000,7.000000,6.000000,0.000000,0.000000,0.170748,0.262194,0.058920,0.050503,0.000000,142.000000,135.000000,7.000000,6.000000,0.000000,0.000000:
0000
0000
0000
0000
,
0000
0000
0000
0000
,
0000
0000
0000
0000
,
0000
0000
0000
0000
,
0000
0000
0000
0000
,
0000
0000
0000
0000
,
0000
0000
0000
0000
,
0000
0000
0000
0000
,
0010
0000
0000
0000
,
0010
0000
0000
0000
,
0100
0000
0000
0000
,
0100
0000
0000
0000
,
0001
0000
0000
0000
,
0001
0000
0000
0000
,
1000
0000
0000
0000
,
1000
0000
0000
0000
,
0000
1001
0000
0000
,
0000
0001
0000
0000
,
0000
1000
0000
0000
,
0000
0001
0000
0000
,
0000
0010
0000
0000
,
0000
0100
0000
0000
,
0000
0010
0000
0000
,
0000
0100
0000
0000
,
0000
1000
1000
1000
,
0000
1000
0000
1000
,
0000
0001
0001
0001
,
0000
0001
0000
0001
,
0000
0010
0010
0010
,
0000
0010
0000
0010
,
0000
0100
0100
0100
,
0000
0100
0000
0100
,
0000
0110
0000
0010
,
0000
0100
0000
0010
,
0000
1001
0000
0001
,
0000
1000
0000
0001
,
0000
0110
0000
0100
,
0000
0010
0000
0100
,
0000
1001
0000
1000
,
0000
0001
0000
1000
,
0000
0010
0010
0010
,
0000
1000
0000
0001
,
0000
0100
0100
0100
,
0000
0001
0000
1000
,
0000
0001
0001
0001
,
0000
0100
0000
0010
,
0000
1000
1000
1000
,
0000
0000
0200
0000
,
0300
0000
0200
0000
,
0300
0000
0020
0000
,
0030
0000
0020
0000
,
0030
0000
1000
0000
,
1000
0000
0001
0000
,
0001
0000
0100
0000
,
0100
0000
0010
0000
,
0010
0000
1000
0000
,
0000
0000
0001
0000
,
0000
0000
1000
0000
,
0000
0000
0001
0000
,
0000
0000
0100
0000
,
0000
0000
0010
0000
,
0000
0000
0100
0000
,
0000
0000
0010
0000
,
0000
0000
0001
0000
,
0000
0000
1000
0000
,
0000
0000
0100
0000
,
0000
0000
0010
0000
,
0000
0000
0001
0000
,
0000
0000
1000
0000
,
0000
0000
0010
0000
,
0000
0000
0110
0000
,
0000
0000
1000
0000
,
1000
0000
1000
0000
,
1000
0000
0001
0000
,
0001
0000
0001
0000
,
0001
0000
0100
0000
,
0100
0000
0100
0000
,
0100
0000
0010
0000
,
0010
0000
0010
0000
,
0010
0000
1000
1000
,
1000
0000
1000
0000
,
1000
0000
0001
0001
,
0001
0000
0001
0000
,
0001
0000
0010
0010
,
0010
0000
0010
0000
,
0010
0000
0100
0100
,
0100
0000
0100
0000
,
0100
0000
2002
0000
,
0000
0000
0000
0000
,
3003
0000
0000
0000
;

//---------------dance-single - ----------------
#NOTES:
     dance-single:
     :
     Easy:
     8:
     0.330674,0.432852,0.092589,0.151509,0.000000,275.000000,264.000000,11.000000,18.000000,0.000000,0.000000,0.330674,0.432852,0.092589,0.151509,0.000000,275.000000,264.000000,11.000000,18.000000,0.000000,0.000000:
0000
0000
0000
0000
,
0000
0000
0000
0000
,
0000
0000
0000
0000
,
0000
0000
0000
0000
,
0000
0000
0000
0000
,
0000
0000
0000
0000
,
0000
0000
0000
0000
,
0000
0000
0000
0000
,
2000
0000
0000
3000
,
0002
0000
0000
0003
,
0020
0000
0000
0030
,
0200
0000
0000
0300
,
2000
3000
0002
0003
,
0200
0300
0020
0030
,
1000
0100
0010
0001
,
0010
0100
1000
0001
,
0000
1000
0100
0001
,
0100
1000
0100
0010
,
0010
1000
0001
0010
,
0001
0100
0010
0100
,
0100
0001
1000
0010
,
0100
0010
0100
0001
,
0001
0100
1000
0001
,
1000
0010
0100
1000
,
1000
0001
0010
0100
,
0010
0100
0100
0001
,
0010
0100
1000
0100
,
0010
0001
0001
0010
,
0100
0010
1000
0010
,
0100
0001
0001
0100
,
0010
1000
1000
0010
,
0100
0010
0100
1000
,
0001
1001
1000
0010
,
0100
0010
0100
0001
,
0010
0110
0010
0100
,
0001
0100
0010
0100
,
0010
0011
0001
0100
,
1000
0100
1000
0010
,
0100
1010
1000
0100
,
0010
0100
0001
0200
,
0300
0011
0001
1000
,
0010
0100
0010
1000
,
0100
1100
0100
0010
,
0100
0001
0100
0010
,
1000
0101
0100
0010
,
0100
0001
1000
0010
,
0100
1001
0010
0100
,
0010
0000
0200
0000
,
0000
0300
0020
0000
,
0000
0030
2000
0000
,
0000
3000
0002
0000
,
0000
0003
0200
0300
,
0020
0030
2000
3000
,
0002
0003
0100
0010
,
1000
0001
1000
0010
,
0100
0110
0010
0000
,
0010
0000
0100
0000
,
0100
0000
0010
0000
,
0100
0000
0001
0000
,
0100
0000
1000
0000
,
1000
0000
0001
0000
,
0001
0000
1000
0000
,
0010
0000
0100
0000
,
0001
0000
0010
0000
,
0010
0000
0001
0000
,
0001
0000
0010
0000
,
1000
0000
0001
0000
,
0100
0000
1000
0000
,
1000
0000
0100
0000
,
0100
0000
1000
0000
,
0010
0000
0100
0000
,
1001
0000
0010
0100
,
0010
0100
0001
0100
,
1000
1000
0010
0100
,
0001
0100
0010
0100
,
0001
0001
0010
1000
,
0100
1000
0001
0100
,
0010
0010
0100
0001
,
0100
0001
0010
1000
,
0100
0100
1000
0100
,
0001
0100
1000
0010
,
0001
0001
0010
0100
,
1000
0100
0010
0100
,
0001
0001
0010
1000
,
0001
0100
0010
0100
,
1000
1000
0010
0100
,
0001
0100
0010
0100
,
0010
1000
2001
0000
,
0001
0000
0010
0000
,
3100
0000
0001
0000
,
1000
0000
0010
0000
,
0100
0000
0010
0000
,
0100
0000
0001
0000
,
1000
0000
0001
0000
;

//---------------dance-single - ----------------
#NOTES:
     dance-single:
     :
     Medium:
     10:
     0.390796,0.552376,0.109423,0.185177,0.000000,325.000000,312.000000,13.000000,22.000000,0.000000,0.000000,0.390796,0.552376,0.109423,0.185177,0.000000,325.000000,312.000000,13.000000,22.000000,0.000000,0.000000:
0000
0000
0000
0000
,
0000
0000
0000
0000
,
0000
0000
0000
0000
,
0000
0000
0000
0000
,
0000
0000
0000
0000
,
0000
0000
0000
0000
,
0000
0000
0000
0000
,
0000
0000
0000
0000
,
2002
0000
0000
3003
,
2200
0000
0000
3300
,
0220
0000
0000
0330
,
0202
0000
0000
0303
,
0020
0000
0032
0000
,
2003
0000
3200
0000
,
0310
0100
0010
0100
,
0001
0100
1000
0000
0100
0001
0010
0000
,
0000
1000
0001
1000
,
0010
1000
0010
0100
,
0010
0100
0001
0100
,
0010
1000
0001
0100
,
0010
0001
0010
0000
0100
0000
0010
0000
,
0100
0001
1000
0010
,
0100
0000
0001
1000
0100
0000
0010
1000
,
0100
0000
0010
0100
1000
0100
0001
0000
,
1001
1000
0001
1000
,
0010
0100
0100
0010
,
0001
0010
1000
0001
,
1000
0001
0001
0010
,
0100
0001
0010
1000
,
0100
0010
0010
0100
,
1000
0100
0100
0010
,
0100
1000
0001
1000
,
0100
0110
1000
0100
,
1000
0100
0001
0100
,
0001
1000
0001
0000
0100
0000
0010
0000
,
0100
0001
1000
0010
,
0100
0010
0100
0000
0001
0000
0100
0000
,
0010
1000
0001
0100
,
0010
0001
0010
0000
0100
0000
1000
0000
,
0100
0010
0100
0002
,
0003
0110
0010
0100
,
0001
1000
0010
0100
,
0001
0010
0001
0000
0010
0000
0100
0000
,
0010
0100
0001
0100
,
1000
0100
1000
0000
0010
0000
0100
0000
,
0001
0100
0010
0100
,
0001
1000
0001
0000
0010
0000
0100
0000
,
0001
0000
0220
0000
,
0000
0330
0202
0000
,
0000
0303
2200
0000
,
0000
3300
0022
0000
,
0000
0033
0010
0001
,
0100
1000
0100
0010
,
0001
0000
0100
0000
0010
0001
0010
0000
,
1000
0010
1000
0000
0010
0100
0001
0100
,
0010
1000
0001
0000
1000
0000
0000
0000
,
0001
0000
1000
0000
,
0010
0000
1000
0000
,
0001
0000
0100
0000
,
0010
0100
0010
0000
,
0100
0000
0001
0000
,
0100
0000
0010
0000
,
0100
0000
0001
0000
,
0010
0100
0010
0000
,
1000
0000
0100
0010
,
0100
0000
0001
0000
,
1000
0000
0001
1000
,
0001
0000
0010
0001
,
0010
0000
1000
0100
,
1000
0000
0010
1000
,
0010
0100
0010
0000
,
1001
0000
0010
0100
,
0010
0100
0001
0100
,
0010
0000
1000
0100
1000
0000
0010
0000
,
0100
0001
0100
0010
,
0001
0000
0010
0001
0010
0000
0100
0000
,
0001
0100
0010
1000
,
0001
0000
0100
0010
0100
0000
0010
0000
,
0100
0001
1000
1000
,
0001
0010
0100
0001
,
0100
0010
1000
0001
,
0100
0000
0010
0001
0010
0000
0100
0000
,
0010
0100
0010
1000
,
0010
0010
0100
0010
,
0100
0001
0100
0010
,
0100
0000
0010
1000
0010
0000
0100
0000
,
0010
0000
0100
0000
0001
0010
0001
0000
,
1000
0010
1000
0000
1002
0000
0000
0000
,
1000
1000
0010
0100
,
0013
0100
0010
0010
,
0100
0010
1000
0001
,
0100
0000
0010
1000
,
0001
0100
0010
0100
,
0100
0010
0001
1000
;

//---------------dance-single - ----------------
#NOTES:
     dance-single:
     :
     Hard:
     16:
     0.560342,1.223118,0.159926,0.244097,0.164135,466.000000,447.000000,19.000000,29.000000,0.000000,0.000000,0.560342,1.223118,0.159926,0.244097,0.164135,466.000000,447.000000,19.000000,29.000000,0.000000,0.000000:
// measure 0
0000
0000
0000
0000
,  // measure 1
0000
0000
0000
0000
,  // measure 2
0000
0000
0000
0000
,  // measure 3
0000
0000
0000
0000
,  // measure 4
0000
0000
0000
0000
,  // measure 5
0000
0000
0000
0000
,  // measure 6
0000
0000
0000
0000
,  // measure 7
0000
0000
0000
0000
,  // measure 8
2200
0000
0000
3300
,  // measure 9
0202
0000
0000
0303
,  // measure 10
0022
0000
0000
0033
,  // measure 11
0220
0000
0000
0330
,  // measure 12
2002
3003
0022
0033
,  // measure 13
2200
3300
2020
3030
,  // measure 14
1000
0001
1000
0000
0001
0000
0010
0100
0010
0000
1000
0000
0010
0001
0010
0100
,  // measure 15
1000
0001
1000
0001
0100
0001
0010
0001
0100
1000
0010
0100
0001
0010
0100
0001
,  // measure 16
2000
3000
0100
0000
0100
0000
0010
0000
,  // measure 17
0100
0010
1000
0010
,  // measure 18
0100
0001
0100
0001
,  // measure 19
1000
0010
0100
0001
,  // measure 20
0100
0010
0100
0000
0001
0000
0010
0000
,  // measure 21
0001
1000
0010
0100
,  // measure 22
0001
0000
0010
0001
0010
0000
0010
1000
,  // measure 23
0010
0000
0100
0010
0100
0010
1000
0001
,  // measure 24
1001
0000
1000
1000
0010
0000
0001
0000
,  // measure 25
0010
0100
0001
0100
,  // measure 26
0010
0100
0001
1000
,  // measure 27
0010
0100
0001
0100
,  // measure 28
0110
0001
1000
0100
,  // measure 29
0010
1000
0001
0100
,  // measure 30
0010
1000
0100
0100
1000
1000
0010
0010
,  // measure 31
0001
0000
0001
0000
0100
0010
0100
0010
0100
1000
0100
0010
0001
0000
0100
0000
,  // measure 32
0110
0000
0000
1000
1001
0000
1000
0000
,  // measure 33
0010
0100
0001
0100
,  // measure 34
0010
1000
0100
0000
0001
0000
1000
0000
,  // measure 35
0010
0100
0001
0010
,  // measure 36
0001
0100
0010
0000
0100
0000
0010
0000
,  // measure 37
0001
1000
0010
0100
,  // measure 38
0010
0001
1000
0000
0100
0000
0010
0000
,  // measure 39
0100
1000
0100
2002
,  // measure 40
3003
0000
0010
1000
0001
0000
0100
0000
,  // measure 41
0001
1000
0010
0100
,  // measure 42
0010
0001
1000
0000
0100
0000
0010
0000
,  // measure 43
1000
0010
0100
0001
,  // measure 44
1000
0100
0010
0000
0001
0000
0010
0000
,  // measure 45
0100
1000
0100
0010
,  // measure 46
1000
0100
0001
0001
0100
0100
0010
0010
,  // measure 47
1000
1000
0020
0030
2200
0000
0000
0000
,  // measure 48
0000
3300
0202
0000
,  // measure 49
0000
0303
0022
0000
,  // measure 50
0000
0033
0220
0000
,  // measure 51
0000
0000
0330
0000
1000
0100
0001
0010
,  // measure 52
0001
0100
1000
0010
1000
0001
0100
0010
,  // measure 53
0100
0000
1000
0000
0010
0000
0001
0000
0100
0010
0100
0010
1000
0010
1000
0010
,  // measure 54
1000
0001
1000
0001
0100
0001
0100
0001
0100
0010
1000
0100
0010
0001
0100
0010
,  // measure 55
1000
0001
0100
0010
0100
0000
0000
0000
1000
0000
0000
0000
1000
0000
0000
0000
,  // measure 56
0001
0100
0010
0100
,  // measure 57
0001
0100
0001
0001
,  // measure 58
0100
0010
0100
0001
,  // measure 59
0100
0010
0100
0000
0010
0000
1000
0000
,  // measure 60
0001
0000
0100
1000
0010
0000
0100
0000
,  // measure 61
0001
0010
0100
0010
0001
0000
1000
0000
,  // measure 62
0010
0000
0100
0000
0010
0100
0010
1000
,  // measure 63
0010
0100
0001
0000
0010
0000
0010
0000
,  // measure 64
1000
0001
0010
0001
,  // measure 65
0010
0000
0100
1000
0010
0000
0100
0000
,  // measure 66
0001
0000
1000
0100
0010
0000
0100
0010
,  // measure 67
0002
0000
0000
0000
0013
1000
0100
1000
,  // measure 68
0001
0100
0010
0100
,  // measure 69
1000
0001
0100
0001
0010
1000
0100
1000
,  // measure 70
0010
0000
0101
0101
,  // measure 71
0010
0000
1000
0100
,  // measure 72
0010
0001
0000
0010
0000
0100
0000
0001
,  // measure 73
1000
0100
0010
0100
0001
0000
1000
0000
,  // measure 74
0001
0100
0000
0010
0000
0100
0010
0001
,  // measure 75
0000
0100
0000
1000
0100
0000
0001
0000
,  // measure 76
0100
0010
0000
1000
0000
0001
0000
1000
,  // measure 77
0100
0000
0000
0010
0000
0000
0001
0000
0100
0000
0000
0000
0010
0000
0000
0000
,  // measure 78
0100
0001
0000
0010
0000
0001
0000
1000
,  // measure 79
0010
0001
0100
0010
,  // measure 80
1000
0001
0000
0100
0000
0010
0000
0001
,  // measure 81
0010
1000
0001
1000
0010
0000
0100
0000
,  // measure 82
0001
0100
0000
0010
0000
1000
0100
0001
,  // measure 83
0000
1000
0000
1000
0100
0010
0001
0100
,  // measure 84
0010
0001
0010
0100
1000
0010
0001
0100
,  // measure 85
0001
0100
0010
0100
0001
0001
0010
0010
,  // measure 86
0100
0000
0100
0000
1000
0000
1000
0000
0100
0001
0010
0001
0100
1000
0010
0100
,  // measure 87
0001
0100
1000
0010
0100
0001
0100
1000
0010
0000
0000
0000
0010
0000
0001
0000
,  // measure 88
0100
1000
0001
0010
,  // measure 89
0001
0000
0100
0000
0010
0000
1000
0100
,  // measure 90
0010
0001
0100
0001
,  // measure 91
0010
0000
0000
0000
0100
0000
0100
0010
,  // measure 92
0001
1000
0100
0100
,  // measure 93
0010
0000
0001
0001
0010
0000
1000
0000
;
