#TITLE:Nocturnal 2097;
#SUBTITLE:;
#ARTIST:Dirty Androids;
#TITLETRANSLIT:;
#SUBTITLETRANSLIT:;
#ARTISTTRANSLIT:;
#GENRE:;
#CREDIT:;
#MUSIC:Nocturnal 2097.ogg;
#BANNER:Nocturnal 2097.png;
#BACKGROUND:Nocturnal 2097-bg.png;
#CDTITLE:;
#SAMPLESTART:79.907;
#SAMPLELENGTH:15.000;
#SELECTABLE:YES;
#OFFSET:-0.512;
#BPMS:0.000=157.000;
#STOPS:;
#BGCHANGES:;
#FGCHANGES:;

//--------------- dance-single - ----------------
#NOTES:
     dance-single:
     :
     Beginner:
     3:
     0,0,0,0,0:
0000
0000
0000
0000
,
0000
0000
0000
0000
,
0000
0000
0000
0000
,
0000
0000
0000
0000
,
1000
0000
1000
0000
,
1000
0000
0000
0000
,
0001
0000
0001
0000
,
0001
0000
0000
0000
,
0100
0000
0100
0000
,
0100
0000
0000
0000
,
0010
0000
0010
0000
,
0010
0000
0000
0000
,
0100
0000
0100
0000
,
0100
0000
0000
0000
,
0010
0000
0010
0000
,
0010
0000
0000
0000
,
1000
0000
1000
0000
,
1000
0000
0000
0000
,
0001
0000
0001
0000
,
0001
0000
0000
0000
,
1001
0000
1001
0000
,
1001
0000
0000
0000
,
0010
0000
0010
0000
,
0100
0000
0100
0000
,
0110
0000
0110
0000
,
0110
0000
0000
0000
,
1000
0000
1000
0000
,
0001
0000
0001
0000
,
0200
0000
0000
0000
,
0000
0000
0000
0000
,
0000
0000
0000
0000
,
0300
0000
0000
0000
,
1000
0000
0000
0000
,
1000
0000
0000
0000
,
0001
0000
0000
0000
,
0001
0000
0000
0000
,
1000
0000
0000
0000
,
1000
0000
0000
0000
,
0001
0000
0000
0000
,
0001
0000
0000
0000
,
0100
0000
0000
0000
,
0100
0000
0000
0000
,
0010
0000
0000
0000
,
0010
0000
0000
0000
,
0100
0000
0000
0000
,
0100
0000
0000
0000
,
0010
0000
0000
0000
,
0010
0000
0000
0000
,
2000
0000
0000
0000
,
3000
0000
0000
0000
,
1001
0000
1001
0000
,
1001
0000
1001
0000
,
0010
0010
0010
0000
,
0100
0000
0100
0000
,
0100
0100
0100
0000
,
1000
0000
1000
0000
,
1000
1000
1000
0000
,
0001
0000
0001
0000
,
0001
0001
0001
0000
,
0010
0000
0010
0000
,
0010
0010
0010
0000
,
0100
0000
0010
0000
,
0100
0100
0100
0000
,
0001
0000
1000
0000
,
0001
0001
0001
0000
,
1000
0000
0001
0000
,
1000
1000
1000
0000
,
0010
0000
0100
0000
,
0020
0000
0030
0000
,
0200
0000
0300
0000
,
2000
0000
3000
0000
,
0002
0000
0003
0000
,
0100
0000
0100
0000
,
0010
0000
0010
0000
,
1000
0000
1000
0000
,
0001
0000
0001
0000
,
1001
0000
1001
0000
,
1001
0000
0000
0000
;

//--------------- dance-single - ----------------
#NOTES:
     dance-single:
     :
     Easy:
     6:
     0,0,0,0,0:
0000
0000
0000
0000
,
0000
0000
0000
0000
,
0000
0000
0000
0000
,
0000
0000
0000
0000
,
0001
1000
0001
0000
,
0010
0001
0010
0000
,
0100
0010
0100
0000
,
1000
0100
1000
0001
,
0100
0010
0100
0000
,
1000
0100
1000
0000
,
0100
0001
0100
0000
,
0001
0100
0010
1000
,
0001
1000
0001
0000
,
0100
1000
0100
0000
,
0001
0010
0001
0000
,
0010
0100
0010
0001
,
0020
0000
2030
0000
,
3002
0000
0023
0000
,
0200
0000
0000
0330
,
0010
0010
0010
0010
,
1000
0000
0001
0000
,
2002
0000
3003
0000
,
0010
0000
0010
0000
,
0100
0000
0100
0000
,
0001
0000
1000
0000
,
2002
0000
3003
0000
,
0100
0000
0100
0000
,
0010
0000
0010
0000
,
0002
0000
0000
0000
,
0023
0000
0000
0000
,
2000
0000
0000
0000
,
3030
0000
0000
0000
,
0010
0000
1000
0000
,
0010
0000
0100
0000
,
0001
0000
0010
0000
,
0100
0000
1000
0000
,
0100
0000
0010
0000
,
0001
0000
0100
0000
,
0010
0000
0100
0000
,
1000
0000
0100
0100
,
0100
0000
0010
0000
,
0001
0000
0100
0000
,
0001
0000
0100
0000
,
0010
0000
1000
0000
,
0001
0100
0010
0100
,
0010
1000
0100
0010
,
0001
0001
1000
1000
,
0010
0100
0010
0100
,
0002
0000
0000
0000
,
0003
0000
0000
0000
,
1001
0000
1100
0000
,
1001
0000
0101
0000
,
0010
0001
0010
0100
,
1000
0100
0010
0000
,
0100
0010
0100
0001
,
0100
1000
0010
0000
,
0100
1000
0100
1000
,
0001
0010
0001
0000
,
0100
0010
0001
0010
,
0100
0010
0100
0100
,
1000
0001
0100
0010
,
1000
0100
1000
0000
,
0001
0010
0100
0001
,
0010
0001
1000
0000
,
1000
0010
0001
0100
,
0001
0100
0010
0000
,
0001
0100
0010
1000
,
0100
1000
0100
0000
,
0002
0003
2000
3000
,
0010
0100
0020
0030
,
0001
0100
0010
0100
,
1000
0010
0200
0300
,
0002
0003
2000
3000
,
0100
0010
0200
0300
,
0010
0001
0010
1000
,
0100
1000
0020
0030
,
0001
0000
1000
0000
,
1001
0000
0000
0000
;

//--------------- dance-single - ----------------
#NOTES:
     dance-single:
     :
     Medium:
     9:
     0,0,0,0,0:
0000
0000
0000
0000
,
0000
0000
0000
0000
,
0000
0000
0000
0000
,
0010
0000
0010
0000
0010
0100
0010
0000
,
1000
0001
0100
0010
,
1000
0000
0001
0000
0100
0000
0010
0001
,
0010
1000
0100
0001
,
1000
0000
0010
0000
1000
0000
0001
1000
,
0001
0100
0010
1000
,
0010
0000
0100
0000
0010
0000
0100
1000
,
0100
0010
0001
0010
,
0100
0000
0010
0000
0100
0001
0100
0001
,
0100
0010
1000
0010
,
0100
0000
0001
0000
0100
0000
0010
0001
,
1000
0010
1000
0100
,
1000
0000
0001
0000
0100
0010
0100
0010
,
1000
0001
1000
0010
,
0100
0000
0001
0000
1000
0000
0010
1000
,
0010
0100
0001
1000
,
0020
2030
3002
0013
,
1100
0000
0000
0110
0000
0000
0001
0012
,
0000
1000
0100
0103
,
0101
0000
0000
1100
0000
0000
0011
0000
,
0000
1010
0000
0000
0110
0000
0110
0000
,
0101
0000
0000
0011
0000
0000
1000
2001
,
0000
0001
0010
3010
,
1100
0000
0000
0101
0000
0000
1010
0000
,
0000
0011
0000
0000
1001
0000
1001
0000
,
0200
0000
0000
0000
,
0002
0000
0300
0000
,
2000
0000
0003
0000
,
0020
0000
3030
0000
,
0100
0000
0101
0000
,
0010
0000
1010
0000
,
1000
0000
1001
0000
,
0100
0000
0101
0000
,
0010
0000
0110
0000
,
1000
0000
1100
0000
,
0001
0000
0101
0000
,
0010
0000
0000
0000
0001
0001
1000
1000
,
0001
0000
0101
0000
,
0100
0000
0110
0000
,
1000
0000
1001
0000
,
0010
0000
0011
0000
,
0010
1000
0100
0001
,
0010
0001
0100
1000
,
0010
0001
0010
0000
0100
1000
0100
0000
,
1000
0001
1000
0010
1000
0000
0001
0000
,
2000
0000
0000
3002
0000
0000
2003
0000
,
0000
3020
0000
0000
0230
0000
0310
0000
,
0101
0000
0000
0011
0000
0000
1100
0000
,
0000
1010
0000
0000
0110
0000
1001
0000
,
0100
0000
1000
0000
0001
0100
0001
0000
,
1000
0000
0010
0000
0100
0010
0100
0000
,
0001
0000
0100
0000
0010
1000
0010
0000
,
1000
0000
0001
0000
0100
0001
0100
0001
,
1000
0000
0010
0000
0100
0010
0100
0000
,
0001
0000
1000
0000
0100
1000
0100
0000
,
0010
0000
1000
0000
0001
1000
0001
0000
,
0100
0010
0100
0110
,
1000
0000
0001
0000
0100
0010
0100
0010
,
1000
0000
0001
0000
1000
0100
1000
0100
,
0010
0000
0100
0000
0001
1000
0010
1000
,
0001
0000
0100
0000
0010
0100
0001
0100
,
0010
0000
1000
0000
0001
1000
0001
1000
,
0010
0000
0100
0000
0010
1000
0010
1000
,
0100
0000
1000
0000
0001
0010
0100
0010
,
0001
0000
1000
0000
0010
1000
0001
1000
,
0020
0000
0000
0200
0000
0000
0330
0000
,
0100
0001
1000
0010
,
0100
0100
0001
0001
,
1000
0000
0010
0000
1000
0000
0001
1000
,
0001
0100
0010
0100
,
0001
0100
1000
0100
,
0010
1000
0100
0010
,
0100
0010
0100
0100
,
0011
0000
0000
1010
0000
0000
0001
1001
;

//--------------- dance-single - ----------------
#NOTES:
     dance-single:
     :
     Hard:
     14:
     0,0,0,0,0:
0000
0000
0000
0000
,
0000
0000
0000
0000
,
0000
0000
0000
0000
,
0001
1000
0000
0010
0100
0000
0001
1000
0000
0010
0100
0000
0001
1000
0001
1000
,
0100
0000
0010
0000
0001
0100
0010
0000
,
1000
0000
0010
0000
0100
0001
0010
0000
,
1000
0000
0001
0000
0100
1000
0100
0000
,
0010
0000
0100
0000
0010
0001
0010
0000
,
0200
0000
0000
0000
0300
0000
1000
0100
2000
0000
0000
0000
3001
0000
1000
0000
,
0200
0000
0000
0320
0000
0000
0230
0000
,
1000
0000
0301
0020
0000
0000
0032
0000
,
1000
0000
0010
0000
0103
0010
0100
0001
,
0020
0000
0000
0000
0030
0000
1000
0001
2000
0000
0000
0000
3010
0000
1000
0000
,
0020
0000
0000
0230
0000
0000
0302
0000
,
0010
0100
2003
3002
,
0203
0000
0010
0310
,
2000
0000
0000
3002
0000
0000
0023
0000
,
0230
0000
0000
0320
0000
0032
0000
2003
,
3002
0000
0000
0000
,
0103
1000
0000
0100
0001
0000
0010
1000
0000
0010
0001
0000
1000
0100
1000
0001
,
0100
0000
0010
1000
0010
1000
0001
0000
0100
0001
0100
0001
1000
0000
2001
0000
,
0000
0000
3001
0010
0000
0100
0000
1000
,
0010
0000
0000
0110
0000
0000
0100
0000
0000
0110
0000
0000
1000
0000
0000
1001
,
0000
0000
0001
0000
0000
1001
0000
0000
0101
0000
0000
0000
1100
0000
0000
0000
,
0001
0000
1000
0100
1000
0100
0010
0000
0100
0010
0100
0010
0001
0000
2000
0000
,
0000
3010
0100
0010
0000
1000
0000
0100
,
0001
0000
0000
0011
0000
0000
0010
0000
0000
1010
0000
0000
1000
0000
0010
0000
,
0000
0100
0010
0000
0100
0000
0101
0000
,
1000
0100
0010
0002
0000
0023
0000
0230
,
0000
2300
0000
3002
,
0203
0000
0000
0020
0000
0000
0000
0000
,
0330
0000
0000
0000
,
0002
0000
0103
0020
0000
2030
0000
0000
,
0001
0000
0100
3000
,
0002
0000
0100
0003
,
2000
0010
0020
3030
,
0200
0000
1300
0002
0000
0203
0000
0000
,
0010
0000
2300
0000
,
3010
0001
0100
0020
0000
2030
0000
0200
,
0000
0000
3000
0000
1300
0001
0010
0001
,
0200
0000
0000
0000
1000
0000
0310
0200
,
0000
0000
0000
0000
0301
2000
0000
3002
,
0000
0103
0010
0002
0000
0000
0100
0000
,
0100
0003
0000
0100
0010
0100
1000
0100
,
0002
0000
0010
0000
0100
0000
1000
2003
,
0000
0000
0100
0000
0001
0000
3010
0200
,
0000
0000
0001
0000
1000
0320
0000
2030
,
0000
3002
0203
2300
0000
3200
0000
0000
,
0310
0000
0001
0010
0000
0100
0010
0000
,
0100
1000
0000
0100
0010
1000
0100
0001
,
0100
0000
0000
0110
0000
0000
1000
0000
0000
1001
0000
0000
0010
0000
0000
0110
,
0000
0000
0001
0000
0000
1001
0000
0000
0011
0000
0000
0000
1010
0000
0000
0000
,
0010
1000
0100
0001
0010
1000
0100
0000
,
1000
0100
0001
1000
0010
0100
0001
0000
,
0100
0010
0100
0001
1000
0010
0100
0000
,
1000
0001
1000
0010
0100
0001
1000
0001
,
0100
0010
1000
0100
1000
0010
0100
0000
,
1000
0001
1000
0100
0010
0100
0001
0000
,
0010
0100
0001
0100
0010
1000
0001
0100
,
0010
0000
1000
0001
0000
1000
0100
0000
0010
0000
0100
0000
0010
0001
0100
1000
,
0002
0000
0000
2003
0000
3200
0000
0020
,
0000
0330
0002
0203
,
0302
0000
0000
0023
0000
2030
0000
0200
,
0000
0000
3300
0000
2000
0000
3001
0020
,
0000
0130
0010
2000
0000
3002
0000
2003
,
0000
0010
0100
0010
,
0001
0000
0000
0000
3010
0000
0000
0000
0200
0000
0000
0320
0000
0000
0032
0000
,
0023
0000
1000
0000
0230
2300
0001
3000
,
1001
0000
2000
0002
0000
0000
0000
0000
,
3003
0010
0100
0010
1000
0100
0010
0001
,
0200
0000
0000
0310
0000
1000
0000
0010
,
0100
0000
0000
1000
0000
0000
0001
0000
1000
0000
0000
0020
0000
0000
0030
0000
,
0000
0100
0001
0100
1000
0010
0100
0010
,
0001
1000
0100
1000
0010
0100
0020
2030
,
3002
0203
0320
2030
0000
0000
0000
3000
,
0020
0000
0000
0032
0000
0000
2000
0000
0000
0000
0000
0000
3003
0000
0000
0000
,
0110
0000
0001
1000
0001
1000
1001
0000
0010
0100
0010
0100
0110
0000
0220
0000
,
0000
0330
0000
0000
0000
0000
0000
0000
;
