#VERSION:0.83;
#TITLE:No Limit 2 dAnce feat. Aimi Oyama;
#SUBTITLE:;
#ARTIST:Y&Co.;
#TITLETRANSLIT:;
#SUBTITLETRANSLIT:;
#ARTISTTRANSLIT:;
#GENRE:;
#ORIGIN:;
#CREDIT:;
#BANNER:No Limit 2 dAnce feat. Aimi Oyama.png;
#BACKGROUND:No Limit 2 dAnce feat. Aimi Oyama-bg.png;
#PREVIEWVID:;
#JACKET:No Limit 2 dAnce feat. Aimi Oyama-jacket.jpg;
#CDIMAGE:;
#DISCIMAGE:;
#LYRICSPATH:;
#CDTITLE:;
#MUSIC:No Limit 2 dAnce feat. Aimi Oyama.ogg;
#OFFSET:-0.259335;
#SAMPLESTART:27.539000;
#SAMPLELENGTH:12.774193;
#SELECTABLE:YES;
#BPMS:0.000=155.000;
#STOPS:68.000=0.774,
230.000=0.774;
#DELAYS:;
#WARPS:;
#TIMESIGNATURES:0.000=4=4;
#TICKCOUNTS:0.000=4;
#COMBOS:0.000=1;
#SPEEDS:0.000=1.000=0.000=0;
#SCROLLS:0.000=1.000;
#FAKES:;
#LABELS:0.000=Song Start;
#BGCHANGES:;
#KEYSOUNDS:;
#ATTACKS:
;

//---------------dance-single - ----------------
#NOTEDATA:;
#CHARTNAME:;
#STEPSTYPE:dance-single;
#DESCRIPTION:;
#CHARTSTYLE:;
#DIFFICULTY:Hard;
#METER:13;
#RADARVALUES:0.573152,0.702857,0.173005,0.222435,0.234792,487.000000,466.000000,21.000000,27.000000,0.000000,0.000000,0.000000,0.000000,0.000000,0.573152,0.702857,0.173005,0.222435,0.234792,487.000000,466.000000,21.000000,27.000000,0.000000,0.000000,0.000000,0.000000,0.000000;
#CREDIT:;
#NOTES:
0000
0000
0000
0000
0000
0010
0010
1000
,
0010
0000
0100
0000
0000
0000
0001
0000
1000
0000
0000
0001
0000
0000
0100
0000
,
1000
0010
0100
0001
0100
0000
0010
1000
,
0001
0100
0000
0100
0010
0000
0000
0000
,
0001
1000
0100
0010
1000
0000
0001
0100
,
0001
0010
0000
1000
1001
0001
0000
0000
,
0100
0000
0010
0000
1000
0000
0001
0000
0100
0000
0000
0100
0000
0000
0010
0000
,
1000
0001
0000
1000
0010
0000
0000
0000
,
2000
0000
3002
0000
0203
0000
0320
2030
,
0000
3020
0000
0000
0100
0000
0100
0000
,
0001
0000
0000
0000
0100
0000
0000
0000
1000
0000
0000
0030
0100
0000
0100
0000
,
0100
0001
0100
0010
,
1000
0000
0001
1000
1000
0001
0000
0200
,
0010
1000
0010
0001
,
0010
0000
1000
0000
0301
2000
0000
0000
,
3020
0000
2000
0000
0030
0000
3200
0000
0000
0000
0000
0000
0300
0000
0000
0010
,
1000
0000
0000
0001
1000
0000
0000
0010
1000
0000
0100
0000
0001
0000
0010
0000
,
1001
0000
0100
0010
0100
0010
0100
0001
0100
0000
0010
0000
1000
0001
0000
0001
,
1000
0000
0010
0000
0100
0000
0001
0000
0100
0000
0010
0000
1000
0010
0000
0010
,
0100
0000
0100
0000
0001
0000
0010
0000
0001
0000
1000
0000
0010
0100
0000
0100
,
0010
0000
1000
0000
0001
0000
1000
0000
0100
0000
0000
1000
0000
0000
0010
0000
,
0000
0100
0000
0000
0001
0000
1000
0000
0001
0000
0100
0000
0010
1000
0000
1000
,
0010
0000
0100
0000
0001
0000
1000
0000
0100
0000
0001
0000
1000
0100
0000
0100
,
0010
0000
0010
0000
0100
0000
0001
0000
0010
0000
0001
0000
0100
0010
0000
0010
,
0100
0000
0001
0000
1000
0000
0001
0000
0010
0000
0000
0010
0000
0010
0000
0000
,
0220
0000
0000
0000
0330
1000
0001
0100
,
0010
1000
0001
1001
0000
0100
0010
0100
,
0001
0100
0110
0000
0000
1000
0010
0001
,
0200
0310
0020
0130
1000
0001
0100
0001
,
0100
0010
0110
0001
0000
1000
0001
1000
,
0010
0100
0001
0011
0000
0001
1000
0100
,
0010
1000
1010
0000
0000
0100
0010
0100
,
0002
1003
2000
3001
0000
0010
0100
0010
,
1000
0001
0010
0001
1001
0000
0010
0100
,
0000
0010
0000
1000
0000
0010
0000
0001
,
0000
0000
1000
0010
1000
0010
1000
0000
0001
0000
0000
0000
0100
0000
0010
0000
,
0000
1000
0000
0001
0000
0100
0000
0010
,
0000
0100
0001
0100
0001
0000
0010
1000
,
0000
0001
0000
0100
0000
0010
0000
0100
,
0000
0000
0001
1000
0001
1000
0001
0000
0100
0000
0000
0000
0010
0000
0100
0000
,
0000
0001
0000
1000
0100
0100
1000
1000
,
0001
0100
0100
0010
0001
1000
0000
0100
,
0001
0000
0000
0100
0000
0000
0010
0000
1000
0000
0010
0000
0001
0000
1000
0000
,
0100
0000
0001
0100
0001
0010
0000
0010
,
0100
0000
0000
0000
1000
0001
0100
0010
,
1000
0000
0001
0010
0001
1000
0000
0010
,
0110
0100
0000
0000
0100
0010
0001
0010
,
1000
0000
0000
1000
0000
0000
0010
0000
0100
0000
0001
0000
0000
0000
0100
0000
,
0010
0000
0200
0320
,
2030
0000
3002
0200
0003
0302
0000
0000
,
1000
0000
0000
1000
0000
0000
1000
0000
0003
0000
0010
0000
1000
0000
0000
0000
,
0100
0000
0000
0100
0000
0000
0100
0000
0000
0000
1000
0000
0001
0000
0000
0000
,
0010
0000
0000
0010
0000
0000
0010
0000
0000
0000
0000
0000
1000
0000
0100
0000
,
0100
0000
1000
0000
0000
0000
0010
0000
0001
0000
0000
0100
0001
0000
0100
0000
,
0000
0000
1000
0000
0010
0000
0001
0000
0100
0000
0000
0010
0100
0000
1000
0000
,
0000
0000
0001
0000
1000
0000
0001
0000
0010
0000
0000
1000
0010
0000
0100
0000
,
0000
0001
0100
0010
0100
0001
0010
1000
,
0100
0000
0010
0000
0001
0000
1000
0000
0110
0000
0001
1000
0001
1000
0001
0100
,
0010
0000
0100
0100
0110
0000
0001
0000
,
1001
0000
0100
0100
1100
0000
1000
0000
,
1010
0000
0001
0001
0101
0000
0100
0000
,
1001
0000
0000
0010
0000
0000
0100
0000
0000
0010
0000
0000
0202
0000
0303
0000
,
1000
0000
0010
0000
0100
0010
0000
0010
0100
0000
0001
0000
1000
0000
0010
0000
,
0100
0000
0001
0000
1000
0001
0000
0001
0100
0000
0100
0000
0010
0000
0100
0000
,
0010
0000
1000
0000
0001
1000
0000
1000
0001
0000
0010
0000
0100
0000
0001
0000
,
0100
0000
0000
0010
0000
0000
1000
0000
0000
0010
0000
1000
0010
0100
0010
0000
,
0100
0100
1001
1000
0000
0010
0000
0001
,
0000
0000
0010
0000
0000
0000
0100
0000
0000
0000
0001
1000
0001
1000
0001
0000
,
0100
0000
0010
0100
0000
0001
0000
1000
,
0000
0000
0001
0000
0000
0000
0100
0001
0100
0000
0010
0000
0001
0000
0010
0000
,
1000
0000
0110
0100
0000
0010
0000
1000
,
0000
0000
0100
0000
0000
0000
0001
0000
0000
0000
0010
0100
0010
0100
0010
0000
,
1000
0000
0001
0100
0000
0010
0000
0001
,
1000
0000
1000
0000
0001
0000
0001
0000
0100
0000
0100
0010
0100
0000
0010
0000
,
2002
0000
0000
3003
0000
0000
0000
0000
0000
0000
0000
0000
0000
0000
0000
0000
;

//---------------dance-single - ----------------
#NOTEDATA:;
#CHARTNAME:;
#STEPSTYPE:dance-single;
#DESCRIPTION:;
#CHARTSTYLE:;
#DIFFICULTY:Medium;
#METER:8;
#RADARVALUES:0.390732,0.426745,0.173005,0.156528,0.000000,332.000000,311.000000,21.000000,19.000000,0.000000,0.000000,0.000000,0.000000,0.000000,0.390732,0.426745,0.173005,0.156528,0.000000,332.000000,311.000000,21.000000,19.000000,0.000000,0.000000,0.000000,0.000000,0.000000;
#CREDIT:;
#NOTES:
0000
0000
0000
0000
0000
0000
1000
0001
,
1000
0000
0000
1000
0010
0000
0000
0000
,
0100
0000
0001
0000
0010
0000
0100
1000
,
0100
0000
0000
0010
0100
0000
0000
0000
,
0001
0000
1000
0000
1001
0000
0100
0001
,
0100
0000
0000
0010
0100
0010
0000
0000
,
1000
0000
0001
0000
1000
0000
1000
0010
,
0100
0000
0000
0001
0100
0000
0000
0000
,
1000
0010
0100
0001
,
1001
0010
0001
0010
,
0100
0000
1000
0000
0001
0000
0010
0100
,
0010
0100
0001
1000
,
0010
0000
0001
0000
0001
0000
1000
0001
,
0100
0100
0010
0010
,
0001
0000
0001
0000
1000
0000
1000
0001
,
0100
0010
0100
0010
,
0001
0000
1000
0000
0010
1000
0001
0100
,
0000
1000
0001
1000
0100
0000
0010
0000
,
0001
1000
0001
1000
0010
0000
0001
0000
,
0100
0010
0100
0010
1000
0000
0001
0000
,
1000
0100
1000
0100
0001
0000
0100
0000
,
0110
0110
1000
0001
,
1000
0010
1000
0001
0100
0000
0010
0000
,
0100
0001
0010
0001
1000
0000
0001
0000
,
0100
0010
1000
0001
0200
0000
0000
0000
,
0000
0300
0010
0100
,
0001
0000
0010
0001
0010
0000
1000
0000
,
0001
1001
0010
0100
,
0010
0000
0010
0001
0100
0000
0010
0000
,
1000
1010
0100
0001
,
0010
0000
0001
0010
0001
0000
0100
0000
,
0010
0110
1000
0100
,
0010
0000
0100
0001
1000
0000
0010
0000
,
0100
1001
0200
0000
,
0320
0000
0230
0000
,
0302
0000
2003
0000
,
3020
0000
2030
3002
,
2000
3003
0010
0100
,
1000
0100
0010
0100
,
0001
0000
0010
0001
0010
0000
1000
0000
,
0001
0100
0010
0010
,
0100
0000
1000
0010
1000
0000
0000
0100
,
0001
0000
0100
0010
,
1000
0000
0001
0010
0001
0000
0000
0100
,
0001
0000
0010
0100
,
0110
0000
1000
0010
1000
0000
0000
0001
,
1000
0001
0000
0000
0010
0000
0010
0000
,
1000
0000
0010
0100
0010
0000
0000
1000
,
0010
0000
1000
0001
,
0100
0010
2002
3000
,
0200
0003
0020
0300
,
2000
0030
0002
3000
,
2000
0003
3100
0100
,
0010
0000
0110
0000
1000
0000
0001
1000
,
0000
0100
0010
0000
0100
0000
0010
0100
,
0000
0001
0100
0000
1000
0000
0100
0010
,
0000
1000
0010
0000
0100
0000
0001
0010
,
0000
1000
0001
0000
0000
0010
0100
0010
,
0110
0000
1001
0000
,
1100
0000
0011
0000
,
0101
0000
1010
0000
,
0220
0000
0330
1001
,
0100
0000
0010
0000
1000
0010
0001
1000
,
0001
0000
0100
0000
0001
0100
1000
0010
,
1000
0000
0001
0000
0100
1000
0010
0100
,
0010
1000
0100
1100
,
0010
0100
0010
1000
,
0001
0000
0100
0000
0010
0000
0001
1000
,
0001
1000
0001
0010
,
0100
0000
0001
0000
0010
0001
0010
0001
,
0100
0010
1000
0100
,
0001
0000
0100
0000
0010
0000
1000
0010
,
1000
0001
0100
0010
,
0100
0000
1000
0100
1000
0000
0001
0000
,
0110
0000
0000
0000
;

//---------------dance-single - ----------------
#NOTEDATA:;
#CHARTNAME:;
#STEPSTYPE:dance-single;
#DESCRIPTION:;
#CHARTSTYLE:;
#DIFFICULTY:Easy;
#METER:5;
#RADARVALUES:0.254211,0.304818,0.057668,0.164766,0.000000,216.000000,209.000000,7.000000,20.000000,0.000000,0.000000,0.000000,0.000000,0.000000,0.254211,0.304818,0.057668,0.164766,0.000000,216.000000,209.000000,7.000000,20.000000,0.000000,0.000000,0.000000,0.000000,0.000000;
#CREDIT:;
#NOTES:
// measure 0
0000
0000
0000
0000
,  // measure 1
1000
0000
0001
0000
,  // measure 2
0100
0010
0100
0000
,  // measure 3
0010
0000
1000
0000
,  // measure 4
0001
1000
0001
0000
,  // measure 5
0010
0000
0100
0000
,  // measure 6
1000
0100
1000
0001
,  // measure 7
0100
0000
0010
0000
,  // measure 8
1000
0000
0001
0000
,  // measure 9
0020
0000
0000
0030
,  // measure 10
0200
0300
0020
0030
,  // measure 11
2000
0000
0000
3000
,  // measure 12
0002
0003
2000
3000
,  // measure 13
0010
0100
0010
0100
,  // measure 14
0001
0100
0001
0100
,  // measure 15
1000
0001
1000
0001
,  // measure 16
0100
0010
0001
1000
,  // measure 17
0000
1001
1000
0001
,  // measure 18
1000
1000
0010
0100
,  // measure 19
0010
0010
0001
0100
,  // measure 20
0001
0001
1000
0100
,  // measure 21
0010
0001
0010
0100
,  // measure 22
0010
0010
0001
1000
,  // measure 23
0001
0001
0100
0010
,  // measure 24
0100
0100
2000
0000
,  // measure 25
0000
3000
0010
0000
,  // measure 26
0010
0001
1000
0000
,  // measure 27
1000
0001
0100
0000
,  // measure 28
0100
0010
1000
0000
,  // measure 29
1001
0000
0001
0000
,  // measure 30
0010
1000
0010
0000
,  // measure 31
0100
0010
0100
0000
,  // measure 32
0001
0100
0001
0000
,  // measure 33
0110
0000
1000
0000
,  // measure 34
0001
0000
1000
0000
,  // measure 35
1000
0000
0100
0000
,  // measure 36
0010
0000
0100
0100
,  // measure 37
0100
0000
0010
0001
,  // measure 38
0010
0000
1000
0010
,  // measure 39
1000
0000
0100
0001
,  // measure 40
0100
0000
1000
0001
,  // measure 41
1000
0000
0110
0000
,  // measure 42
0010
0000
0100
0010
,  // measure 43
1000
0000
0100
0000
,  // measure 44
0001
0000
1000
0001
,  // measure 45
0010
0000
0100
0000
,  // measure 46
0001
0000
1000
0001
,  // measure 47
0100
0000
0001
0000
,  // measure 48
0010
0000
1000
0100
,  // measure 49
0010
0000
2000
0000
,  // measure 50
0000
3000
0002
0003
,  // measure 51
0020
0030
0200
0000
,  // measure 52
0000
0300
0002
0003
,  // measure 53
2000
3000
0010
0010
,  // measure 54
0001
0000
0100
0100
,  // measure 55
1000
0000
0001
0001
,  // measure 56
0100
0000
1000
0001
,  // measure 57
0010
0100
0000
0110
,  // measure 58
0200
0300
0020
0030
,  // measure 59
2000
3000
0002
0003
,  // measure 60
0100
0010
1000
0001
,  // measure 61
2002
0000
0000
3003
,  // measure 62
0100
0010
0100
0100
,  // measure 63
0001
1000
0001
0001
,  // measure 64
0010
0001
0010
0010
,  // measure 65
0100
1000
0001
0010
,  // measure 66
2000
3000
0001
0001
,  // measure 67
1000
0010
0001
0010
,  // measure 68
0100
0000
1000
1000
,  // measure 69
0010
1000
0100
0001
,  // measure 70
0100
0000
0010
0010
,  // measure 71
1000
0100
1000
0001
,  // measure 72
0010
0000
0100
0100
,  // measure 73
0001
1000
0100
0010
,  // measure 74
1001
0000
0000
0000
;

//---------------dance-single - ----------------
#NOTEDATA:;
#CHARTNAME:;
#STEPSTYPE:dance-single;
#DESCRIPTION:;
#CHARTSTYLE:;
#DIFFICULTY:Beginner;
#METER:2;
#RADARVALUES:0.125929,0.182891,0.090621,0.098860,0.000000,107.000000,96.000000,11.000000,12.000000,0.000000,0.000000,0.000000,0.000000,0.000000,0.125929,0.182891,0.090621,0.098860,0.000000,107.000000,96.000000,11.000000,12.000000,0.000000,0.000000,0.000000,0.000000,0.000000;
#CREDIT:;
#NOTES:
0000
0000
0000
0000
,
0010
0000
0000
0000
,
0010
0000
0000
0000
,
0100
0000
0000
0000
,
0100
0000
0000
0000
,
0001
0000
0000
0000
,
0001
0000
0000
0000
,
1000
0000
0000
0000
,
1000
0000
0000
0000
,
1001
0000
0000
0000
,
0100
0000
0100
0000
,
0100
0000
0000
0000
,
0010
0000
0010
0000
,
0010
0000
0000
0000
,
1000
0000
1000
0000
,
1000
0000
0000
0000
,
0001
0000
0001
0000
,
0000
0000
1001
0000
,
0000
0000
1000
0000
,
0001
0000
1000
0000
,
0000
0000
0010
0000
,
0100
0000
0010
0000
,
0000
0000
0001
0000
,
0100
0000
0001
0000
,
0000
0000
1000
0000
,
1000
0000
1001
0000
,
0000
0000
0010
0000
,
0100
0000
0010
0000
,
0000
0000
1000
0000
,
0001
0000
1000
0000
,
0000
0000
0010
0000
,
0001
0000
0010
0000
,
0000
0000
0110
0000
,
0000
0000
2000
0000
,
3000
0000
0002
0000
,
0003
0000
2000
0000
,
3000
0000
0002
0000
,
0003
0000
0020
0000
,
0030
0000
0200
0000
,
0300
0000
0020
0000
,
0030
0000
0200
0000
,
0300
0000
1001
0000
,
0000
0000
1000
0000
,
1000
0000
1000
0000
,
0000
0000
0010
0000
,
0010
0000
0010
0000
,
0000
0000
0100
0000
,
0100
0000
0100
0000
,
0000
0000
0001
0000
,
0001
0000
0002
0000
,
0000
0000
0003
0000
,
0000
0000
0200
0000
,
0000
0000
0300
0000
,
0000
0000
0020
0000
,
0000
0000
0030
0000
,
0000
0000
2000
0000
,
0000
0000
3000
0000
,
0000
0000
0000
0000
,
1001
0000
0000
0000
,
1001
0000
0000
0000
,
0110
0000
0000
0000
,
0110
0000
0000
0000
,
1001
0000
1000
0000
,
0001
0000
1000
0000
,
0010
0000
0100
0000
,
0010
0000
0100
0000
,
1000
0000
1000
0000
,
0001
0000
1000
0000
,
0100
0000
0100
0000
,
0010
0000
0100
0000
,
0001
0000
0001
0000
,
0100
0000
0001
0000
,
0010
0000
0010
0000
,
1000
0000
0010
0000
,
1001
0000
0000
0000
;
