#VERSION:0.83;
#TITLE:Night sky;
#SUBTITLE:;
#ARTIST:USAO;
#TITLETRANSLIT:;
#SUBTITLETRANSLIT:;
#ARTISTTRANSLIT:;
#GENRE:;
#ORIGIN:;
#CREDIT:;
#BANNER:Night sky.png;
#BACKGROUND:Night sky-bg.png;
#PREVIEWVID:;
#JACKET:Night sky-jacket.png;
#CDIMAGE:;
#DISCIMAGE:;
#LYRICSPATH:;
#CDTITLE:;
#MUSIC:Night sky.ogg;
#OFFSET:-0.583000;
#SAMPLESTART:81.833000;
#SAMPLELENGTH:15.000000;
#SELECTABLE:YES;
#BPMS:0.000=192.000,
164.000=96.000,
171.000=192.000,
172.000=96.000,
180.000=192.000,
340.000=96.000;
#STOPS:171.000=0.156,
171.500=0.156;
#DELAYS:;
#WARPS:;
#TIMESIGNATURES:0.000=4=4;
#TICKCOUNTS:0.000=4;
#COMBOS:0.000=1;
#SPEEDS:0.000=1.000=0.000=0;
#SCROLLS:0.000=1.000;
#FAKES:;
#LABELS:0.000=Song Start;
#BGCHANGES:0.000=Night sky.avi=1.000=0=0=0=StretchNoLoop====,
99999=-nosongbg-=1.000=0=0=0 // don't automatically add -songbackground-
;
#KEYSOUNDS:;
#ATTACKS:
;

//---------------dance-single - ----------------
#NOTEDATA:;
#CHARTNAME:;
#STEPSTYPE:dance-single;
#DESCRIPTION:;
#CHARTSTYLE:;
#DIFFICULTY:Beginner;
#METER:3;
#RADARVALUES:0.188584,0.318620,0.000000,0.120008,0.000000,165.000000,165.000000,0.000000,15.000000,0.000000,0.000000,0.000000,0.000000,0.000000,0.188584,0.318620,0.000000,0.120008,0.000000,165.000000,165.000000,0.000000,15.000000,0.000000,0.000000,0.000000,0.000000,0.000000;
#CREDIT:;
#NOTES:
// measure 0
0000
0000
0000
0000
,  // measure 1
0000
0000
0000
0000
,  // measure 2
0000
0000
0000
0000
,  // measure 3
0000
0000
0000
0000
,  // measure 4
0000
0000
0000
0000
,  // measure 5
0001
0001
0001
0000
,  // measure 6
1000
1000
1000
0000
,  // measure 7
0010
0010
0010
0000
,  // measure 8
0020
0000
0030
0000
,  // measure 9
0100
0000
0100
0000
,  // measure 10
1000
0000
0100
0000
,  // measure 11
0001
0000
1000
0000
,  // measure 12
0001
0001
0001
0000
,  // measure 13
1000
0000
0010
0000
,  // measure 14
1000
0000
0100
0000
,  // measure 15
0010
0000
1000
0000
,  // measure 16
2000
0000
3000
0000
,  // measure 17
0100
0000
0100
0000
,  // measure 18
0001
0000
0001
0000
,  // measure 19
1000
0000
1000
0000
,  // measure 20
0010
0010
0010
0000
,  // measure 21
0100
0000
0001
0000
,  // measure 22
0100
0000
0010
0000
,  // measure 23
1000
0000
0001
0000
,  // measure 24
2000
0000
3000
0000
,  // measure 25
0020
0000
0000
0000
,  // measure 26
0030
0000
0000
0000
,  // measure 27
0200
0000
0000
0000
,  // measure 28
0300
0000
0000
0000
,  // measure 29
2000
0000
0000
0000
,  // measure 30
3000
0000
0000
0000
,  // measure 31
0002
0000
0000
0000
,  // measure 32
0003
0000
0000
0000
,  // measure 33
0010
0000
0100
0000
,  // measure 34
0010
0000
0010
0000
,  // measure 35
0001
0000
0100
0000
,  // measure 36
0001
0000
0001
0000
,  // measure 37
0010
0000
0010
0000
,  // measure 38
1000
0000
1000
0000
,  // measure 39
0100
0000
0100
0000
,  // measure 40
0200
0000
0300
0000
,  // measure 41
0001
0001
1000
1000
,  // measure 42
0010
0010
0100
0100
,  // measure 43
0010
0010
1000
1000
,  // measure 44
0100
0100
0001
0001
,  // measure 45
1000
0000
0001
0000
,  // measure 46
1000
0000
1000
0000
,  // measure 47
0010
0000
0100
0000
,  // measure 48
0010
0000
0010
0000
,  // measure 49
0001
0000
0100
0000
,  // measure 50
0001
0000
0001
0000
,  // measure 51
0010
0000
1000
0000
,  // measure 52
0010
0000
0010
0000
,  // measure 53
0001
0001
0001
0000
,  // measure 54
1000
1000
1000
0000
,  // measure 55
0010
0010
0010
0000
,  // measure 56
0100
0100
0100
0000
,  // measure 57
0010
0010
0010
0000
,  // measure 58
1000
1000
1000
0000
,  // measure 59
0001
0001
0001
0000
,  // measure 60
0020
0000
0030
0000
,  // measure 61
0100
0000
0010
0000
,  // measure 62
0100
0000
0001
0000
,  // measure 63
1000
0000
0001
0000
,  // measure 64
0100
0000
0100
0000
,  // measure 65
0010
0000
1000
0000
,  // measure 66
0100
0000
1000
0000
,  // measure 67
0001
0000
0100
0000
,  // measure 68
0010
0000
0010
0000
,  // measure 69
0001
0000
0100
0000
,  // measure 70
0001
0000
0001
0000
,  // measure 71
0010
0000
1000
0000
,  // measure 72
0010
0000
0010
0000
,  // measure 73
1000
0000
0001
0000
,  // measure 74
1000
0000
1000
0000
,  // measure 75
0100
0000
0010
0000
,  // measure 76
0200
0000
0300
0000
,  // measure 77
0001
0000
0001
0000
,  // measure 78
1000
0000
1000
0000
,  // measure 79
0010
0000
0010
0000
,  // measure 80
0001
0000
0001
0000
,  // measure 81
0100
0000
0100
0000
,  // measure 82
0010
0000
0010
0000
,  // measure 83
1000
0000
1000
0000
,  // measure 84
2000
0000
3000
0000
,  // measure 85
0200
0000
0300
0000
,  // measure 86
0200
0000
0300
0000
,  // measure 87
0020
0000
0030
0000
,  // measure 88
0020
0000
0030
0000
;

//---------------dance-single - ----------------
#NOTEDATA:;
#CHARTNAME:;
#STEPSTYPE:dance-single;
#DESCRIPTION:;
#CHARTSTYLE:;
#DIFFICULTY:Easy;
#METER:6;
#RADARVALUES:0.265160,0.424827,0.040003,0.160010,0.000000,232.000000,227.000000,5.000000,20.000000,0.000000,0.000000,0.000000,0.000000,0.000000,0.265160,0.424827,0.040003,0.160010,0.000000,232.000000,227.000000,5.000000,20.000000,0.000000,0.000000,0.000000,0.000000,0.000000;
#CREDIT:;
#NOTES:
0000
0000
0000
0000
,
0000
0000
0000
0000
,
0000
0000
0000
0000
,
0000
0000
0000
0000
,
0000
0000
0000
0000
,
0001
1000
0001
0000
,
0100
1000
0100
0000
,
0010
0001
1000
0001
,
0200
0000
0300
0000
,
0010
1000
0010
0000
,
0100
0010
0100
0000
,
1000
0001
0100
0010
,
1000
1000
1000
0000
,
0001
0100
0001
0000
,
1000
0010
1000
0000
,
0100
0001
0100
0010
,
2000
0000
3000
0000
,
0001
0001
0010
0000
,
1000
1000
0010
0000
,
0100
0100
0010
1000
,
0020
0000
0030
0000
,
0001
0001
1000
0000
,
0010
0010
0100
0000
,
0001
0100
0010
1000
,
0001
0001
0001
0000
,
0200
0000
0000
0000
,
0010
0000
0300
0000
,
0002
0000
0000
0000
,
1000
0000
0003
0000
,
0020
0000
0000
0000
,
0001
0000
0030
0000
,
2000
0000
0000
0000
,
0100
0000
3000
0000
,
0010
0000
0010
0000
,
0100
0000
0100
0001
,
1000
0000
1000
0000
,
0001
0000
0001
0010
,
0100
0000
1000
0000
,
0001
0000
0100
0000
,
0010
0001
1000
0100
,
0002
0000
0003
0000
,
0010
0010
1000
1001
,
0001
0001
0100
0110
,
1000
1000
0001
0011
,
0100
0100
1000
1010
,
0100
0001
0100
0000
,
0001
0010
0001
0000
,
0010
1000
0010
0000
,
1000
0100
1000
0000
,
0001
0100
0010
0000
,
0100
0010
1000
0000
,
0010
1000
0100
0001
,
2000
0000
3000
0000
,
0010
0100
0001
0010
,
1000
0001
0010
0000
,
0100
0010
0100
0001
,
1000
0001
0100
0000
,
1000
0001
0100
1000
,
0010
0001
0010
0000
,
0100
1000
0001
0010
,
0100
0100
0200
0300
,
0001
0010
0001
0000
,
1000
0001
1000
0000
,
0010
0100
0010
0000
,
1000
0100
1000
0000
,
0100
0001
0100
0000
,
0010
0001
0010
0000
,
0100
0010
0100
0001
,
2000
0000
3000
0000
,
0010
0100
0010
0000
,
1000
0010
1000
0000
,
0010
0001
0010
0000
,
0100
0010
1000
0010
,
0100
0001
0100
0000
,
0001
1000
0001
0000
,
0010
1000
0100
0001
,
0020
0000
0030
0000
,
1000
1000
0001
0000
,
0010
0010
0100
0000
,
0001
0001
1000
0000
,
0100
0100
0001
0000
,
2000
0000
3010
1000
,
0002
0000
0103
0010
,
1000
0001
1000
0100
,
0020
0000
0030
0000
,
2002
0000
3000
0000
,
0020
0000
0003
0000
,
2030
0000
0000
0000
,
0200
0000
3300
0000
;

//---------------dance-single - ----------------
#NOTEDATA:;
#CHARTNAME:;
#STEPSTYPE:dance-single;
#DESCRIPTION:;
#CHARTSTYLE:;
#DIFFICULTY:Medium;
#METER:8;
#RADARVALUES:0.334879,0.532534,0.112007,0.280018,0.000000,293.000000,279.000000,14.000000,35.000000,0.000000,0.000000,0.000000,0.000000,0.000000,0.334879,0.532534,0.112007,0.280018,0.000000,293.000000,279.000000,14.000000,35.000000,0.000000,0.000000,0.000000,0.000000,0.000000;
#CREDIT:;
#NOTES:
0000
0000
0000
0000
,
0000
0000
0000
0000
,
0000
0000
0000
0000
,
0000
0000
0000
0000
,
0000
0000
0000
0000
,
0010
0010
1000
1000
,
0001
0001
0100
0100
,
0010
0100
0001
1000
,
0020
0000
0000
0030
,
0100
0001
1000
0001
,
0010
1000
0100
1000
,
0001
0100
0010
1000
,
0001
0001
0001
1001
,
0100
0010
1000
0001
,
1000
0001
0010
0100
,
1000
0001
0100
0010
,
0100
0100
0200
0300
,
0001
1000
0001
0010
,
0001
1000
0010
0010
,
1000
0001
0010
0100
,
0010
0010
0010
0110
,
1000
0010
0100
0001
,
0100
0001
1000
0010
,
1000
1000
0001
0001
,
0200
0000
0300
0110
,
0020
0000
0000
0000
,
2030
0000
0000
0000
,
3002
0000
0000
0000
,
0203
0000
0000
0000
,
2300
0000
0000
0000
,
3020
0000
0000
0000
,
0230
0000
0000
0000
,
0302
0000
0000
0003
,
1000
0000
0000
0010
0000
0000
0010
0000
,
0001
0000
0000
1000
0000
0001
0000
0000
,
0010
0000
0000
0100
0000
0000
0100
0000
,
0001
0000
0000
0010
0000
0001
0000
0000
,
1000
0010
0100
0010
,
0001
1000
0010
1000
,
0100
0100
0010
0010
,
2002
0000
3003
0000
,
0010
1010
1000
1100
,
0100
0000
0110
0000
0010
0000
0001
0011
,
1000
1001
0001
0101
,
0100
0000
0110
0000
0010
0000
1000
1001
,
0002
0010
0000
0013
,
0200
0001
0000
0302
,
2003
0010
0000
3010
,
0200
0010
0000
0310
,
0002
1000
0000
1003
,
0020
0100
0000
0230
,
0301
0100
0010
1000
,
0001
0001
0002
0003
,
0010
0100
0001
0100
,
0010
1000
0001
1000
,
0100
0010
1000
0001
,
0010
0100
0001
0001
,
1000
0010
0100
0001
,
0100
0010
1000
0001
,
1000
0010
1000
0001
,
0100
0100
0200
0300
,
0001
0010
1000
0010
,
0001
0100
0010
0010
,
1000
0100
0001
0100
,
1000
0010
0002
0003
,
0010
1000
0100
1000
,
0010
0100
0001
0001
,
0100
0001
0010
0001
,
1000
1000
2000
3000
,
0100
0001
0010
1000
,
0010
0100
0010
0010
,
0001
0100
0010
1000
,
0001
0100
1000
0001
,
1000
0100
0010
0010
,
1000
0001
0100
0010
,
1000
1000
0001
0001
,
0200
0000
0300
0110
,
1000
0010
0100
0001
,
0010
0100
1000
0001
,
0010
1000
0100
0001
,
1000
0010
1000
1000
,
0001
0100
0010
0100
,
0001
1000
0010
0100
,
0001
0010
0100
1000
,
0002
0000
0003
1001
,
0200
0000
0302
0000
,
0023
0000
0002
0033
,
2000
0000
3200
0000
,
0320
0000
0200
0330
;

//---------------dance-single - ----------------
#NOTEDATA:;
#CHARTNAME:;
#STEPSTYPE:dance-single;
#DESCRIPTION:;
#CHARTSTYLE:;
#DIFFICULTY:Hard;
#METER:12;
#RADARVALUES:0.480031,0.747123,0.120008,0.264017,0.108007,420.000000,405.000000,15.000000,33.000000,0.000000,0.000000,2.000000,0.000000,0.000000,0.480031,0.747123,0.120008,0.264017,0.108007,420.000000,405.000000,15.000000,33.000000,0.000000,0.000000,2.000000,0.000000,0.000000;
#CREDIT:;
#NOTES:
0000
0000
0000
0000
,
0000
0000
0000
0000
,
0000
0000
0000
0000
,
0000
0000
0000
0000
,
0000
0000
0000
0000
,
1000
0001
0100
0010
,
0100
0010
1000
0001
,
0100
0001
0100
0010
1000
0001
0010
0100
,
0010
0000
0001
1000
0000
0001
0100
0000
,
0010
0000
1000
0000
0100
1000
0100
0000
,
0010
0000
0001
0000
0010
0001
0010
0000
,
0100
0000
1000
0000
0001
1000
0010
1000
,
0200
0010
0310
1001
,
1000
0000
0001
0000
1000
0010
1000
0000
,
0100
0000
1000
0000
0001
0010
0001
0000
,
1000
0100
0010
0001
,
0100
0000
0010
1000
0010
0020
0000
0030
,
1000
0001
0100
0001
,
1000
0000
0010
0000
0100
0100
0010
0000
,
1000
0100
0010
0100
,
1001
0000
0000
0000
1001
0000
0000
0000
0001
0000
0001
0000
0100
0001
0100
0000
,
0010
1000
0010
0100
,
0010
1000
0100
0010
,
0001
0000
0001
1000
0000
0000
0100
0000
0100
1000
0000
0000
,
0002
1000
1000
1000
,
0003
0000
0010
0100
0010
1000
0100
0010
,
0000
0001
0000
0010
0000
0100
0000
0100
,
0000
2000
0000
0000
0001
0000
0001
0000
,
3010
0100
0010
1000
,
0001
0000
1000
0010
1000
0100
0010
0001
,
0000
0100
0000
0010
0000
0100
0000
0100
,
0000
0002
0000
1000
0000
1000
0003
0000
,
0100
0000
0010
0100
0000
1000
0001
0000
,
0101
0000
1000
0001
0000
0001
1000
0000
,
0110
0000
0001
0100
0000
0001
0100
0000
,
1010
0000
1000
0100
0000
0100
1000
0000
,
1001
0000
0010
0100
0000
0010
0100
0000
,
0001
0001
0010
0010
,
0100
0100
1000
1000
,
0010
1000
0100
0010
0100
1000
0001
1000
,
0200
0000
0300
1001
,
2000
0000
0000
0000
3010
0000
0000
0000
0100
0000
0000
0100
0001
0000
0100
0010
,
0400
0000
0000
0000
0301
0000
0000
0000
1000
0010
0000
1000
0001
0000
1001
0000
,
2000
0000
0000
0000
3010
0000
0100
0010
0100
0001
0000
1000
0001
0000
1000
0100
,
0040
0000
0000
0000
0031
0000
1000
0010
1000
0000
0000
0010
0100
0000
0110
0000
,
1000
0000
0010
0000
0000
0100
0010
0000
,
0100
0000
0001
0000
0000
1000
0002
0000
,
2003
0000
3100
0000
0000
0010
0100
0000
,
1000
0000
0001
0000
0000
1000
1000
0000
,
0010
0000
1000
0000
0000
0100
1000
0000
,
0001
0000
0010
0000
0000
0100
0020
0000
,
0032
0103
0010
1000
,
0010
0010
0220
0330
,
0100
0000
0010
0000
0100
0001
1000
0000
,
0001
0000
0010
0000
0100
1000
0010
0000
,
0100
0000
0001
0000
1000
0010
0100
0000
,
0001
0000
0001
0000
0010
0100
1000
0000
,
0100
0000
0010
0000
0001
1000
0010
0000
,
0100
0000
0001
0000
1000
0001
0100
0000
,
0010
0000
0100
0000
0001
1000
0010
1000
,
0100
0100
0100
0110
,
1000
0001
1000
0010
,
0100
0000
0010
0000
1000
1000
0010
0000
,
0100
0001
1000
0010
,
0100
0001
0020
0130
,
0010
0001
1000
0010
,
0100
0000
0001
0000
0010
0010
0001
0000
,
0100
0001
0100
0010
,
1000
0000
0010
0100
0010
0100
0001
1000
,
0200
1300
0020
1030
,
0002
0000
1000
0000
1003
0000
0010
0100
,
0020
0130
0002
0103
,
0020
1030
0002
1003
,
0200
0000
1000
0000
0310
0000
0001
1000
,
0020
0130
0002
1003
,
0100
0000
0100
1000
0000
0000
0001
0000
0001
1000
0000
0000
,
0020
0000
0030
0110
,
1000
0000
0001
0010
0001
0100
0010
1000
,
0000
0010
0000
0100
0000
0001
0000
0010
,
0000
0002
0000
0100
0000
1003
0000
0100
,
0010
1000
0010
0100
0000
0001
0020
0000
,
0030
0000
0100
1000
0100
0010
0001
0100
,
0000
0010
0000
1000
0000
0010
0000
1000
,
0000
0200
0000
0010
0000
1000
0300
0000
,
0010
0000
0001
1000
0000
0010
1000
0000
,
0110
0000
0000
0000
0000
0000
0100
0020
0000
0000
0000
0000
0000
0000
1030
0100
,
1000
0010
0000
0100
0000
0001
0000
0002
0000
0000
0000
0000
0003
0000
0000
0000
,
1001
0000
0000
0000
0000
0000
0000
0000
0000
0000
0010
0002
0000
0000
0013
0100
,
0010
0001
0000
1000
0000
0010
0000
0020
0000
0000
0000
0000
0000
0000
0000
0030
;

//---------------dance-single - ----------------
#NOTEDATA:;
#CHARTNAME:;
#STEPSTYPE:dance-single;
#DESCRIPTION:;
#CHARTSTYLE:;
#DIFFICULTY:Challenge;
#METER:17;
#RADARVALUES:0.779478,1.209628,0.536034,0.304019,0.368024,682.000000,615.000000,67.000000,38.000000,0.000000,0.000000,0.000000,0.000000,0.000000,0.779478,1.209628,0.536034,0.304019,0.368024,682.000000,615.000000,67.000000,38.000000,0.000000,0.000000,0.000000,0.000000,0.000000;
#CREDIT:;
#NOTES:
0000
0000
0000
0000
,
0000
0000
0000
0000
,
0000
0000
0000
0000
,
0000
0000
0000
0000
,
0000
0000
0000
0000
,
1010
1010
1001
1001
,
0101
0101
0011
0011
,
0001
0010
0001
0100
0010
1000
0010
0100
0010
1000
0100
0010
0100
1000
0001
0020
,
0000
0000
0000
0000
0000
0030
1001
0000
,
0100
0001
1000
0001
0010
0100
1000
0100
,
1000
0001
0100
0010
0100
0001
1000
0100
,
0010
0001
0010
0100
1000
0001
0100
0010
,
0110
0000
0110
0000
1000
0100
1100
0000
,
0010
0100
0010
0001
1000
0010
0100
0001
,
0100
0010
1000
0001
0010
0100
1000
0001
,
0100
0000
0010
0000
1000
0000
0001
0000
1000
0100
1000
0001
0100
0010
1000
0001
,
0100
0100
0202
0303
,
0010
0000
1000
0100
1000
0000
0100
0010
0100
0000
0001
0100
0001
0000
1000
0001
,
1000
0000
0010
0100
0010
0000
1000
0010
1000
0000
1000
0000
1001
0000
0100
0010
,
0100
0000
1000
0010
1000
0000
0010
0100
0010
0000
1000
0001
1000
0000
0010
0000
,
0011
0000
0000
0000
1010
0000
0000
0000
0010
0000
0100
0000
0010
0100
0001
0100
,
0010
0000
1000
0100
1000
0000
0010
0100
0010
0000
0100
0001
0100
0000
0010
1000
,
0010
0000
1000
0001
1000
0000
0001
0100
0001
0000
0100
0010
0100
0000
1000
0010
,
1000
0100
0010
1001
0000
0000
0010
0001
1000
0110
0000
0000
,
1000
1000
2000
3010
,
0202
0000
0000
0000
0000
0000
0000
0303
,
0022
0000
0000
0000
0000
0000
0000
0033
,
2020
0000
0000
0000
0000
0000
0000
3030
,
2200
0000
0000
0000
0000
0000
0000
3300
,
0220
0000
0000
0000
0000
0000
0000
0330
,
0022
0000
0000
0000
0000
0000
0000
0033
,
2002
0000
0000
0000
0000
0000
0000
3003
,
0010
0000
0000
0100
0000
0000
0010
0000
,
1000
0000
1001
0010
0000
0100
1010
0000
,
0100
0000
0101
1000
0000
0011
1000
0000
,
0001
0000
0101
0010
0000
0001
0110
0000
,
0010
0000
0011
0100
0000
0110
1000
0001
,
0100
0000
1010
0100
0000
0010
0100
0101
,
1000
0000
1010
0100
0000
0001
0110
0000
,
0001
0100
0010
1000
0100
0010
1000
0001
,
0100
0010
1000
0100
0001
0010
0001
0200
0000
0000
0000
0000
0310
0000
0000
0000
,
1000
0010
0010
0100
0101
0000
0010
0100
0010
1000
1000
0001
1001
0000
0001
0010
,
0200
1000
1000
1300
0110
0000
0100
0001
0100
0010
0001
1000
1010
0000
0110
0000
,
0010
1000
1000
0001
0101
0000
0100
0001
1000
0001
0010
0010
0110
0000
0001
1000
,
0020
0100
0100
0130
1100
0000
1000
0010
1000
0001
0100
0100
0010
0000
1001
0000
,
1000
0001
0100
0010
0010
1000
0010
0100
,
0010
1000
0100
0001
0001
1000
0110
0010
,
1010
1000
0001
0100
0100
0010
1000
0001
,
1000
0010
0100
0001
0001
0010
0011
0000
,
0100
0010
0001
1000
1000
0010
0100
0010
,
1000
0001
0100
0010
0010
0100
0101
0001
,
1001
1000
0010
1000
0100
0001
0010
1000
,
0010
0100
0001
0100
0020
0000
1030
0000
,
0110
0010
1000
0001
0100
0010
0001
0100
,
1000
0010
0100
0001
1000
0001
0100
1000
,
0001
0100
0010
0100
0010
1000
0001
0010
,
0100
1000
0010
0001
0100
1000
0010
0001
,
0011
1000
0001
0100
0010
0100
1000
0001
,
0010
0100
1000
0001
0100
0001
0010
1000
,
0100
0000
0001
0000
0100
0000
0010
0000
1000
0000
0001
0100
0001
1000
0010
0100
,
0001
0001
0001
1001
,
0100
0010
1000
0010
0100
0001
1000
0001
,
0010
0100
0001
0100
0010
0010
1000
0100
,
0001
0100
1000
0010
0001
0010
0100
0001
,
0010
1000
0010
0100
0001
1000
1100
0000
,
0100
0001
0010
1000
0001
0100
0010
0100
,
1000
0001
0010
0001
0100
0100
0010
1000
,
0001
0000
0100
0000
0010
0000
0100
0000
0001
1000
0001
1000
0100
0010
1000
0001
,
0100
0000
0000
0000
0010
0000
0100
0000
0010
0000
0001
0000
1000
0010
1000
0010
,
0100
0001
0100
0010
1000
0001
1000
0010
,
0100
0000
0010
0000
0001
0000
1000
0000
0010
0000
0010
0000
1000
0000
0100
0001
,
0100
0010
0001
1000
0001
0100
0010
1000
,
0100
1000
0100
0010
0001
0100
0101
0000
,
0010
0000
0001
0000
0010
0000
0100
0000
1000
0000
1000
0000
0001
0100
0001
0100
,
0010
1000
0010
0100
0001
1000
0010
0100
,
0010
0100
0001
1010
0000
0000
0100
0001
0010
0101
0000
0000
,
0010
0000
0000
0000
0010
0000
0000
0000
0010
0000
1000
0000
1001
0000
0010
0100
,
0010
0001
1000
0001
0100
0010
1000
0001
,
0010
0000
0100
0000
1000
0000
0100
0000
0001
0000
0010
0000
1000
0000
0001
0010
,
0100
0001
1000
0010
0100
0010
0001
0010
,
1000
0000
0001
0000
0100
0000
0001
0000
0010
0000
0100
0000
0010
0001
0010
0001
,
1000
0000
0010
0000
0001
0000
0010
0000
1000
0000
0001
0000
0100
0000
0010
1000
,
0001
0000
0010
0000
0100
0000
0001
0000
1000
0000
0010
0000
0100
0000
0001
0100
,
1000
0010
0100
0001
0010
0100
1000
0001
0100
1000
0010
0100
0001
0010
0100
1000
,
0100
0000
0001
1000
0000
0010
0100
0000
,
2200
0000
0000
0000
0000
0000
0000
3300
0202
0000
0000
0000
0000
0000
0000
0303
,
0022
0000
0000
0000
0000
0000
0000
0033
0220
0000
0000
0000
0000
0000
0000
0330
,
2020
0000
0000
0000
0000
0000
0000
3030
0022
0000
0000
0000
0000
0000
0000
0033
,
0202
0000
0000
0000
0000
0000
0000
0303
2002
0000
0000
0000
0000
0000
0000
3003
;
