#VERSION:0.83;
#TITLE:Nataradin;
#SUBTITLE:(Raja Maharaja Mix);
#ARTIST:Q-Mex RMX by Auridy;
#TITLETRANSLIT:;
#SUBTITLETRANSLIT:;
#ARTISTTRANSLIT:;
#GENRE:;
#CREDIT:;
#MUSIC:Nataradin (Raja Maharaja mix).ogg;
#BANNER:Nataradin (Raja Maharaja Mix).png;
#BACKGROUND:Nataradin (Raja Maharaja Mix)-bg.png;
#CDTITLE:;
#SAMPLESTART:51.895;
#SAMPLELENGTH:15.000;
#SELECTABLE:YES;
#OFFSET:-0.150;
#BPMS:0.000=161.000;
#STOPS:250.750=0.373;
#SPEEDS:0.000=1.000=0.000=0;
#SCROLLS:0.000=1.000;
#TICKCOUNTS:0.000=4;
#TIMESIGNATURES:0.000=4=4;
#LABELS:0.000=Song Start;
#COMBOS:0.000=1;
#ORIGIN:;
#PREVIEWVID:;
#JACKET:;
#CDIMAGE:;
#DISCIMAGE:;
#BGCHANGES:;
#FGCHANGES:;

//--------------- dance-single - ----------------
#NOTEDATA:;
#STEPSTYPE:dance-single;
#DESCRIPTION:;
#DIFFICULTY:Beginner;
#METER:3;
#RADARVALUES:0.140417,0.227571,0.034793,0.078285,0,113,109,4,9,0,0,0,0,0,0.140417,0.227571,0.034793,0.078285,0,113,109,4,9,0,0,0,0,0;
#CHARTNAME:;
#CHARTSTYLE:;
#CREDIT:;
#NOTES:
0000
0000
0000
0000
,
0000
0000
0000
0000
,
0000
0000
0000
0000
,
0010
0000
0000
0000
,
0010
0000
0000
0000
,
0100
0000
0000
0000
,
0100
0000
0000
0000
,
1000
0000
0000
0000
,
1000
0000
0000
0000
,
0001
0000
0000
0000
,
0001
0000
0000
0000
,
1000
0000
0000
0000
,
1000
0000
0000
0000
,
0010
0000
0010
0000
,
0100
0000
0100
0000
,
0010
0000
0000
0000
,
0100
0000
0000
0000
,
0001
0000
0000
0000
,
1000
0000
1000
0000
,
1000
0000
0000
0000
,
0010
0000
0000
0000
,
0100
0000
0000
0000
,
0100
0000
0000
0000
,
0001
0000
0001
0000
,
1000
0000
1000
0000
,
0001
0000
0000
0000
,
0010
0000
0000
0000
,
0110
0000
0000
0000
,
1000
0000
1000
0000
,
1000
0000
0000
0000
,
0001
0000
0001
0000
,
0001
0000
0000
0000
,
0010
0000
0010
0000
,
0020
0000
0000
0000
,
0030
0000
0000
0000
,
1000
0000
1000
0000
,
0001
0000
0001
0000
,
1000
0000
0001
0000
,
1000
0000
0001
0000
,
0100
0000
0100
0000
,
0010
0000
0010
0000
,
0100
0000
0010
0000
,
0100
0000
0010
0000
,
0200
0000
0300
0000
,
0002
0000
0003
0000
,
1001
0000
0000
0000
,
0000
0000
0000
0000
,
0000
0000
0000
0000
,
0010
0010
0010
0000
,
0100
0000
0100
0000
,
1000
0000
1000
0000
,
0100
0000
0100
0000
,
0001
0001
0001
0000
,
0100
0000
0100
0000
,
0010
0000
0010
0000
,
0100
0000
0100
0000
,
0020
0000
0030
0000
,
0001
0000
0001
0000
,
1000
0000
1000
0000
,
0001
0000
0001
0000
,
0100
0000
0100
0000
,
0010
0000
0010
0000
,
0100
0100
0100
2002
,
0000
0000
0000
0000
,
0000
3003
0000
0010
,
0000
0010
0000
1000
,
0000
1000
0000
0010
,
0000
1000
0000
0010
,
0000
1000
0000
0001
,
0000
0001
0000
0100
,
0000
0100
0000
0001
,
0000
0100
0000
0001
,
0000
0100
0000
2000
,
0000
3000
0000
2002
,
0000
0000
0000
3003
;

//--------------- dance-single - ----------------
#NOTEDATA:;
#STEPSTYPE:dance-single;
#DESCRIPTION:;
#DIFFICULTY:Easy;
#METER:4;
#RADARVALUES:0.236099,0.260081,0.060889,0.243555,0,190,183,7,28,0,0,0,0,0,0.236099,0.260081,0.060889,0.243555,0,190,183,7,28,0,0,0,0,0;
#CHARTNAME:;
#CHARTSTYLE:;
#CREDIT:;
#NOTES:
0000
0000
0000
0000
,
0000
0000
0000
0000
,
0000
0000
0000
0000
,
1000
0000
0001
0010
,
0001
0000
0100
1000
,
0100
0000
0010
0000
,
1000
0001
1000
0000
,
0100
0100
1000
0000
,
0010
0010
1000
0000
,
0100
0000
0001
0000
,
0010
0000
1001
0000
,
0200
0300
0010
0010
,
2000
3000
0001
0001
,
0200
0300
0020
0030
,
0002
0003
0020
0030
,
1000
0010
2000
3000
,
0001
1000
0002
0003
,
0020
0030
0200
0300
,
0010
0100
1000
0000
,
0100
0000
0010
0000
,
0100
1000
0100
0000
,
0001
1000
0001
0000
,
0100
0000
0110
0000
,
0001
0001
0010
0000
,
0100
0100
1000
0000
,
0002
0003
2000
3000
,
0020
0030
0200
0300
,
0001
0100
0001
0000
,
0010
0010
0001
0000
,
0010
1000
0010
0000
,
0100
0100
0010
0000
,
2000
3000
0001
0010
,
0002
0003
0010
0001
,
0020
0030
0200
0300
,
0002
0000
0000
0003
,
0100
0010
0001
0000
,
0010
1000
0100
0000
,
2000
3000
0010
0010
,
0200
0300
0010
0010
,
0001
0100
0010
0000
,
1000
0001
1000
0000
,
0010
0000
1001
0000
,
0100
0000
0110
0000
,
2000
0000
0000
3000
,
0200
0000
0000
0300
,
0010
0000
0100
0000
,
0010
0100
0010
0001
,
1000
0000
0001
0000
,
0010
1000
0100
0010
,
1000
0000
0001
0000
,
0100
0001
0100
1000
,
0010
0000
1000
0000
,
0100
0010
0100
0000
,
0010
0000
0110
0000
,
1000
1000
0100
0000
,
0010
1000
0001
0000
,
0001
0010
0100
0000
,
0001
0000
1001
0000
,
0010
0010
0001
0000
,
0100
1000
0010
0000
,
0100
0000
0001
0000
,
0010
0000
0100
0000
,
1000
0100
0001
0020
,
0000
0000
0000
0000
,
0000
0000
0030
0100
,
0000
0010
0000
1000
,
0100
0001
0000
0010
,
0001
0100
0010
1000
,
0000
1001
0000
0100
,
0100
1000
0010
0010
,
0000
0001
0000
0200
,
0300
0010
0010
2000
,
3000
0001
0001
0020
,
0000
0000
0030
2000
,
0000
0000
3000
0010
;

//--------------- dance-single - ----------------
#NOTEDATA:;
#STEPSTYPE:dance-single;
#DESCRIPTION:;
#DIFFICULTY:Medium;
#METER:9;
#RADARVALUES:0.456043,0.487653,0.139174,0.200063,0.043492,367,351,16,23,0,0,0,0,0,0.456043,0.487653,0.139174,0.200063,0.043492,367,351,16,23,0,0,0,0,0;
#CHARTNAME:;
#CHARTSTYLE:;
#CREDIT:;
#NOTES:
0000
0000
0000
0000
,
0000
0000
0000
0000
,
0000
0000
0000
0000
,
0001
0000
0010
0000
1000
0000
0100
0001
,
0100
0000
0010
0000
0001
0000
0100
0010
,
0100
0001
1000
0001
,
0100
0010
0100
1001
,
0001
0000
0010
0100
0010
0000
1000
0000
,
0001
0000
0001
0100
0001
0000
0010
0000
,
0100
0000
0001
0010
1000
0000
0010
0000
,
0001
0000
0000
0100
0000
0000
0010
0000
0000
1000
0000
0000
0100
0000
0000
0000
,
0020
0030
0001
0100
,
0001
0000
0001
1000
0100
0000
0010
0000
,
0001
0000
0010
0001
0100
0000
0101
0000
,
0010
0000
0010
1000
0100
0000
1100
0000
,
1000
0010
0100
0000
0100
0001
0010
0000
,
0001
0000
0100
0000
0001
1000
0001
0020
,
0000
1000
0001
0031
,
0010
0000
1000
0000
0010
1000
0010
0000
,
0100
0000
0010
0000
0100
0010
1000
0000
,
0001
0000
1000
0010
0001
0000
0100
0000
,
0001
0000
0001
0010
0100
0000
0101
0000
,
1000
0000
0100
1000
0100
0000
1010
0000
,
0100
0000
0001
0000
1000
0010
1000
0000
,
0100
0000
0010
0000
0001
1000
0001
0200
,
0000
0010
0010
0301
,
0001
0000
0000
1000
0000
0000
0010
0000
0000
1000
0000
0000
0001
0000
0000
0000
,
0020
0000
0230
0000
0301
1000
0010
0000
,
0100
0001
0010
0001
0010
0000
1000
0100
,
0000
0001
0010
0000
0100
0001
0010
0000
,
0100
1000
0100
0001
0100
0000
1001
0000
,
0020
0000
0031
1000
0002
0000
0103
0010
,
0200
0000
1300
0010
1000
0000
0001
0000
,
0100
0001
0010
1000
,
0000
0010
0100
0001
1000
0000
1001
0000
,
1000
0100
0010
0000
0100
0001
0010
0000
,
0100
0010
1000
0000
0001
0000
1001
0000
,
0010
0001
0100
0000
0100
0010
1000
0000
,
0001
0010
1000
0010
0100
0000
0110
0000
,
0001
0100
0001
0000
0100
0000
0100
0001
,
0000
0100
0010
0000
1000
0001
0010
0000
,
0010
0000
0010
1000
0000
1000
0001
0000
,
0001
0000
0100
0010
0000
0001
1000
0000
,
2000
0000
0000
3000
,
0100
0000
0000
0001
0000
0000
0010
0000
0000
1000
0000
0000
0001
0000
0000
0000
,
0020
0000
2030
0000
,
3001
0010
1000
0010
,
0200
0000
0302
0000
,
0103
0000
0001
0000
0100
0010
0100
0000
,
2000
0000
3002
0000
1003
0010
1000
0000
,
0002
0000
0203
0000
0310
0001
0010
0000
,
2000
0000
3010
0100
0020
0000
0130
0001
,
0100
0000
0000
0010
0000
0000
1000
0000
0000
1000
0000
0000
0010
0000
0000
0000
,
0100
0000
0100
1000
0010
0000
1000
0000
,
0001
0000
0100
0000
0001
0100
0010
0000
,
0100
1000
0100
0001
0100
0000
1001
0000
,
0001
0100
0001
0010
0000
0000
1010
0000
,
1000
0010
0100
0000
1000
0100
0001
0000
,
0100
0010
0001
1000
0001
0000
0101
0000
,
0001
0100
0010
0000
0100
0010
0100
0000
,
0001
0100
0001
0010
,
1000
0000
0001
0010
0001
0000
0010
0100
,
0010
0000
0001
0100
0010
0001
2000
0000
,
0000
0200
0000
0000
0000
0000
0000
0000
,
0000
0000
3300
0100
,
0010
0000
0001
0010
1000
0000
0001
1000
,
0010
0001
0010
0000
0011
0000
0001
0100
,
0001
0000
1000
0100
1000
0000
1000
0100
,
0010
0100
0001
0000
0110
0000
0100
0001
,
0010
0000
0001
1000
0100
0000
0010
0100
,
1000
0010
0001
0000
1010
0000
0010
0000
,
0010
0001
0000
0001
0100
0000
0100
0000
,
1000
0010
0000
0001
0010
0000
2000
0000
,
3000
0000
0000
0000
0002
0000
0000
0000
0003
0000
0000
0000
0100
0000
0000
0010
,
0000
0000
0100
0000
0000
0001
0000
0000
0100
0000
0000
0000
1001
0000
0000
0000
;

//--------------- dance-single - ----------------
#NOTEDATA:;
#STEPSTYPE:dance-single;
#DESCRIPTION:;
#DIFFICULTY:Hard;
#METER:12;
#RADARVALUES:0.57285,0.658902,0.243555,0.347935,0.10873,461,433,28,40,0,0,0,0,0,0.57285,0.658902,0.243555,0.347935,0.10873,461,433,28,40,0,0,0,0,0;
#CHARTNAME:;
#CHARTSTYLE:;
#CREDIT:;
#NOTES:
0000
0000
0000
0000
,
0000
0000
0000
0000
,
2000
0000
0000
0000
,
3001
0010
0001
0010
0100
1000
0100
0001
,
0010
1000
0010
1000
0001
0010
0001
0100
,
1000
0100
1000
0100
0010
0001
0010
0100
,
1000
0000
1000
0000
0100
0010
0011
0000
,
0001
1000
0001
1000
0001
0010
0100
0010
,
0100
0001
0100
0001
0100
0010
1000
0010
,
1000
0001
0010
0000
0100
0010
1000
0000
,
0010
1000
0000
1000
0001
0000
0001
0100
0000
0100
1000
0000
0110
0000
0000
0000
,
0010
0000
0010
0000
0100
1000
0010
0000
,
0001
0000
0001
0000
0010
0001
0100
0000
,
0100
1000
0100
0001
0101
0000
1100
0000
,
1000
1000
0001
0010
0011
0000
1010
0000
,
0020
0000
2030
0000
3001
0010
0002
0000
,
0203
0000
2300
0000
3010
0010
0020
0000
,
0031
1000
0001
0000
0100
0001
0100
0000
,
1000
0000
0000
0001
0000
0000
0010
0000
0000
0100
0000
0000
1001
0000
0000
0000
,
2000
0000
3001
0000
0001
0010
1000
0000
,
0200
0000
0310
0000
0010
0001
1000
0000
,
0100
0010
0001
0000
1010
0000
1100
0000
,
1000
0001
0010
0000
0011
0000
0101
0000
,
1000
0010
2000
0000
3100
0010
0200
0000
,
0301
1000
0002
0000
0013
1000
0100
2000
,
0000
0000
0001
0000
0010
0010
3010
0000
,
0100
0000
0000
0001
0000
0000
0010
0000
0000
1000
0000
0000
1001
0000
0000
0000
,
0100
0000
0010
0100
0001
0000
1000
0100
,
0000
0100
1000
0100
0010
0100
0001
0001
,
0000
1000
0010
0100
0001
1000
0100
0010
,
0010
0100
0001
1000
0100
1000
0010
0000
,
0100
1000
0100
0000
0010
0001
0010
0000
,
0001
0100
0001
0010
0000
0100
0100
0000
,
1000
0100
1000
0010
0100
0001
0100
0020
,
0000
0100
1000
0100
0001
0030
1001
0000
,
0001
0010
1000
0010
0100
0001
1000
0000
,
0100
1000
0100
0001
0010
0001
0100
0000
,
1000
0100
1000
0000
0010
1000
1010
0000
,
0001
0010
0100
1000
0100
0010
0110
0000
,
1000
0010
0001
0100
1000
0000
0010
0001
,
0000
0010
0010
0000
0010
1000
0100
0000
,
0002
0000
0013
0020
0000
1000
1030
0000
,
0200
0000
0301
0002
0000
0010
0013
0000
,
0220
0000
0000
0330
,
1000
0100
0000
0001
0100
0000
0010
1000
0000
0100
1000
0000
1001
0000
0000
0000
,
0022
0000
0000
0030
,
1000
0100
1000
0013
,
0100
0001
0100
0000
0010
0100
0010
0000
,
0010
0000
0000
1000
0000
0000
0100
0000
0000
0001
0000
0000
0011
0000
0000
0000
,
0100
1000
0100
1000
0020
0000
0032
0000
,
0013
0100
0010
0010
0002
0000
2003
0000
,
3100
0001
0010
0001
0200
0000
2300
0000
,
3001
0010
0000
0001
0100
0000
0010
1000
0000
0100
0001
0000
1001
0000
0000
0000
,
0100
0010
0100
0001
0010
0000
0010
0000
,
1000
0000
1000
0000
0000
0000
0001
1000
0001
0000
0100
0000
0100
0000
0100
0000
,
0010
0001
0010
0100
1100
0000
1001
0000
,
2000
0001
0010
0002
3000
0100
0103
0000
,
0100
0001
0010
0100
1000
0100
1000
0000
,
0001
0010
0001
0100
0010
0100
1000
0000
,
0010
0100
0010
0100
1000
0100
0001
0000
,
0010
0001
0100
0000
0100
1000
0001
0000
,
1000
0100
1000
0001
1000
0010
0100
0001
,
0010
0000
0010
0000
0100
0000
0100
0000
0010
1000
0010
1000
0021
0000
0100
0000
,
0001
2000
0000
0000
0000
0000
0000
0000
,
0000
0000
0000
0000
3030
0000
0001
0100
,
0010
0100
1000
0001
0010
0000
1000
0010
,
1000
0001
0100
0001
1000
0000
0010
1000
,
0010
0000
0100
0010
0110
0000
0001
0100
,
1000
0010
1000
0100
1100
0000
0010
0100
,
0001
1000
0010
0000
0100
0001
0000
0100
,
0100
0000
0100
0010
1000
0000
0002
0000
,
0103
0200
0000
0010
0310
0000
2000
0000
,
3001
0002
0000
0100
0103
0000
2200
0000
,
0000
0000
0000
0000
0000
0000
0000
0000
3300
0000
0000
0000
0010
1000
0000
0001
,
1000
0000
0100
0010
0000
1000
0010
0000
0011
0000
0000
0000
0220
0000
0000
0000
,
0000
0000
0000
0330
;
