#VERSION:0.83;
#TITLE:NPC World;
#SUBTITLE:;
#ARTIST:PON;
#TITLETRANSLIT:;
#SUBTITLETRANSLIT:;
#ARTISTTRANSLIT:;
#GENRE:;
#CREDIT:;
#MUSIC:NPC World.ogg;
#BANNER:NPC World.png;
#BACKGROUND:NPC World-bg.png;
#CDTITLE:;
#SAMPLESTART:12.130;
#SAMPLELENGTH:15.000;
#SELECTABLE:YES;
#OFFSET:-1.179;
#BPMS:0.000=165.000;
#STOPS:;
#SPEEDS:0.000=1.000=0.000=0;
#SCROLLS:0.000=1.000;
#TICKCOUNTS:0.000=4;
#TIMESIGNATURES:0.000=4=4;
#LABELS:0.000=Song Start;
#COMBOS:0.000=1;
#ORIGIN:;
#PREVIEWVID:;
#JACKET:;
#CDIMAGE:;
#DISCIMAGE:;
#BGCHANGES:;
#FGCHANGES:;

//--------------- dance-single - ----------------
#NOTEDATA:;
#STEPSTYPE:dance-single;
#DESCRIPTION:;
#DIFFICULTY:Beginner;
#METER:3;
#RADARVALUES:0.254475,0.267199,0.085641,0.205538,0,208,198,10,24,0,0,0,0,0,0.254475,0.267199,0.085641,0.205538,0,208,198,10,24,0,0,0,0,0;
#CHARTNAME:;
#CHARTSTYLE:;
#CREDIT:;
#NOTES:
0000
0000
0000
0000
,
0000
0000
0000
0000
,
0000
0000
0000
0000
,
0000
0000
0000
0000
,
0100
0000
0100
0000
,
0010
0000
0010
0000
,
1000
0000
1000
0000
,
2002
0000
3003
0000
,
0001
0000
0001
0000
,
1000
0000
1000
0000
,
0001
0000
1000
0000
,
0001
0000
1000
0000
,
0010
0000
0010
0000
,
0100
0000
0100
0000
,
0010
0000
0100
0000
,
0220
0000
0330
0000
,
1000
0000
1000
0000
,
0100
0000
0100
0000
,
1000
0000
1000
0000
,
0001
0000
0001
0000
,
0010
0000
0010
0000
,
0001
0000
0001
0000
,
0100
0000
0100
0000
,
0200
0000
0300
0000
,
0010
0000
0010
0000
,
0100
0000
0100
0000
,
0010
0000
0100
0000
,
0010
0000
0100
0000
,
0001
0000
0001
0000
,
1000
0000
1000
0000
,
0001
0000
1000
0000
,
0001
0000
1000
0000
,
0010
0000
1000
0000
,
0010
0000
1000
0000
,
0100
0000
0001
0000
,
0100
0000
0001
0000
,
1000
0000
0100
0000
,
1000
0000
0100
0000
,
0010
0000
0001
0000
,
0010
0000
0001
0000
,
2000
0000
0000
0000
,
3000
0000
0002
0000
,
0000
0000
0003
0000
,
0000
0000
0020
0000
,
0000
0000
0030
0000
,
0200
0000
0000
0000
,
0300
0000
0000
0000
,
1000
0000
1000
0000
,
1000
0000
0001
0000
,
0001
0000
0001
0000
,
0001
0000
0100
0000
,
0100
0000
0100
0000
,
0010
0000
0010
0000
,
0010
0000
0010
0000
,
0020
0000
0030
0000
,
1000
0000
0000
0000
,
1000
0000
0000
0000
,
0001
0000
0000
0000
,
0001
0000
0000
0000
,
0100
0000
0000
0000
,
0100
0000
0000
0000
,
0010
0010
0010
0000
,
0010
0000
0100
0000
,
0010
0000
0100
0000
,
1000
0000
0100
0000
,
1000
0000
0100
0000
,
1000
0000
0001
0000
,
1000
0000
0001
0000
,
0010
0000
0001
0000
,
0020
0000
0030
0000
,
0100
0000
0100
0000
,
0010
0000
0010
0000
,
1000
0000
1000
0000
,
0010
0000
0010
0000
,
0001
0000
0001
0000
,
0100
0000
0100
0000
,
0010
0000
0010
0000
,
1000
0000
1000
0000
,
1001
0000
0000
0000
;

//--------------- dance-single - ----------------
#NOTEDATA:;
#STEPSTYPE:dance-single;
#DESCRIPTION:;
#DIFFICULTY:Easy;
#METER:4;
#RADARVALUES:0.254475,0.267199,0.085641,0.205538,0,208,198,10,24,0,0,0,0,0,0.254475,0.267199,0.085641,0.205538,0,208,198,10,24,0,0,0,0,0;
#CHARTNAME:;
#CHARTSTYLE:;
#CREDIT:;
#NOTES:
0000
0000
0000
0000
,
0000
0000
0000
0000
,
0000
0000
0000
0000
,
0000
0000
0000
0000
,
0001
0001
1000
0000
,
0010
0010
0100
0000
,
1000
0100
0001
0010
,
0100
0000
1001
0000
,
0020
0000
1030
0000
,
0100
0100
1000
0000
,
0010
0001
0010
0100
,
0010
0000
1000
0000
,
0200
0000
0301
0000
,
0010
0010
1000
0000
,
0100
0001
0010
0001
,
0100
0000
1000
0000
,
0220
0330
0001
0000
,
0100
0100
0010
0000
,
1000
0000
0001
0000
,
0010
0010
1000
0000
,
0100
0001
0010
0000
,
0010
1000
0100
0000
,
1000
0010
0100
0010
,
0001
0000
1001
0000
,
0010
0000
1000
0100
,
0100
0000
0001
0010
,
0010
0000
0010
0001
,
1000
1000
0001
0000
,
0001
0000
0100
0100
,
0010
0000
1000
1000
,
0010
0000
0001
0001
,
1000
0010
0100
0000
,
0200
0300
1000
0010
,
1000
0000
0001
0000
,
0020
0030
0001
0001
,
0010
0000
1001
0000
,
0200
0300
0010
1000
,
0010
0000
0001
0000
,
0002
0003
0010
0010
,
0100
0000
0110
0000
,
1000
0000
0001
0000
,
0010
0000
0110
0000
,
0100
0000
1000
1000
,
0001
0000
1000
0000
,
0010
1000
0100
0000
,
1001
0000
0010
0000
,
0001
0100
0010
1000
,
0200
0300
0001
0010
,
0001
0000
0002
0003
,
0010
0010
0001
0100
,
0010
0000
2000
3000
,
0100
0010
1000
0000
,
0020
0030
0100
1000
,
0010
0010
1000
0000
,
0220
0000
0330
0000
,
0100
0000
0001
0000
,
0010
0000
1000
0000
,
0100
0000
1000
0000
,
1000
0000
0001
0000
,
0010
0010
0001
0000
,
0100
0100
1000
0000
,
2002
0000
3003
0000
,
0010
0000
0001
0001
,
0010
0000
0100
0100
,
0010
0000
0010
1000
,
0100
1000
0100
0000
,
1000
0000
0100
0100
,
1000
0000
0010
0010
,
0001
0000
0010
0000
,
1000
0100
0010
0000
,
2000
3000
0100
0010
,
0010
0000
0001
0000
,
0002
0003
0010
0010
,
0001
0000
0100
0000
,
0020
0030
0100
0100
,
2000
3000
1000
1000
,
0020
0030
0200
0300
,
2000
3000
0002
0003
,
1001
0000
0000
0000
;

//--------------- dance-single - ----------------
#NOTEDATA:;
#STEPSTYPE:dance-single;
#DESCRIPTION:;
#DIFFICULTY:Medium;
#METER:7;
#RADARVALUES:0.431874,0.467598,0.205538,0.23123,0,353,329,24,27,0,0,0,0,0,0.431874,0.467598,0.205538,0.23123,0,353,329,24,27,0,0,0,0,0;
#CHARTNAME:;
#CHARTSTYLE:;
#CREDIT:;
#NOTES:
0000
0000
0000
0000
,
0000
0000
0000
0000
,
0000
0000
0000
0000
,
0000
0000
0000
0000
,
2000
3001
0002
0013
,
0020
0130
0200
0301
,
1000
0000
0010
0000
0100
0000
0100
0001
,
0000
0001
0010
0000
1001
0000
0001
0000
,
0010
0100
0001
0100
,
1000
1100
0010
1010
,
0001
0100
0001
0000
1000
0000
1000
0001
,
1000
0000
0010
0001
0010
0000
0110
0000
,
1000
0010
0100
0001
,
0010
0110
0100
0101
,
0010
0000
0001
0000
0100
0000
0100
1000
,
0000
1000
0001
0000
0010
0000
1000
0000
,
0202
0003
0020
0030
,
1000
1000
2000
3300
,
0010
0001
1000
0001
,
0100
0000
0100
0000
0001
0100
0001
0000
,
1000
0000
0010
0000
1000
0000
1000
0100
,
0000
0100
0010
0000
1000
0000
0001
0000
,
0010
0000
0010
1000
0000
0001
0000
1001
,
0000
0010
0100
0000
0010
0000
0110
0000
,
2000
3100
0002
0103
,
0020
1000
0001
0031
,
0100
1000
0100
0000
0001
0000
0001
0010
,
0000
1000
0001
0000
0100
0000
0010
0000
,
0200
0310
0020
1030
,
0002
1000
0100
0013
,
0100
0000
1000
0001
0000
0010
0001
0000
,
1000
0000
0100
0001
0100
0000
1010
0000
,
0001
0100
1000
0100
,
0001
0010
1000
0100
,
0010
1000
0100
1000
,
0010
0001
0100
1000
,
0010
0000
0010
1000
0001
0000
0001
0100
,
1000
0000
0010
0000
1000
0010
0001
0000
,
0100
0001
0100
0000
0001
0000
0100
0010
,
0000
1000
0010
1000
0010
0000
1001
0000
,
0022
0030
0200
0300
,
1000
0103
2200
3000
,
0020
0030
0001
0010
,
0001
0301
1000
0010
,
0001
0000
1000
0000
0001
0000
0001
0010
,
0100
0000
0001
0000
1000
0000
0100
0001
,
0000
1000
0100
0000
0010
0100
0010
0000
,
0002
0000
1003
0000
0100
0000
0001
0100
,
0000
0010
1000
0000
0020
0000
0031
0000
,
1000
0000
1000
0100
0000
0001
1000
0000
,
0100
0010
0001
0000
0200
0000
0310
0000
,
0001
0000
1000
0001
0000
0100
0010
0000
,
2000
0000
3001
0000
1000
0000
0010
0100
,
0000
0001
0010
0000
1000
0010
1000
0000
,
2002
0000
0000
0000
3003
0000
0001
1000
,
0001
0000
0110
0100
,
0001
1000
0100
0000
,
0001
0000
0001
1000
0001
0000
0100
0010
,
0100
0000
0100
1000
0000
1000
0010
0000
,
0100
0000
0101
1000
,
0001
0100
0010
0000
,
1000
0010
0001
0010
0200
0000
0300
0000
,
0001
0010
0100
0001
,
0010
1001
1000
1100
,
1000
0010
1000
0000
0100
0000
0001
1000
,
0001
0000
0010
1000
0010
0000
0101
0000
,
1000
0001
1000
0010
,
0100
1100
0001
0011
,
1000
0000
0010
0000
1000
0000
1000
0010
,
0000
0010
0100
0000
0001
0000
0011
0000
,
0010
1000
0010
0000
1000
0000
1000
0100
,
0000
0010
0001
0000
0100
0001
0100
0000
,
1000
0010
1000
0001
0000
0100
0000
0110
,
0000
0100
0000
0001
0000
0010
1000
0000
,
0100
0001
0010
0100
,
1000
0010
0100
1000
,
0001
0010
0001
0000
0010
0100
0010
0000
,
0100
1000
0001
1000
0010
0000
1000
0000
,
0110
0000
0000
0000
;

//--------------- dance-single - ----------------
#NOTEDATA:;
#STEPSTYPE:dance-single;
#DESCRIPTION:;
#DIFFICULTY:Hard;
#METER:12;
#RADARVALUES:0.539536,0.567797,0.094205,0.393947,0.059948,441,430,11,46,0,0,0,0,0,0.539536,0.567797,0.094205,0.393947,0.059948,441,430,11,46,0,0,0,0,0;
#CHARTNAME:;
#CHARTSTYLE:;
#CREDIT:;
#NOTES:
0000
0000
0000
0000
,
0000
0000
0000
0000
,
0000
0000
0000
0000
,
0000
0000
0000
0000
,
0100
0001
0100
0010
0000
1000
0000
0100
,
0000
1000
0000
0001
0010
0100
0010
0000
,
1000
0000
1000
0001
0100
0010
0100
0001
,
0000
1000
1000
0010
1010
0000
0001
0100
,
0020
0000
1000
0000
0130
0001
0100
0001
,
2000
0000
0002
0000
3003
0010
0100
1000
,
0200
0000
0310
0000
0001
0010
0001
0100
,
0010
1000
0200
0000
0300
1000
0010
0001
,
2000
0000
0010
0000
3001
0010
0100
0010
,
0200
0000
0302
0000
0003
0010
1000
0100
,
0020
0000
0000
0000
1030
0000
0000
0000
0100
0000
0000
1000
0000
0000
0100
0000
,
0020
0000
0100
0000
0130
0100
1000
0002
,
0000
0100
1000
0100
,
0010
0000
0010
1000
0010
0000
1000
0003
,
0001
1000
0010
0000
0010
0100
0001
0000
,
1000
1000
0100
0010
0100
0010
0001
0000
,
0001
1000
0001
1000
0010
0100
0000
1100
,
0000
0010
1000
0010
0100
1000
0001
0000
,
0010
1000
0010
0001
0000
0100
0000
0101
,
0000
1000
0100
1000
0001
0100
0010
2000
,
0000
0010
3001
0200
0000
1000
0310
0002
,
0000
2000
0000
3003
0010
1000
0010
0100
,
0000
0100
0001
1000
0000
0010
0100
0020
,
0000
2000
0000
0000
3030
0001
0010
2000
,
0000
0001
3100
0020
0000
0100
0031
0200
,
0000
0020
0000
0000
0330
1000
0001
0020
,
0000
0100
1030
0200
0000
1000
0301
2000
,
0000
0100
0010
0100
3010
0010
1010
0000
,
0100
0000
0000
0000
0001
0000
0000
0000
0100
0000
0000
0010
0000
0000
1000
0000
,
0000
0000
1000
0000
0100
0000
0000
0000
0001
0000
0000
0001
0000
0000
0010
0000
,
1000
0000
0000
0000
0100
0000
0000
0000
1000
0000
0000
0100
0000
0000
1000
0000
,
0000
0000
0010
0000
0010
0000
0000
0000
0100
0000
0000
0001
0000
0000
1000
0000
,
0010
0000
1000
0000
0010
0000
0000
0000
0100
0000
0000
0001
0000
0000
0001
0000
,
0000
0010
0100
0000
1000
0000
0100
0100
,
0001
0000
0010
0000
1000
0000
0001
0000
0100
0000
0000
0100
0000
0000
0010
0000
,
0000
1000
1000
0100
0010
0001
0100
0000
,
2000
0000
0000
0000
0000
0000
0002
0000
0000
0000
3003
0000
0020
0000
0000
0002
,
0000
0033
1200
0000
,
0010
0000
0000
1000
0000
1000
0310
0001
,
0100
0010
0100
1000
0001
0000
0001
0000
,
0010
0000
0000
0000
1000
0000
0000
1010
0000
0000
0010
0000
1000
0000
0100
0000
,
1000
0000
0100
0000
0001
0100
0000
0101
,
0000
0001
0001
0010
0100
0010
1000
0001
,
0100
0000
0010
0000
0001
0100
0010
1000
,
0000
1000
0100
0010
0100
1000
0001
0000
,
0010
0100
0010
0001
0100
1000
0001
1000
,
0000
0001
0010
1000
1000
0100
0010
0000
,
1000
0100
1000
0100
0000
0010
0001
0100
,
0010
0000
0100
0010
0001
0010
1000
0000
,
0100
1000
0100
0001
0010
0001
1000
0100
,
1000
0000
0000
0001
0000
0000
1000
0000
1001
0000
0010
0000
0100
0000
0010
0000
,
2000
0000
0000
0000
3000
0100
1000
0010
,
0200
0000
0002
0000
0303
0010
1000
0001
,
0200
0000
0300
0000
1000
0100
0001
0100
,
1000
0010
0002
0000
0003
0100
0001
0100
,
0020
0000
0000
0000
0030
0001
0010
0001
,
0200
0000
2000
0000
3300
0010
0100
0010
,
0001
1000
0001
0000
0010
1000
0010
0000
0220
0000
0000
0000
0330
0000
0000
0000
,
0100
0001
0010
0100
1000
0001
1000
0000
,
0001
0010
1000
0010
0100
0010
0100
0000
,
0100
1000
0010
0000
1000
0100
0001
0100
,
0010
0100
0001
0000
0100
0010
0001
0100
,
1000
0010
0001
0000
0010
1000
0100
0000
,
0001
1000
0100
0010
1000
0000
0100
0010
,
0001
0000
0010
0000
0100
0000
0000
0000
0100
0000
0000
1000
0000
0000
0001
0000
,
2000
0001
3001
1010
,
0100
0010
1000
0001
1000
0100
0010
0000
,
1000
0001
1000
0100
0010
0100
1000
0000
,
0010
0001
1000
0100
0010
0100
1000
0001
,
0000
0010
1000
0010
0000
0100
1000
0002
,
0000
1000
0103
0020
0000
0001
0130
2000
,
0000
0100
3010
0002
0000
0100
0013
0200
,
0000
1000
0310
2000
0000
0001
3010
0100
,
0000
0100
0000
0000
1000
0000
0010
0000
0000
0000
0010
0000
1000
0000
0000
0000
,
1001
0000
0000
0000
;
