#VERSION:0.81;
#TITLE:Muyuu;
#SUBTITLE:;
#ARTIST:Des-ROW Kumi;
#TITLETRANSLIT:;
#SUBTITLETRANSLIT:;
#ARTISTTRANSLIT:;
#GENRE:;
#ORIGIN:;
#CREDIT:;
#BANNER:Muyuu.png;
#BACKGROUND:Muyuu-bg.png;
#PREVIEWVID:;
#JACKET:;
#CDIMAGE:;
#DISCIMAGE:;
#LYRICSPATH:;
#CDTITLE:;
#MUSIC:Muyuu.ogg;
#OFFSET:-1.457000;
#SAMPLESTART:40.560448;
#SAMPLELENGTH:13.241379;
#SELECTABLE:YES;
#BPMS:0.000=72.500,
16.000=145.000,
160.000=144.000,
168.000=150.000,
176.000=155.000,
184.000=160.000,
192.000=165.000,
196.000=170.000;
#STOPS:;
#DELAYS:;
#WARPS:;
#TIMESIGNATURES:0.000=4=4;
#TICKCOUNTS:0.000=4;
#COMBOS:0.000=1;
#SPEEDS:0.000=1.000=0.000=0;
#SCROLLS:0.000=1.000;
#FAKES:;
#LABELS:0.000=Song Start;
#BGCHANGES:;
#KEYSOUNDS:;
#ATTACKS:
;

//---------------dance-single - ----------------
#NOTEDATA:;
#CHARTNAME:;
#STEPSTYPE:dance-single;
#DESCRIPTION:;
#CHARTSTYLE:;
#DIFFICULTY:Hard;
#METER:11;
#RADARVALUES:0.467437,0.568285,0.314621,0.275294,0.000000,341.000000,40.000000,35.000000,0.000000,0.000000,0.000000,0.000000,0.000000,0.467437,0.568285,0.314621,0.275294,0.000000,341.000000,40.000000,35.000000,0.000000,0.000000,0.000000,0.000000,0.000000;
#CREDIT:;
#NOTES:
0000
0000
0000
0000
,
0000
0000
0000
0000
,
0000
0000
0000
0000
,
0000
0000
0000
1001
,
0001
0000
1000
0001
0000
0100
0010
0001
,
0100
1000
0100
0001
0000
0100
1000
0000
,
0001
0000
1000
0001
0000
1000
0010
1000
,
0001
0010
0001
0010
0000
0100
0001
0000
,
1000
0000
0001
0010
0000
0010
0100
0000
,
1000
0001
1000
0100
0000
0001
0010
0000
,
0001
0000
0100
0010
0000
0010
0001
0100
,
0001
0001
1000
0010
0000
0100
0000
0100
,
1100
0000
0100
1000
0000
1000
0001
1000
,
0100
0001
1000
0100
0000
1000
1000
0001
,
0100
0000
1000
0010
0000
0001
1000
0001
,
0010
0001
0100
1000
0000
0010
0000
0010
,
0001
0000
1000
0100
0000
0001
0010
1000
,
0100
0100
0001
0100
0000
0100
0010
0000
,
0001
0001
1000
0100
0000
0100
0010
0100
,
0001
1000
0001
0010
0000
0001
1000
0001
,
0021
0000
1000
0000
0230
0000
0301
0001
,
0000
0000
0010
1010
0000
0000
0001
0000
,
0202
0000
0300
0100
0000
0100
0013
0000
,
1000
0100
0001
0100
0000
1000
0100
1000
,
1002
0000
0010
0000
0023
0000
0130
0100
,
0000
0000
1000
1001
0000
0000
0100
0000
,
2200
0300
0001
3200
,
0320
0000
0000
0000
0031
0100
1000
0100
,
0102
0000
1000
0000
0023
0000
1030
1000
,
0000
0000
0010
0110
0000
0000
0100
0000
,
2200
0000
3000
0001
0000
0001
0310
0000
,
0010
1000
0100
1000
0000
0001
0010
0100
,
0102
0000
0100
0000
2003
0000
3001
0001
,
0000
0000
0010
0011
0000
0000
0001
0000
,
2002
0000
0003
0000
0010
3000
0002
0000
,
0203
0000
0320
0030
,
2002
0000
0000
0000
,
0000
0000
0000
3003
,
0220
0000
0000
0000
,
0000
0000
0000
0330
,
0011
0000
1000
0100
0000
0010
0000
0002
,
0000
0100
0100
1003
,
0110
0000
0001
0010
0000
0100
0000
0020
,
0000
1000
0001
1030
,
1100
0000
0100
0010
0000
0100
0000
2000
,
0000
0001
0010
3100
,
0101
0001
0010
0100
0000
1000
0000
0200
,
0000
0000
0010
0000
0010
0010
0310
0000
,
2000
0000
0000
0100
0000
0000
3100
0000
,
0001
0000
1000
0100
0000
1000
0100
0000
,
0001
0010
0000
0010
0000
0001
1000
0000
,
0100
0001
0100
0000
0100
0001
0100
0000
,
0010
0000
1000
0100
0010
0000
1001
0000
,
0001
0001
0100
0100
0010
1000
0100
0001
,
0011
0000
0101
0000
1100
0000
0000
0100
,
1000
0001
0010
0001
0100
0001
0010
0001
,
2002
0003
0100
3100
,
1000
0001
0010
0100
0001
1000
0001
0010
,
0001
0100
1000
0100
0010
0001
0010
0000
,
0001
0001
0100
0001
0010
0010
1000
0100
,
0010
0100
0010
1000
0100
0001
1000
0000
,
0100
0010
0001
0010
0100
1000
0100
0001
,
0110
0000
1010
0000
1001
0000
0100
0001
,
0010
1000
0010
0001
0010
0100
1000
0100
,
0120
0100
1000
0130
,
0101
0000
0000
1100
0000
0000
0011
0000
,
0000
1010
0000
0000
0001
0000
1000
0000
,
1000
1000
0010
0100
0000
0000
0100
0100
,
1000
0001
0000
0000
1010
0000
0011
0000
,
0100
0001
0100
0001
0010
0001
0100
1000
,
0010
0100
0010
0001
0101
0000
1100
0000
,
1001
0100
0100
1100
1000
1000
0220
0000
,
0000
0330
0000
0000
;

//---------------dance-single - ----------------
#NOTEDATA:;
#CHARTNAME:;
#STEPSTYPE:dance-single;
#DESCRIPTION:;
#CHARTSTYLE:;
#DIFFICULTY:Medium;
#METER:8;
#RADARVALUES:0.334847,0.338611,0.196638,0.243831,0.000000,242.000000,25.000000,31.000000,0.000000,0.000000,0.000000,0.000000,0.000000,0.334847,0.338611,0.196638,0.243831,0.000000,242.000000,25.000000,31.000000,0.000000,0.000000,0.000000,0.000000,0.000000;
#CREDIT:;
#NOTES:
// measure 0
0000
0000
0000
0000
,  // measure 1
0000
0000
0000
0000
,  // measure 2
0000
0000
0000
0000
,  // measure 3
0000
0000
0000
0000
,  // measure 4
1000
0000
0000
0100
0000
0000
1000
0000
,  // measure 5
0010
0000
0010
0100
0000
0100
0001
0000
,  // measure 6
0100
0000
0000
1000
0000
0000
0001
0000
,  // measure 7
0100
0000
0100
0010
0000
1000
1000
0000
,  // measure 8
1100
0000
0000
0001
0000
0000
0100
0000
,  // measure 9
1000
0000
0001
1000
0000
0010
1000
0000
,  // measure 10
0100
0000
0000
0001
0000
0000
1000
0000
,  // measure 11
0100
0000
0010
0010
0000
0010
1000
0000
,  // measure 12
1001
0000
0000
0010
0000
0000
0100
0000
,  // measure 13
0100
0000
0010
0001
0000
0010
1000
0000
,  // measure 14
1000
0000
0000
0100
0000
0000
0001
0000
,  // measure 15
0010
0000
1000
1000
0000
0100
0100
0000
,  // measure 16
0110
0000
0000
0001
0000
0000
0010
0000
,  // measure 17
0010
0000
0100
1000
0000
0001
0100
0000
,  // measure 18
1000
0000
0000
0010
0000
0000
1000
0000
,  // measure 19
0100
0000
0100
1000
0000
0100
0001
0100
,  // measure 20
0002
0000
0003
0000
0010
0000
0100
0200
,  // measure 21
0000
0000
0000
0010
0300
0000
1000
0000
,  // measure 22
2200
0000
0000
0300
,  // measure 23
0010
0000
0000
0010
3000
0100
0010
0100
,  // measure 24
2000
0000
3000
0000
0001
0000
0010
0020
,  // measure 25
0000
0000
0000
1000
0030
0000
1000
0000
,  // measure 26
2020
0000
0030
0001
,  // measure 27
0001
0000
0000
0001
3000
0001
1000
0001
,  // measure 28
0200
0000
0300
0000
0001
0000
1000
2000
,  // measure 29
0000
0000
0000
0001
3000
0000
0100
0000
,  // measure 30
0202
0000
0000
0003
,  // measure 31
1000
0000
0000
1000
0300
0010
0001
0010
,  // measure 32
0200
0000
0300
0000
0010
0000
1000
2000
,  // measure 33
0000
0000
0000
0100
3000
0000
0100
0000
,  // measure 34
0022
0030
0100
0100
,  // measure 35
0023
0030
2000
3000
,  // measure 36
0220
0000
0000
0000
,  // measure 37
0000
0000
0000
0330
,  // measure 38
2002
0000
0000
0000
,  // measure 39
0000
0000
0000
3003
,  // measure 40
1001
0000
0001
0000
0100
0010
0000
0020
,  // measure 41
0000
1000
1000
0030
,  // measure 42
0110
0000
1000
0000
0100
1000
0000
2000
,  // measure 43
0000
0100
0100
3000
,  // measure 44
0011
0000
0010
0000
1000
0100
0000
0002
,  // measure 45
0000
0010
0010
0003
,  // measure 46
1100
0000
0010
0000
0100
0001
0000
0020
,  // measure 47
0000
0100
0100
0030
,  // measure 48
0000
0000
0000
0000
,  // measure 49
0100
0010
0100
0010
,  // measure 50
0001
0010
1000
0000
,  // measure 51
1000
1000
0100
0100
,  // measure 52
0001
0100
0101
0000
,  // measure 53
1000
0010
1000
0000
0001
0100
0001
0000
,  // measure 54
1000
0100
0010
0000
,  // measure 55
0100
0010
0100
0000
0010
0001
0010
0000
,  // measure 56
2002
0000
3000
0003
,  // measure 57
0100
1000
0001
0000
0001
1000
0010
0000
,  // measure 58
0010
0001
0100
0000
0110
0000
0010
0000
,  // measure 59
0001
1000
0100
0000
0001
1000
0010
0000
,  // measure 60
0100
1000
0010
0000
0001
0000
0011
0000
,  // measure 61
1000
1000
1000
0000
0100
0100
0100
0000
,  // measure 62
0001
0001
0001
0000
0001
0000
1001
0000
,  // measure 63
0010
0100
0010
0000
0010
0001
0010
0000
,  // measure 64
0220
0030
2000
3300
,  // measure 65
0110
0000
0000
1000
0000
0000
0001
0000
,  // measure 66
0000
0100
0000
0000
0010
0000
0010
0000
,  // measure 67
1001
0000
1000
0010
0000
0010
0001
0000
,  // measure 68
0001
0100
0000
0000
0100
0000
0100
0000
,  // measure 69
1010
0000
0001
0000
0100
0001
0010
0000
,  // measure 70
1000
0100
0001
0000
0100
0000
0010
0000
,  // measure 71
1100
0000
0000
0011
0000
0000
0110
0000
;

//---------------dance-single - ----------------
#NOTEDATA:;
#CHARTNAME:;
#STEPSTYPE:dance-single;
#DESCRIPTION:;
#CHARTSTYLE:;
#DIFFICULTY:Easy;
#METER:5;
#RADARVALUES:0.200009,0.197523,0.062924,0.062924,0.000000,162.000000,8.000000,8.000000,0.000000,0.000000,0.000000,0.000000,0.000000,0.200009,0.197523,0.062924,0.062924,0.000000,162.000000,8.000000,8.000000,0.000000,0.000000,0.000000,0.000000,0.000000;
#CREDIT:;
#NOTES:
0000
0000
0000
0000
,
0000
0000
0000
0000
,
0000
0000
0000
0000
,
0000
0000
0000
0000
,
0010
0100
0010
0000
,
1000
0001
1000
0000
,
0100
1000
0100
0000
,
0010
0001
0010
0000
,
1000
1000
0100
0000
,
0001
0001
0010
0000
,
1000
0001
1000
0000
,
0010
0100
0010
0000
,
1000
0001
1000
0001
,
0010
0100
0010
0000
,
0100
1000
0100
0001
,
0100
1000
0100
0000
,
0010
0001
0010
0001
,
0010
0100
1000
0000
,
0001
0100
0010
0001
,
1000
0000
1000
0000
,
0002
0000
0010
0000
,
0010
0000
0003
0000
,
0200
0000
1000
0000
,
1000
0000
0300
0000
,
2000
0000
0001
0000
,
0001
0000
3000
0000
,
0020
0000
1000
0000
,
1000
0000
1030
0000
,
0200
0000
0001
0000
,
0001
0000
0300
0000
,
0020
0000
1000
0000
,
1000
0000
0030
0000
,
2000
0000
0001
0000
,
0001
0000
0000
3000
,
0200
0000
0010
0000
,
0010
0000
0010
0300
,
1001
0000
0000
0000
,
0000
0000
0000
0000
,
0110
0000
0000
0000
,
0000
0000
0000
0000
,
1000
0000
0001
0000
,
0010
0000
0000
0000
,
0100
0000
0010
0000
,
0001
0000
0000
0000
,
1000
0000
0001
0000
,
0100
0000
0000
0000
,
0010
0000
1000
0000
,
0100
0000
0000
0000
,
0000
0000
0000
0000
,
1000
0100
1000
0100
,
1000
0000
1001
0000
,
0010
0100
0001
0010
,
0001
0000
0110
0000
,
0001
0001
1000
1000
,
0010
0000
0110
0000
,
1000
0100
0001
0100
,
1000
0000
1001
0000
,
0010
1000
0010
1000
,
0010
0100
0001
0000
,
1000
0001
1000
0010
,
1000
0100
0001
0000
,
1000
0010
0100
0001
,
0010
0001
0100
0000
,
0010
0100
0010
1000
,
0001
0000
1001
0000
,
0010
0000
0100
0000
,
0010
0100
0010
0100
,
1000
0000
0001
0000
,
1000
0001
1000
0001
,
0100
0000
0010
0000
,
0100
0001
0010
0000
,
1000
0000
0000
0001
0000
0000
1001
0000
;
