#VERSION:0.83;
#TITLE:Mind Mapping;
#SUBTITLE:(hard liquid remix);
#ARTIST:borzy;
#TITLETRANSLIT:;
#SUBTITLETRANSLIT:;
#ARTISTTRANSLIT:;
#GENRE:;
#ORIGIN:;
#CREDIT:;
#BANNER:Mind Mapping (hard liquid remix).png;
#BACKGROUND:Mind Mapping (hard liquid remix)-bg.png;
#PREVIEWVID:;
#JACKET:Mind Mapping (hard liquid remix)-jacket.png;
#CDIMAGE:;
#DISCIMAGE:;
#LYRICSPATH:;
#CDTITLE:;
#MUSIC:Mind Mapping (hard liquid remix).ogg;
#OFFSET:-0.143000;
#SAMPLESTART:90.622002;
#SAMPLELENGTH:15.000000;
#SELECTABLE:YES;
#DISPLAYBPM:88.000000:175.000000;
#BPMS:0.000=175.000,
164.000=87.500,
197.375=350.000,
198.000=175.000;
#STOPS:197.375=0.324;
#DELAYS:;
#WARPS:;
#TIMESIGNATURES:0.000=4=4;
#TICKCOUNTS:0.000=4;
#COMBOS:0.000=1;
#SPEEDS:0.000=1.000=0.000=0;
#SCROLLS:0.000=1.000;
#FAKES:;
#LABELS:0.000=Song Start;
#BGCHANGES:;
#KEYSOUNDS:;
#ATTACKS:
;

//---------------dance-single - ----------------
#NOTEDATA:;
#CHARTNAME:;
#STEPSTYPE:dance-single;
#DESCRIPTION:;
#CHARTSTYLE:;
#DIFFICULTY:Beginner;
#METER:3;
#RADARVALUES:0.119697,0.219943,0.042749,0.085498,0.000000,98.000000,93.000000,5.000000,10.000000,0.000000,0.000000,0.000000,0.000000,0.000000,0.119697,0.219943,0.042749,0.085498,0.000000,98.000000,93.000000,5.000000,10.000000,0.000000,0.000000,0.000000,0.000000,0.000000;
#CREDIT:;
#DISPLAYBPM:88.000000:175.000000;
#NOTES:
0000
0000
0000
0000
,
0000
0000
0000
0000
,
0000
0000
0000
0000
,
0000
0000
0000
0000
,
0000
0000
0000
0000
,
0000
0000
0000
0000
,
0000
0000
0000
0000
,
0000
0000
0000
0000
,
1000
0000
0000
0000
,
1000
0000
0000
0000
,
0001
0000
0000
0000
,
0001
0000
0000
0000
,
0010
0000
0000
0000
,
0010
0000
0000
0000
,
0100
0000
0000
0000
,
0200
0000
0000
0000
,
0300
0000
0000
0000
,
1001
0000
0000
0000
,
0001
0000
0001
0000
,
0001
0000
0000
0000
,
1000
0000
1000
0000
,
1000
0000
0000
0000
,
0100
0000
0100
0000
,
0100
0000
0000
0000
,
0010
0000
0010
0000
,
0010
0000
0000
0000
,
0001
0000
1000
0000
,
0001
0000
0000
0000
,
0100
0000
0010
0000
,
0100
0000
0000
0000
,
1000
0000
0001
0000
,
1000
0000
0000
0000
,
0010
0000
0000
0000
,
0110
0000
0000
0000
,
0100
0000
0100
0000
,
0100
0000
0000
0000
,
0001
0000
0001
0000
,
0001
0000
0000
0000
,
0010
0000
0010
0000
,
0010
0000
0000
0000
,
1000
0000
1000
0000
,
2000
0000
3000
0000
,
0002
0000
0003
0000
,
0020
0000
0030
0000
,
0200
0000
0300
0000
,
2002
0000
3003
0000
,
0220
0000
0330
0000
,
1000
0000
0001
0000
,
2000
0000
3000
0000
,
0000
0000
0100
0000
,
0000
0000
0100
0000
,
0000
0000
0001
0000
,
0000
0000
0001
0000
,
0000
0000
1000
0000
,
0000
0000
1000
0000
,
0000
0000
0010
0000
,
0000
0000
0010
0000
,
0000
0000
0001
0000
,
0001
0000
0001
0000
,
0000
0000
1000
0000
,
1000
0000
1000
0000
,
0000
0000
0010
0000
,
0010
0000
0010
0000
,
0000
0000
0100
0000
,
0100
0000
0100
0000
,
0000
0000
0010
0010
,
0010
0000
0001
0000
,
0001
0000
1000
1000
,
1000
0000
0100
0000
,
0100
0000
0001
0001
,
0001
0000
1000
0000
,
1000
0000
0100
0100
,
0100
0000
0010
0000
,
0010
0000
1001
0000
;

//---------------dance-single - ----------------
#NOTEDATA:;
#CHARTNAME:;
#STEPSTYPE:dance-single;
#DESCRIPTION:;
#CHARTSTYLE:;
#DIFFICULTY:Easy;
#METER:5;
#RADARVALUES:0.219852,0.282784,0.059848,0.051299,0.000000,180.000000,173.000000,7.000000,6.000000,0.000000,0.000000,0.000000,0.000000,0.000000,0.219852,0.282784,0.059848,0.051299,0.000000,180.000000,173.000000,7.000000,6.000000,0.000000,0.000000,0.000000,0.000000,0.000000;
#CREDIT:;
#DISPLAYBPM:88.000000:175.000000;
#NOTES:
0000
0000
0000
0000
,
0000
0000
0000
0000
,
0000
0000
0000
0000
,
0000
0000
0000
0000
,
0000
0000
0000
0000
,
0000
0000
0000
0000
,
0000
0000
0000
0000
,
0000
0000
0000
0000
,
0010
0000
0001
0000
,
0100
0010
1000
0010
,
0100
0000
0001
0000
,
0010
0001
0010
1000
,
0100
0000
1000
0000
,
0001
1000
0100
0010
,
1000
0000
0001
0000
,
0020
0000
0100
0000
,
0100
0000
1030
0000
,
1001
0000
0001
0000
,
1000
0010
1000
0000
,
0100
0000
1000
0000
,
0010
0001
0010
0000
,
1000
0000
0001
0000
,
0100
0010
0100
0000
,
0001
0000
0010
0000
,
0001
1000
0001
0000
,
0110
0000
0010
0000
,
0100
0100
0001
0000
,
1000
0000
0010
0000
,
1000
1000
0001
0000
,
0010
0000
0100
0000
,
0010
0010
1000
0000
,
0100
0000
0010
0000
,
1000
0001
1000
0001
,
0010
0000
1000
0000
,
0001
0000
0010
0100
,
0010
0000
0001
0000
,
0010
0000
1000
0100
,
1000
0000
0010
0000
,
0100
0000
0010
1000
,
0010
0000
1000
0000
,
0001
0000
1001
0000
,
0200
0300
1000
0010
,
2000
3000
0010
0001
,
0020
0030
0001
1000
,
0002
0003
0100
1000
,
0110
0000
0100
0000
,
0010
0000
0100
0000
,
0001
0000
1000
0000
,
0002
0000
0003
0000
,
0000
0000
0001
0000
,
1000
0000
0010
0001
,
0010
1000
0100
0000
,
1000
0000
0100
0001
,
0010
1000
0100
0000
,
0001
0000
1000
0010
,
0100
0001
0100
0000
,
0010
0000
0001
0010
,
0001
0000
1001
0000
,
0100
0000
0010
0001
,
0010
0000
0100
0000
,
1000
0000
0010
1000
,
0010
0000
0110
0000
,
0100
0000
0001
0100
,
0001
0000
1000
0000
,
1000
0010
0100
0010
,
0001
0000
1000
1000
,
0001
0000
0100
0100
,
0010
0000
0001
0001
,
0100
0000
0010
0010
,
1000
0000
0100
0100
,
0001
0000
0010
0010
,
0001
0000
1000
1000
,
0001
0001
0100
0010
,
1000
0000
0110
0000
;

//---------------dance-single - ----------------
#NOTEDATA:;
#CHARTNAME:;
#STEPSTYPE:dance-single;
#DESCRIPTION:;
#CHARTSTYLE:;
#DIFFICULTY:Medium;
#METER:10;
#RADARVALUES:0.381076,0.471307,0.042749,0.085498,0.000000,312.000000,307.000000,5.000000,10.000000,0.000000,0.000000,0.000000,0.000000,0.000000,0.381076,0.471307,0.042749,0.085498,0.000000,312.000000,307.000000,5.000000,10.000000,0.000000,0.000000,0.000000,0.000000,0.000000;
#CREDIT:;
#DISPLAYBPM:88.000000:175.000000;
#NOTES:
0000
0000
0000
0000
,
0000
0000
0000
0000
,
0000
0000
0000
0000
,
0000
0000
0000
0000
,
0000
0000
0000
0000
,
0000
0000
0000
0000
,
0000
0000
0000
0000
,
0000
0000
0000
0000
,
0001
0000
1000
0000
0010
0000
0100
0010
,
0100
0000
0001
0010
0001
0000
0100
0000
,
1000
0000
0010
0000
0100
0000
0010
0001
,
0010
0000
1000
0001
1000
0000
0001
0000
,
0100
0000
0010
0000
0001
0000
0100
1000
,
0100
0000
0001
0010
0001
0000
0100
0000
,
0001
0000
1000
0010
1000
0000
0001
0000
,
0200
0001
0010
0010
,
0001
1000
0020
0330
,
1001
0000
0010
1000
,
0100
0000
0100
0000
0010
0000
0001
0010
,
0001
0100
1000
0100
,
0010
0000
0010
0000
1000
0000
0100
0010
,
0100
1000
0001
1000
,
0001
0000
0001
0000
0100
0000
1000
0001
,
1000
0010
0001
0010
,
0100
0000
0100
0000
0010
0001
0010
0000
,
0110
0000
0001
1000
,
0001
0000
0001
0000
0010
0100
0010
0100
,
1000
0100
1000
0001
,
0010
0000
0010
0000
0001
0100
0001
0100
,
0010
0001
0010
0100
,
1000
0000
1000
0000
0100
0010
0100
0010
,
0001
0100
0001
0010
,
2000
0001
0001
3001
,
0100
0000
0010
0100
0000
0000
0001
0010
,
0000
0000
1000
0100
0000
0000
0010
0001
,
0010
0000
1000
0001
0000
0000
0010
0100
,
0000
0000
0001
0100
0000
0000
0010
0001
,
0010
0000
1000
0010
0000
0000
0100
0001
,
0000
0000
0010
0100
0000
0000
1000
0100
,
1000
0000
0010
0001
0000
0000
0100
1000
,
0000
0000
0100
0010
0100
0001
1000
0000
,
0020
0000
1000
0000
1030
0100
0001
0100
,
0002
0000
0010
0000
0013
0100
0100
0000
,
2000
0000
0001
0000
3001
0010
0100
0010
,
0200
0001
1000
0301
,
0010
0000
0010
0000
0100
0010
0100
0000
,
1000
0000
1000
0000
0001
1000
0001
0000
,
0100
0010
1000
0100
,
0002
0000
2000
0000
,
3003
0000
0100
0010
,
1000
0000
0001
0100
0001
0000
0010
0100
,
0010
1000
0100
0001
,
0010
0000
1000
0010
1000
0000
0100
1000
,
0100
0001
1000
0010
,
0100
0000
0010
0001
0010
0000
0100
0001
,
0100
1000
0010
0100
,
0001
0000
0010
1000
0020
0000
0100
0000
,
1000
0000
0031
0000
1000
0000
0001
0100
,
0000
0000
0010
0100
0000
0000
1000
0100
,
0000
0000
0001
0010
0001
0000
0100
0010
,
0000
0000
1000
0010
0000
0000
0001
0010
,
0000
0000
0001
0100
0001
0000
1000
0001
,
0000
0000
0100
0001
0000
0000
0010
0001
,
0000
0000
0100
0010
0100
0000
0001
1000
,
0000
0000
0010
1000
0000
0000
0100
1000
,
0000
0100
0001
0000
0110
0000
0010
0000
,
0100
0001
0100
0000
1000
0000
0010
0000
,
0100
1000
0100
0000
0001
0000
1000
0000
,
0001
0010
0001
0000
0100
0000
0100
0000
,
1000
0000
1001
0000
0001
0100
0001
0000
,
0010
0000
0100
0010
0100
0000
1000
0000
,
0010
0100
0010
0000
0100
0001
0010
0000
,
0001
1000
0010
0000
0100
0001
0100
0010
,
0100
1000
0001
0000
1001
0000
0000
0000
;

//---------------dance-single - ----------------
#NOTEDATA:;
#CHARTNAME:;
#STEPSTYPE:dance-single;
#DESCRIPTION:;
#CHARTSTYLE:;
#DIFFICULTY:Hard;
#METER:13;
#RADARVALUES:0.461688,0.541415,0.094048,0.589935,0.021374,378.000000,367.000000,11.000000,69.000000,0.000000,0.000000,0.000000,0.000000,0.000000,0.461688,0.541415,0.094048,0.589935,0.021374,378.000000,367.000000,11.000000,69.000000,0.000000,0.000000,0.000000,0.000000,0.000000;
#CREDIT:;
#DISPLAYBPM:88.000000:175.000000;
#NOTES:
0000
0000
0000
0000
,
0000
0000
0000
0000
,
0000
0000
0000
0000
,
0000
0000
0000
0000
,
0000
0000
0000
0000
,
0000
0000
0000
0000
,
0000
0000
0000
0000
,
0000
0000
0000
0000
,
1000
0001
1000
0010
0100
0000
0001
0100
,
0001
0010
0100
1000
0020
0000
2030
0000
,
3001
1000
0001
0100
0010
0000
1000
0100
,
2000
0000
3000
1000
0002
0000
0003
0000
,
0010
1000
0010
0100
0001
0000
0010
0100
,
0010
0001
1000
0010
0200
0000
2300
0000
,
3001
0010
0001
1000
0100
0000
1000
0010
,
2000
0010
0001
0100
,
3001
0100
1000
0100
0001
0010
0100
0000
,
2002
0000
3003
0000
0001
0100
0001
0000
,
1000
0100
1000
0000
0001
1000
0001
0000
,
0010
1000
0100
1000
0000
0001
0000
0010
,
0100
0010
0000
1000
0010
1000
0000
0001
,
0022
0000
0033
0000
1000
0010
1000
0000
,
0001
0010
0001
0000
1000
0010
1000
0000
,
0100
1000
0100
0010
0000
0001
0000
1000
,
0001
1000
0000
0010
0100
0010
1000
0000
,
2020
0000
3030
0100
0010
0100
0000
0010
,
1000
0000
0010
0000
0000
0000
1000
0000
0001
0000
0000
1000
0000
0000
0010
0000
,
0200
0000
0300
0010
0001
0010
0000
1000
,
0100
0000
1000
0000
0000
0000
0100
0000
0001
0000
0000
0100
0000
0000
0010
0000
,
0220
0000
0330
1000
0100
1000
0000
0001
,
1000
0000
0001
0000
0000
0000
0100
0000
0010
0000
0000
0100
0000
0000
0001
0000
,
1000
0010
0000
0100
0001
0100
0000
0001
,
1000
0010
0001
0010
1000
0001
0100
0000
,
0010
1000
0010
0200
0000
0302
0000
0203
,
0000
0320
0000
2030
0000
3020
0000
0130
,
1000
0001
1000
0020
0000
2030
0000
3002
,
0000
0000
0000
0200
0000
0000
0303
0000
,
0010
0100
0010
0002
0000
2003
0000
3020
,
0000
0230
0000
0320
0000
2030
0000
3001
,
0100
0010
1000
0100
0000
0101
0000
0021
,
0000
0100
0100
0031
,
1000
0010
0100
0001
0100
0010
1000
0100
,
1000
0001
0010
0001
0100
0100
0010
0010
,
1000
0100
0010
1000
0001
0100
0001
0010
,
0100
1000
0001
0010
0001
0100
0010
1000
,
0200
0000
0000
2300
0000
0000
0000
3002
0000
0000
0100
0000
1000
0000
0103
0000
,
0020
0000
1000
0001
2030
0100
0001
0010
,
3001
1000
0100
1000
1000
0010
1000
0010
,
0220
0000
0000
0300
2000
0000
0000
0000
,
3030
0000
0000
0000
0001
0010
0001
0100
,
0010
0000
1000
0100
1000
0010
0100
0001
,
0020
0000
0230
0000
1300
0001
1000
0010
,
0100
0000
0010
0100
0020
0000
0030
0010
,
2000
3000
0200
0010
,
0000
0010
0000
0001
,
0000
2300
0001
0000
3010
0001
0010
0100
,
1000
0000
0001
1000
0001
0100
0010
0100
,
0010
1000
1001
0000
0010
1000
0010
0200
,
0000
0302
0000
2003
0000
3020
0000
0230
,
0000
0302
0000
0103
0010
0100
0001
2000
,
0000
3002
0000
0023
0000
0000
0000
0200
,
0000
0000
0330
0000
0001
0100
0001
0020
,
0000
2030
0000
3200
0000
2300
0000
3002
,
0000
0203
0000
0310
0100
0001
0100
0010
,
0000
1000
0000
2020
0000
3030
0000
0220
,
0000
0000
0330
0000
1000
0001
1000
0010
,
0000
0100
1000
0001
0000
0010
0100
0010
,
0000
0001
0100
0010
0100
0001
1000
0100
,
0000
0001
1000
0010
0000
1000
0010
1000
,
0000
0100
0100
1000
0100
0001
0010
0001
,
0000
1000
0001
0010
0000
0100
0001
0100
,
0000
0010
1000
0100
1000
0100
0010
0001
,
0010
0100
1000
0001
1000
0100
0001
0010
,
0100
0010
0001
0000
2002
0000
0000
0000
,
0000
0000
3003
0000
;

//---------------dance-single - ----------------
#NOTEDATA:;
#CHARTNAME:;
#STEPSTYPE:dance-single;
#DESCRIPTION:;
#CHARTSTYLE:;
#DIFFICULTY:Challenge;
#METER:16;
#RADARVALUES:0.712075,1.178374,0.222294,0.136797,0.423214,583.000000,557.000000,26.000000,16.000000,0.000000,0.000000,0.000000,0.000000,0.000000,0.712075,1.178374,0.222294,0.136797,0.423214,583.000000,557.000000,26.000000,16.000000,0.000000,0.000000,0.000000,0.000000,0.000000;
#CREDIT:;
#DISPLAYBPM:88.000000:175.000000;
#NOTES:
// measure 0
0000
0000
0000
0000
,  // measure 1
0000
0000
0000
0000
,  // measure 2
0000
0000
0000
0000
,  // measure 3
0000
0000
0000
0000
,  // measure 4
0000
0000
0000
0000
,  // measure 5
0000
0000
0000
0000
,  // measure 6
0000
0000
0000
0000
,  // measure 7
0000
0000
0000
0000
,  // measure 8
0100
0010
1000
0100
0001
0010
1000
0100
,  // measure 9
1000
1010
0100
0001
0010
0001
1000
0100
,  // measure 10
0001
1000
0100
0001
0010
0100
1000
0001
,  // measure 11
1001
0100
0010
0001
1001
0100
0010
0100
,  // measure 12
0010
1000
0001
0010
0100
1000
0001
0010
,  // measure 13
0001
0101
0100
1000
0010
0100
1000
0100
,  // measure 14
0010
0001
0100
0010
1000
0100
0001
1000
,  // measure 15
1010
0100
0001
0100
0001
0010
1000
0010
,  // measure 16
0100
0000
0001
0000
1000
0000
0001
0000
0010
0100
0010
0100
0010
0000
0000
0000
,  // measure 17
2100
0000
3010
0100
0001
0100
0010
0100
,  // measure 18
0010
1000
1000
0001
1000
0001
1000
0001
,  // measure 19
0010
0010
0010
0002
0000
0010
0003
0100
,  // measure 20
0100
0010
0010
1000
0100
1000
0001
1000
,  // measure 21
0020
0000
0130
0001
1000
0010
1000
0010
,  // measure 22
1000
0001
0001
0100
0010
0100
0010
0100
,  // measure 23
1000
1000
1000
0002
0023
0032
0013
0100
,  // measure 24
0100
0010
0010
1000
0001
0100
0001
0010
,  // measure 25
0220
0000
0330
1000
0001
1000
0000
0010
,  // measure 26
1000
0000
0010
0000
1000
0000
0001
0000
1000
0000
1000
0001
0000
0000
0100
0000
,  // measure 27
0010
0100
0010
1000
0001
0010
0000
1000
,  // measure 28
0100
0000
1000
0000
0010
0000
0100
0000
0100
0000
0001
0100
0000
0000
0010
0000
,  // measure 29
2020
0000
3030
0010
0100
0010
0000
0001
,  // measure 30
0100
0000
0001
0000
0100
0000
1000
0000
0100
0000
1000
0001
0000
0000
1000
0000
,  // measure 31
0010
0100
0010
0100
0100
0001
0100
0001
,  // measure 32
1000
0000
1000
0010
0000
0000
0100
0000
0100
0010
0000
0000
0100
0000
0101
0000
,  // measure 33
0001
1000
0010
1000
0000
0100
1000
0010
,  // measure 34
0000
0100
0001
0010
0000
0100
1000
0010
,  // measure 35
1000
0001
0100
0010
0000
1000
0001
0100
,  // measure 36
0000
0000
0010
0000
1000
0000
0100
0000
0000
0000
1000
0000
0010
0000
0100
0010
,  // measure 37
0100
0001
1000
0010
0000
0100
0001
0010
,  // measure 38
0000
0100
1000
0010
0000
0100
0001
0010
,  // measure 39
0100
0100
1000
1000
0001
0001
0010
0010
,  // measure 40
0100
0000
1000
0000
0100
0000
1000
0010
1000
0010
1000
0010
0100
0001
0010
0100
,  // measure 41
1000
0001
0100
0010
1000
0000
0001
1000
0001
0011
0100
1000
0100
0001
0100
1000
,  // measure 42
0010
0100
0001
1000
0010
0000
1000
0100
1100
0000
0100
0001
0101
0100
0010
1000
,  // measure 43
0100
0001
1000
0010
0100
0010
0001
1000
0100
0110
0010
1000
0010
0001
0010
1000
,  // measure 44
0100
1000
0010
0100
0101
1000
0010
1000
1010
0010
1000
0100
0001
0100
0001
0010
,  // measure 45
0100
0001
0010
1000
0100
0000
0010
0001
0010
0110
0100
0001
1000
0010
0100
0010
,  // measure 46
1000
0001
0010
0100
0010
0000
0001
1000
0001
0000
0100
0001
0010
0000
0100
0000
,  // measure 47
0001
0100
0010
0000
0110
0000
1000
0001
1000
0010
0100
0010
1000
0000
0001
0000
,  // measure 48
0202
0000
0000
0000
0000
0000
0000
0000
0303
0000
0000
0000
0000
0000
1000
0002
0020
0000
0000
0000
0000
0000
0000
0000
0000
0000
0000
0000
0000
0000
0000
0000
,  // measure 49
0000
0000
0000
0000
0000
0000
0000
0000
0000
0000
0000
0033
0000
0000
0000
0000
1000
0000
0000
0000
0010
0000
0000
0000
0100
0000
0000
0000
1000
0000
0000
0000
,  // measure 50
0100
0000
0001
0100
0001
0011
0100
1000
,  // measure 51
0010
0001
0100
0001
0010
1000
0001
0010
,  // measure 52
0100
0000
1000
0100
1100
0000
0000
1000
,  // measure 53
1010
0000
0000
0000
0100
1000
0010
0100
,  // measure 54
0001
0000
0010
0100
0010
0011
0001
1000
,  // measure 55
0001
0100
0001
0010
0100
1000
0100
0010
,  // measure 56
1000
0000
0001
0000
0100
0000
0010
0000
0001
1000
0001
1000
0001
1000
0001
1000
,  // measure 57
0001
0010
0011
0000
0100
0010
1000
0100
,  // measure 58
0000
0001
0010
0100
0000
1000
0010
0100
,  // measure 59
0000
0001
1000
0010
0010
1000
0100
0010
,  // measure 60
0000
0000
0100
0000
0001
0000
0010
0000
0100
0000
0001
1000
0000
0100
1000
0000
,  // measure 61
0010
0100
0010
0000
1000
0010
1000
0010
0100
0000
0001
0000
1000
0000
0100
0000
,  // measure 62
0000
0010
0100
1000
0000
0001
1000
0010
,  // measure 63
0000
1000
0001
0100
0001
0010
0100
0010
,  // measure 64
0000
0001
1000
1001
0000
0010
0100
0110
,  // measure 65
0000
0000
0100
0000
1100
0000
0000
0000
0001
0100
0001
0000
0010
0000
0010
0100
,  // measure 66
0000
1000
0100
0000
1000
0000
1000
0010
0000
0100
0010
0000
0100
0000
0100
0001
,  // measure 67
0000
0010
0001
0000
0100
0000
0010
1000
0010
0100
0010
0000
1000
0000
1000
0001
,  // measure 68
0000
0100
0001
0000
0100
0000
0100
0010
0000
1000
0010
0000
1000
0000
1000
0100
,  // measure 69
0000
0001
0010
0001
0000
0100
1000
0010
0100
0001
0100
0000
0010
0000
0010
1000
,  // measure 70
0000
0100
1000
0000
0001
0000
0001
0010
0000
0100
0010
0000
0100
0000
0100
1000
,  // measure 71
0000
0001
1000
0000
0010
0000
0100
0001
0100
0000
0100
0000
0010
0000
0010
0000
,  // measure 72
1000
0000
1000
0000
0001
0000
0001
0000
1000
0000
0100
0000
1000
0000
0010
0100
,  // measure 73
0010
0100
0010
0100
0010
1000
0001
0200
0020
0000
0000
0000
0000
0000
0000
0000
,  // measure 74
0000
0000
0330
0000
;
