#VERSION:0.83;
#TITLE:Mikkatenka monkey;
#SUBTITLE:;
#ARTIST:Hideyoshi-kun;
#TITLETRANSLIT:;
#SUBTITLETRANSLIT:;
#ARTISTTRANSLIT:;
#GENRE:;
#ORIGIN:;
#CREDIT:;
#BANNER:Mikkatenka monkey.png;
#BACKGROUND:Mikkatenka monkey-bg.png;
#PREVIEWVID:;
#JACKET:;
#CDIMAGE:;
#DISCIMAGE:;
#LYRICSPATH:;
#CDTITLE:;
#MUSIC:Mikkatenka monkey.ogg;
#OFFSET:-0.549105;
#SAMPLESTART:20.792904;
#SAMPLELENGTH:18.285717;
#SELECTABLE:YES;
#BPMS:0.000=105.000;
#STOPS:;
#DELAYS:;
#WARPS:;
#TIMESIGNATURES:0.000=4=4;
#TICKCOUNTS:0.000=4;
#COMBOS:0.000=1;
#SPEEDS:0.000=1.000=0.000=0;
#SCROLLS:0.000=1.000;
#FAKES:;
#LABELS:0.000=Song Start;
#BGCHANGES:;
#KEYSOUNDS:;
#ATTACKS:
;

//---------------dance-single - ----------------
#NOTEDATA:;
#CHARTNAME:;
#STEPSTYPE:dance-single;
#DESCRIPTION:;
#CHARTSTYLE:;
#DIFFICULTY:Hard;
#METER:10;
#RADARVALUES:0.303571,0.341486,0.148662,0.000000,0.026235,243.000000,226.000000,17.000000,0.000000,0.000000,0.000000,0.000000,0.000000,0.000000,0.303571,0.341486,0.148662,0.000000,0.026235,243.000000,226.000000,17.000000,0.000000,0.000000,0.000000,0.000000,0.000000,0.000000;
#CREDIT:;
#NOTES:
0000
0000
0000
0000
,
0000
0000
0000
0000
,
0000
0000
0000
0000
,
0000
0000
0000
0000
,
0000
0000
0000
0000
,
0100
0000
0000
0000
1000
0000
0000
0000
0000
0000
0100
0000
0000
0100
0000
0000
,
0010
0000
0000
0000
0001
0000
0000
0000
0000
0000
0010
0000
0000
0010
0000
0000
,
1000
0000
0000
0000
0010
0000
0000
0000
0000
0000
1000
0000
0000
1000
0000
0000
,
0101
0011
1100
0100
,
0001
0010
0100
0000
0010
0001
1000
0000
,
0100
0010
0100
0001
1000
1000
1001
0000
,
0010
0000
0100
0000
0010
0100
0100
0000
,
1000
0000
0001
0000
1000
0001
0001
0000
,
0010
1000
0100
0000
1000
0010
0001
0000
,
0001
0100
0010
1000
0100
0100
0110
0000
,
0010
0000
0001
0000
0010
0001
0001
0000
,
0010
1000
0100
1100
,
0010
0001
1000
0010
0001
1000
0000
0000
,
0100
0010
0001
0100
0010
0001
0000
0000
,
1000
0010
0100
1000
0010
0100
0000
0000
,
0001
0100
1000
0001
0100
1000
0000
0000
,
0010
0001
0010
0001
0100
0010
0100
0000
,
1000
0100
1000
0100
0010
1000
0010
0000
,
0100
0010
0100
0010
0001
0100
0001
0000
,
0011
1010
1100
0100
,
0010
0000
1000
0000
0010
0010
0010
0000
,
1000
0000
0100
0000
1000
1000
1000
0000
,
0100
0000
0001
0000
0100
0100
0100
0000
,
0000
0001
0011
0000
1000
1100
0000
0000
,
0001
0000
1000
0000
0001
1000
0010
1000
,
0010
0000
0001
0000
0010
0001
0100
0001
,
1000
1000
1000
0000
0001
0010
0001
0000
,
0100
0000
0000
0010
0010
0000
0000
0100
0100
0000
1000
0000
0010
0000
0100
0000
,
0001
0000
1000
0000
,
0100
0010
0100
0000
,
0010
0001
0001
0000
0000
0000
0011
0000
,
0000
0110
0000
1001
,
0001
0010
0000
0100
,
0000
0001
0000
1000
,
1000
0010
0010
0000
0000
0001
0001
0000
,
0100
0010
0001
1001
,
1000
0001
0010
0000
0100
1000
0010
0000
,
0001
0100
0001
1000
0010
0010
0110
0000
,
1000
0000
0010
0000
1000
0010
0010
0000
,
0001
0000
0100
0000
0001
0100
0100
0000
,
0100
1000
0001
0000
0010
0100
1000
0000
,
0001
0100
0010
0100
1000
1000
1001
0000
,
0010
0000
0100
0000
0010
0010
0010
0000
,
1000
0000
0000
0000
0001
0000
0000
0000
0010
0000
0000
0000
0100
0100
0000
0000
;

//---------------dance-single - ----------------
#NOTEDATA:;
#CHARTNAME:;
#STEPSTYPE:dance-single;
#DESCRIPTION:;
#CHARTSTYLE:;
#DIFFICULTY:Medium;
#METER:7;
#RADARVALUES:0.242357,0.277103,0.069959,0.000000,0.000000,194.000000,186.000000,8.000000,0.000000,0.000000,0.000000,0.000000,0.000000,0.000000,0.242357,0.277103,0.069959,0.000000,0.000000,194.000000,186.000000,8.000000,0.000000,0.000000,0.000000,0.000000,0.000000,0.000000;
#CREDIT:;
#NOTES:
0000
0000
0000
0000
,
0000
0000
0000
0000
,
0000
0000
0000
0000
,
0000
0000
0000
0000
,
0000
0000
0000
0000
,
0100
0100
0100
0001
,
0010
0010
0010
1000
,
0001
0001
0001
1000
,
0010
0100
0010
0110
,
1000
0000
0010
0000
1000
0100
1000
0000
,
0001
0000
0100
0000
0001
0001
0001
0000
,
0100
0010
0010
0100
,
1000
0100
0001
0100
,
0010
0000
0001
0000
0010
0100
0010
0000
,
0100
0000
1000
0000
0100
0100
0100
0000
,
0010
0001
0010
1000
,
0001
0001
0001
1001
,
0010
0000
0010
0100
0010
0100
0000
0000
,
1000
0000
1000
0001
1000
0001
0000
0000
,
0100
0000
0100
1000
0100
1000
0000
0000
,
0001
0000
0001
0010
0001
0010
0000
0000
,
0010
1000
0001
1000
0100
1000
0000
0000
,
0100
0001
0010
0001
1000
0001
0000
0000
,
0001
0100
1000
0100
0010
0100
0000
0000
,
0010
0100
0100
0110
,
0001
0100
0100
0001
,
0010
1000
1000
0010
,
0100
0100
0100
0000
0001
0000
0001
0000
,
0000
1000
0010
0000
1000
0010
0000
0000
,
0100
0010
0010
0100
,
0001
0100
0100
0001
,
1000
1000
1000
0000
0010
0000
0010
0000
,
1000
0001
1000
0001
,
0011
0000
0000
0010
,
0100
0100
0000
1000
,
0010
0010
0000
0100
,
0001
0001
0000
1000
,
0010
0000
0100
0000
,
0010
0000
0001
0000
,
1000
1000
1000
0000
,
1001
0110
1001
0010
,
0001
0000
1000
0000
0001
0010
0001
0000
,
0100
0000
0001
0000
0100
0100
0100
0000
,
0010
1000
1000
0010
,
0100
0001
0100
1000
,
0100
0000
0001
0000
0100
0010
0100
0000
,
1000
0000
0010
0000
1000
1000
1000
0000
,
0001
0010
0010
0001
,
1000
0001
1000
1001
;

//---------------dance-single - ----------------
#NOTEDATA:;
#CHARTNAME:;
#STEPSTYPE:dance-single;
#DESCRIPTION:;
#CHARTSTYLE:;
#DIFFICULTY:Easy;
#METER:4;
#RADARVALUES:0.187390,0.213156,0.113683,0.000000,0.000000,150.000000,137.000000,13.000000,0.000000,0.000000,0.000000,0.000000,0.000000,0.000000,0.187390,0.213156,0.113683,0.000000,0.000000,150.000000,137.000000,13.000000,0.000000,0.000000,0.000000,0.000000,0.000000,0.000000;
#CREDIT:;
#NOTES:
0000
0000
0000
0000
,
0000
0000
0000
0000
,
0000
0000
0000
0000
,
0000
0000
0000
0000
,
0000
0000
0000
0000
,
1001
1000
0000
0001
,
0000
1000
0000
0001
,
0000
0010
0000
0100
,
0000
1001
0000
0110
,
1000
1000
0010
0010
,
0010
0010
1000
1000
,
0100
0100
0000
0001
,
0000
0010
0000
1001
,
0010
0010
0100
0100
,
0100
0100
0010
0010
,
1000
1000
0000
0001
,
0000
1000
0000
1001
,
0010
1000
0010
0000
,
0100
0010
0100
0000
,
0001
1000
0001
0000
,
0010
0001
0010
0000
,
0100
1000
0001
0001
,
0010
0001
0100
0100
,
1000
0001
0010
0010
,
0000
0110
0000
1001
,
0010
0001
0100
0000
,
1000
0001
0100
0000
,
0100
0010
1000
0000
,
0001
0100
1000
0000
,
0010
0010
0010
0001
,
1000
1000
1000
0010
,
0100
0100
0100
1000
,
0001
0001
0001
0010
,
0000
0001
0000
0001
,
0000
1000
0000
1000
,
0000
0010
0000
0110
,
0000
0100
0000
1001
,
0000
0001
1000
0001
,
0000
0010
0001
0010
,
0000
1000
0100
1000
,
0000
1001
0000
0110
,
0010
0010
0001
0001
,
0001
0001
0010
0010
,
1000
1000
0000
0100
,
0000
1000
0000
0110
,
0001
0010
0001
0001
,
1000
0100
1000
1000
,
0100
0100
0100
0100
,
1000
0001
0110
0001
;

//---------------dance-single - ----------------
#NOTEDATA:;
#CHARTNAME:;
#STEPSTYPE:dance-single;
#DESCRIPTION:;
#CHARTSTYLE:;
#DIFFICULTY:Beginner;
#METER:1;
#RADARVALUES:0.098692,0.127893,0.034979,0.000000,0.000000,79.000000,75.000000,4.000000,0.000000,0.000000,0.000000,0.000000,0.000000,0.000000,0.098692,0.127893,0.034979,0.000000,0.000000,79.000000,75.000000,4.000000,0.000000,0.000000,0.000000,0.000000,0.000000,0.000000;
#CREDIT:;
#NOTES:
// measure 0
0000
0000
0000
0000
,  // measure 1
0000
0000
0000
0000
,  // measure 2
0000
0000
0000
0000
,  // measure 3
0000
0000
0000
0000
,  // measure 4
0000
0000
0000
0000
,  // measure 5
0010
0000
0000
0000
,  // measure 6
0010
0000
0000
0000
,  // measure 7
0010
0000
0000
0000
,  // measure 8
0010
0000
0000
1001
,  // measure 9
0000
1000
0000
0001
,  // measure 10
0000
1000
0000
0001
,  // measure 11
0000
1000
0000
0001
,  // measure 12
0000
1000
0000
0001
,  // measure 13
0000
0100
0000
0010
,  // measure 14
0000
0100
0000
0010
,  // measure 15
0000
0100
0000
0000
,  // measure 16
0010
0010
0010
0000
,  // measure 17
1000
0000
0001
0000
,  // measure 18
0001
0000
1000
0000
,  // measure 19
0010
0000
0100
0000
,  // measure 20
0100
0000
0010
0000
,  // measure 21
0001
0000
0100
0000
,  // measure 22
0100
0000
0001
0000
,  // measure 23
0010
0000
1000
0000
,  // measure 24
1000
0000
0110
0000
,  // measure 25
0000
0100
0000
0100
,  // measure 26
0000
0100
0000
0100
,  // measure 27
0000
0001
0000
0001
,  // measure 28
0000
0001
0000
0001
,  // measure 29
0000
0010
0000
0010
,  // measure 30
0000
0010
0000
0010
,  // measure 31
0000
1000
0000
1000
,  // measure 32
0000
1000
0000
0000
,  // measure 33
1001
0000
0000
0000
,  // measure 34
0000
0000
0000
0000
,  // measure 35
0000
0000
0000
0000
,  // measure 36
0000
0000
0000
0000
,  // measure 37
0100
0000
0000
0000
,  // measure 38
0100
0000
0000
0000
,  // measure 39
0010
0000
0000
0000
,  // measure 40
0010
0010
0010
0000
,  // measure 41
0001
0000
1000
0000
,  // measure 42
0001
0000
1000
0000
,  // measure 43
0100
0000
0010
0000
,  // measure 44
0100
0000
0010
0000
,  // measure 45
1000
0000
0001
0000
,  // measure 46
1000
0000
0001
0000
,  // measure 47
0010
0000
0100
0000
,  // measure 48
0010
0000
0000
1001
;
