#VERSION:0.83;
#TITLE:Metallic;
#SUBTITLE:;
#ARTIST:Sota Fujimori;
#TITLETRANSLIT:;
#SUBTITLETRANSLIT:;
#ARTISTTRANSLIT:;
#GENRE:;
#CREDIT:;
#MUSIC:Metallic.ogg;
#BANNER:Metallic.png;
#BACKGROUND:Metallic-bg.png;
#CDTITLE:;
#SAMPLESTART:38.207;
#SAMPLELENGTH:15.000;
#SELECTABLE:YES;
#OFFSET:-0.025;
#BPMS:0.000=176.000;
#STOPS:;
#SPEEDS:0.000=1.000=0.000=0;
#SCROLLS:0.000=1.000;
#TICKCOUNTS:0.000=4;
#TIMESIGNATURES:0.000=4=4;
#LABELS:0.000=Song Start;
#COMBOS:0.000=1;
#ORIGIN:;
#PREVIEWVID:;
#JACKET:Metallic-jacket.png;
#CDIMAGE:;
#DISCIMAGE:;
#BGCHANGES:;
#FGCHANGES:;

//--------------- dance-single - ----------------
#NOTEDATA:;
#STEPSTYPE:dance-single;
#DESCRIPTION:;
#DIFFICULTY:Beginner;
#METER:4;
#RADARVALUES:0,0,0,0,0;
#NOTES:
0100
0000
0000
0000
,
0100
0000
0000
0000
,
0010
0000
0000
0000
,
0010
0000
0000
0000
,
0001
0000
0000
0000
,
0001
0000
0000
0000
,
1000
0000
0000
0000
,
1000
0000
0000
0000
,
0100
0000
0100
0000
,
0100
0000
0000
0000
,
0010
0000
0010
0000
,
0010
0000
0000
0000
,
1000
0000
1000
0000
,
1000
0000
0000
0000
,
0001
0000
0001
0000
,
0001
0000
0000
0000
,
1000
0000
0001
0000
,
1000
0000
0001
0000
,
0100
0000
0010
0000
,
0100
0000
0010
0000
,
0001
0000
1000
0000
,
0001
0000
1000
0000
,
0010
0000
0100
0000
,
0010
0000
0100
0000
,
2000
0000
0000
0000
,
3000
0000
0000
0000
,
0002
0000
0000
0000
,
0003
0000
0000
0000
,
0010
0000
0010
0000
,
0010
0000
0000
0000
,
0100
0000
0100
0000
,
0100
0000
0000
0000
,
1000
0000
1000
0000
,
1000
0000
0000
0000
,
0001
0000
0001
0000
,
0001
0000
0000
0000
,
1000
0000
1000
0000
,
0001
0000
0001
0000
,
0100
0000
0100
0000
,
0010
0000
0010
0000
,
1000
0000
1000
0000
,
0001
0000
0001
0000
,
0010
0000
0010
0000
,
0100
0000
0100
0000
,
1000
0000
0000
0000
,
1001
0000
0000
0000
,
0001
0000
0000
0000
,
1001
0000
0000
0000
,
0010
0010
0010
0000
,
0100
0100
0100
0000
,
0010
0000
0100
0000
,
0010
0000
0100
0000
,
0001
0001
0001
0000
,
1000
1000
1000
0000
,
0001
0000
1000
0000
,
0001
0000
1000
0000
,
0010
0000
0100
0000
,
0010
0000
0100
0000
,
1000
0000
0001
0000
,
1000
0000
0001
0000
,
0100
0000
0010
0000
,
0100
0000
0010
0000
,
0001
0000
1000
0000
,
0001
0000
1000
0000
,
0010
0010
0010
0000
,
0100
0000
0100
0000
,
0100
0100
0100
0000
,
1000
0000
1000
0000
,
1000
1000
1000
0000
,
0001
0000
0001
0000
,
0001
0001
0001
0000
,
0010
0000
0010
0000
,
0100
0000
0100
0000
,
0010
0000
0010
0000
,
1000
0000
0001
0000
,
1000
0000
1001
0000
;

//--------------- dance-single - ----------------
#NOTEDATA:;
#STEPSTYPE:dance-single;
#DESCRIPTION:;
#DIFFICULTY:Easy;
#METER:7;
#RADARVALUES:0,0,0,0,0;
#NOTES:
2000
0000
3001
0000
,
0001
0000
1000
0000
,
0020
0000
0130
0000
,
0100
0000
0010
0000
,
0200
0000
1300
0000
,
1000
0000
0100
0000
,
0002
0000
0013
0000
,
0010
0000
0001
0000
,
1000
0001
1000
0000
,
0100
0010
0001
0010
,
1000
0100
1000
0000
,
0001
1000
0001
1000
,
0010
0100
0010
0000
,
0100
0001
0010
0001
,
0100
1000
0100
0000
,
0010
0100
0010
0000
,
1000
0000
1001
0000
,
0001
1000
1100
0000
,
0010
0000
0110
0000
,
0100
0001
0101
0000
,
0010
0001
0010
0100
,
1000
0100
0001
0000
,
1000
0001
0100
1000
,
0001
1000
0010
0000
,
0002
0000
0010
0000
,
0020
0000
0033
0000
,
2000
0000
0100
0000
,
0200
0000
3300
0000
,
0010
0100
0010
0100
,
0010
0001
1000
0000
,
0001
0100
0001
0100
,
0001
0010
1000
0000
,
0100
1000
0100
1000
,
0100
0010
0001
0000
,
0010
1000
0010
1000
,
0010
0100
0010
0000
,
0100
0001
0100
1000
,
0100
0010
0100
0100
,
1000
0001
0100
0010
,
1000
0001
1000
1000
,
0001
0100
0010
0100
,
0001
1000
0010
0100
,
0001
0010
0100
0001
,
1000
0010
0100
0000
,
0001
0000
1001
0000
,
1000
0000
1010
0000
,
0100
0000
1100
0000
,
0001
0000
0011
0000
,
0100
0010
0100
0010
,
1000
0100
1000
0100
,
0001
0100
0001
0100
,
0010
0001
0100
1000
,
0010
0100
0010
0100
,
0001
0100
0001
0100
,
1000
0100
1000
0100
,
0010
0010
0010
0010
,
0200
0300
0002
0003
,
0100
1000
0200
0300
,
0020
0030
0002
0003
,
0100
1000
0002
0003
,
0020
0030
2000
3000
,
0100
0010
1000
1001
,
0200
0300
0002
0003
,
0010
0001
0020
0030
,
0100
0010
0100
0001
,
1000
0010
2000
3000
,
0001
0100
0001
0100
,
0010
0001
2000
3000
,
0001
1000
0001
0100
,
0010
0100
0002
0003
,
0010
0001
0010
0100
,
0010
0100
2000
3000
,
0001
0000
1000
0000
,
0100
0001
0100
0000
,
0010
0100
1000
0100
,
0001
0000
0110
0110
;

//--------------- dance-single - ----------------
#NOTEDATA:;
#STEPSTYPE:dance-single;
#DESCRIPTION:;
#DIFFICULTY:Medium;
#METER:11;
#RADARVALUES:0,0,0,0,0;
#NOTES:
0200
0000
0000
0000
0002
0000
0303
2000
,
0000
3000
2000
0000
0001
0000
0001
0000
,
3010
0000
0100
0000
0000
0100
0000
0002
,
0000
0003
0001
0000
0010
0001
0010
0001
,
0200
0000
0300
0100
0000
0000
0000
0110
,
0000
0000
0000
1001
0000
0000
0000
0000
,
0100
0001
0000
0100
0000
0010
0000
1000
,
0000
0100
0000
1000
0001
0000
1000
0000
,
0100
0001
0000
0001
0200
0000
0310
1000
,
0000
0010
0000
0000
0100
0000
0010
0000
,
1000
0100
0000
0100
2000
0000
3001
0010
,
0000
0100
0020
0000
0030
0000
0010
0000
,
1000
0001
0000
0001
2000
0000
3100
0010
,
0000
0100
0001
0000
1000
0000
0001
0000
,
0010
1000
0000
1000
0020
0000
0130
1000
,
0000
0001
1000
0000
0010
0000
0110
0000
,
1000
0000
1000
0001
0100
0000
0100
0010
,
0100
0000
0010
1000
0010
0000
0010
0000
,
0001
0000
0001
1000
0100
1000
0100
0000
,
0010
0000
0100
0000
0010
0001
0010
0000
,
1000
0000
0001
0000
1000
0001
1000
0000
,
0010
0000
1000
0000
0010
1000
0010
0000
,
0100
0000
0001
0000
0100
0001
0100
0000
,
0010
0000
1000
0000
0010
0010
0010
0000
,
0200
0000
0000
0000
,
0300
0000
0000
0000
,
0020
0000
0000
0000
,
0030
0000
0000
0000
0100
0010
0100
0000
,
1000
0001
0000
0001
1000
0000
0100
1000
,
0000
1000
0100
0000
0010
0100
0010
0000
,
0001
0010
0000
0010
0001
0000
0100
0001
,
0000
0001
0100
0000
0010
1000
0010
0000
,
1000
0100
0000
0100
1000
0000
0001
1000
,
0000
1000
0001
0000
0100
0001
0100
0000
,
0010
0000
1000
0010
1000
0000
0100
0010
,
0000
0100
0000
0010
0000
1000
0100
0000
,
0010
0001
0000
0001
0010
0000
0010
0100
,
0000
0100
0010
0000
1001
0000
1001
0000
,
0100
1000
0000
1000
0001
0000
0001
0100
,
0000
0100
0010
0000
0100
0001
0100
0000
,
0010
1000
0000
1000
0001
0000
0001
1000
,
0000
1000
0100
0000
1000
0100
1000
0000
,
0010
0001
0100
0000
0010
1000
0100
0000
,
0001
0000
1000
0001
0100
0001
0010
0000
,
0200
0000
0301
0000
,
2000
0000
3001
0000
,
0020
0000
0031
0000
,
0200
0000
0310
0010
,
1000
0100
0001
0100
,
1000
0100
0010
0010
,
0100
0010
0001
0010
,
0001
1000
0001
0001
,
0100
0010
0100
1000
,
0100
0010
0100
0100
,
1000
0001
0100
0001
,
0010
0001
1000
1000
,
0001
0000
1000
0000
0010
0001
0100
0000
,
0010
0000
0100
0000
0001
1000
0100
0000
,
0010
0000
1000
0000
0010
0100
0001
0000
,
0010
0000
0100
0001
0000
0001
0010
0000
,
0100
0000
1000
0000
0100
0001
1000
0000
,
0010
0000
0100
0000
1000
0010
0001
0000
,
1000
0000
0010
0000
0100
0001
0010
0000
,
0100
0000
0001
0100
0000
0100
0001
0000
,
1000
0000
0001
0000
1000
0001
1000
0000
,
0010
0000
0100
0000
0001
0010
0001
0000
,
0100
0000
0010
0000
1000
0100
1000
0000
,
0001
0000
0100
0010
0100
0000
1001
0000
,
0100
0000
0010
0000
0100
1000
0100
0000
,
0001
0000
1000
0000
0010
1000
0010
0000
,
0100
0000
0001
0000
0100
0001
0100
0000
,
0010
0000
1000
0010
0000
0010
1000
0000
,
0100
0100
0010
0100
,
0001
0100
0010
0010
,
1000
0001
0100
0010
,
2000
3000
0001
1001
;

//--------------- dance-single - ----------------
#NOTEDATA:;
#STEPSTYPE:dance-single;
#DESCRIPTION:;
#DIFFICULTY:Hard;
#METER:14;
#RADARVALUES:0.681072,0.677806,0.16926,0.103437,0.324416,507,489,18,11,0,0,0,0,0,0.681072,0.677806,0.16926,0.103437,0.324416,507,489,18,11,0,0,0,0,0;
#CHARTNAME:;
#CHARTSTYLE:;
#CREDIT:;
#NOTES:
0020
0000
0000
0000
0130
0000
0000
1000
,
0000
0000
0000
0000
1000
0000
0000
0000
0001
0000
0010
0000
0100
0010
0100
0000
,
0002
0000
1000
0000
0003
0100
0000
0010
,
0000
0000
0010
0000
0001
0001
0100
0100
,
0020
0000
0000
1000
0030
0000
0000
0011
,
0000
0000
0000
0101
0100
0100
0010
0010
,
1000
0000
0001
0000
1000
0000
0010
0000
0100
0000
0010
0100
0000
0000
1000
0000
,
1000
0000
0001
0000
0010
0000
0001
0000
0100
0010
0100
0010
1000
0000
0000
0000
,
0001
0100
0000
0100
0020
0000
1030
0001
,
0000
1000
0010
0000
0100
0010
0100
0100
,
0001
1000
0010
1000
0100
0000
0001
0010
,
0000
0000
1000
0000
0100
0000
0100
0000
0001
1000
0001
1000
0010
0000
0000
0000
,
0100
0010
0000
0100
1000
0000
0001
0010
,
0000
0000
0000
0200
0000
0000
0000
0000
0000
0000
0000
0000
0301
0000
0010
0000
0001
0000
0010
0000
1000
0000
0100
0000
,
0010
0000
0100
0000
0000
0000
0010
0000
0001
0000
0000
1000
0000
0000
1100
0000
,
0000
0000
0010
0100
0010
0000
0100
0000
1000
0001
1000
0001
1000
0000
0000
0000
,
0010
0000
0000
0010
0000
0000
0100
0000
0001
0000
0000
1000
0000
0000
0010
0000
,
0100
0000
0100
0001
0010
0001
1000
0100
,
1000
0000
0000
0001
0000
0000
1000
0000
0010
0000
1000
0000
1000
0000
0000
0000
,
0010
0000
0000
0100
0000
0000
0010
0000
1000
0100
1000
0100
1000
0000
0000
0000
,
0001
0000
0000
0001
0000
0000
1000
0000
0000
0000
0000
0000
0010
0000
0100
0000
,
0100
0010
1000
0000
0001
0100
0001
0000
,
0100
0000
0000
0000
1000
0100
0000
0000
1000
0000
0010
0000
0010
0000
0000
0000
,
0100
0000
0000
0001
0100
0000
0010
0000
0100
0000
1000
0000
1000
0000
0000
0000
,
0002
1000
0000
1000
0000
0000
0103
0100
,
0010
0100
0200
0000
0300
0010
0001
0000
,
2000
0010
0000
0010
0000
0000
3001
0001
,
0100
0000
0001
0000
0001
0000
0000
0000
0110
0000
1000
0100
2000
0000
0000
0000
,
3001
0010
0001
0001
0100
0010
0100
0001
,
0000
0001
0010
0100
0001
1000
0010
1000
,
0001
0100
0010
0010
1000
0100
0010
0001
,
0000
1000
0010
0100
0001
0000
0011
0000
,
0100
0000
0000
0010
0000
0000
0001
0000
0100
0000
0001
0000
0010
0000
0000
1000
0000
0000
0001
0000
0000
0010
0000
0000
,
0000
0100
0001
0100
0010
1000
0001
1000
,
0010
0100
0001
0001
1000
0010
1000
0002
,
0000
2003
0000
3200
0000
0301
0100
0010
,
1000
0001
1000
0010
1000
0001
0001
0100
,
0000
0000
0000
0010
0000
0000
0100
0000
0000
0001
0000
0000
1001
0000
0000
0000
1000
0000
0001
0000
0010
0000
0001
0000
,
0100
0010
0100
0001
0100
0010
0001
0010
,
0000
0100
1000
0100
0010
0000
0100
0000
0001
0000
1000
0000
0010
0100
0000
0000
,
0100
0001
0001
0010
0110
0000
0100
1000
,
0000
0000
0100
0000
0010
0000
0100
0000
1000
0001
1000
0000
0010
0000
0100
0000
,
0010
0000
0001
0000
0010
0100
0000
0000
0011
0000
0100
0000
0100
0000
0010
0000
,
1000
0000
0001
0000
1000
0000
0100
1000
0000
0100
1000
0000
0010
0000
0000
0000
,
0110
0000
0000
0000
0000
0000
0000
0000
1100
0000
0000
0000
0000
0000
0000
0001
,
1000
1000
0000
0000
0110
0000
0010
0000
,
0001
0000
0001
0000
0000
0000
0000
0000
1010
0000
0000
0000
0000
0000
0000
0010
,
0100
0000
0100
0000
0000
0000
1000
0001
1000
0000
0000
0000
0010
0000
0000
0000
,
0100
0000
0100
1000
0000
0000
0010
0000
0010
0001
0000
0000
,
0100
0010
0100
0010
0000
0000
0100
0000
0100
0001
0000
0000
,
1000
0001
1000
0001
0000
0000
0100
0000
0100
0010
0000
0000
,
1000
0100
1000
0001
0000
0000
1100
0000
0000
0011
0000
0000
,
1000
0010
1000
0001
0000
0010
0100
0010
0000
0001
0000
0000
,
0100
1000
0100
0001
0000
0010
1000
0100
0000
0001
1000
0000
,
0100
0000
0000
0001
0000
0000
1000
0000
1000
0001
0000
0000
,
0100
0000
0110
0000
0000
1000
0001
0100
0100
0010
0000
0000
,
1000
0010
0010
0100
0000
0010
0000
0100
,
0001
0010
0001
0010
0000
1000
0000
0001
,
0100
0010
0100
0001
0000
1000
0000
1000
,
0010
0001
0100
0010
0000
0001
0010
0000
,
1000
1000
0001
0100
0000
0010
0000
0100
,
0001
0000
0100
0000
0010
0000
0001
0000
0100
0010
0000
1010
0000
1000
0000
0000
,
0100
0000
0010
0100
0000
0001
0000
1000
,
0010
0100
0001
0100
0000
0001
0010
0001
,
1000
0001
0200
0000
0310
1000
0000
0100
,
0001
0100
0010
1000
0000
0001
0000
1000
,
0100
0100
0010
1000
0000
0001
0000
0100
,
0010
0100
0001
0201
0000
0010
0310
0001
,
1000
0001
0100
0010
0000
0100
0000
0100
,
0001
0010
0100
0001
0000
1100
0000
1010
,
0100
0001
0100
0010
0000
0100
0000
0001
,
0100
0010
0100
0001
0100
1000
0010
0000
,
0100
0001
0100
0001
0010
0000
1000
0000
0000
0000
0000
0000
0010
0000
0100
0000
,
1000
0100
1000
0100
0010
0000
1000
0000
0000
0000
1000
0000
0001
0000
0000
0000
,
0100
0000
0010
0000
0100
0100
1000
0100
,
0002
0000
0003
0000
1000
1000
1000
0110
;
