#TITLE:Meikyoushisui;
#SUBTITLE:;
#ARTIST:TOMOSUKE feat. Asaki;
#TITLETRANSLIT:;
#SUBTITLETRANSLIT:;
#ARTISTTRANSLIT:;
#GENRE:;
#CREDIT:;
#BANNER:Meikyoushisui.png;
#BACKGROUND:Meikyoushisui-bg.png;
#LYRICSPATH:;
#CDTITLE:;
#MUSIC:Meikyoushisui.ogg;
#OFFSET:1.603000;
#SAMPLESTART:20.250000;
#SAMPLELENGTH:13.241000;
#LASTBEATHINT:0.853681;
#SELECTABLE:YES;
#BPMS:0.000000=72.500000
,7.000000=145.000000
,280.000000=133.500000
,281.000000=132.000000
,282.000000=117.000000
,284.000000=107.500000
,286.000000=104.000000
;
#STOPS:7.000000=0.414000
;
#BGCHANGES:2.750=Meikyoushisui.avi=1.000=0=0=0=StretchNoLoop====,
99999=-nosongbg-=1.000=0=0=0 // don't automatically add -songbackground-
;
#KEYSOUNDS:;
#ATTACKS:;

//---------------dance-single - ----------------
#NOTES:
     dance-single:
     :
     Beginner:
     3:
     0.128755,0.167826,0.085467,0.093236,0.000000,116.000000,105.000000,11.000000,12.000000,0.000000,0.000000,0.128755,0.167826,0.085467,0.093236,0.000000,116.000000,105.000000,11.000000,12.000000,0.000000,0.000000:
0000
0000
0000
0000
,
0000
0000
0000
0000
,
1000
0000
0000
0000
,
0001
0000
0000
0000
,
1000
0000
0000
0000
,
0010
0000
0010
0000
,
0010
0000
0000
0000
,
0100
0000
0000
0000
,
0010
0000
0000
0000
,
2002
0000
0000
0000
,
3003
0000
0000
0000
,
0010
0000
0010
0000
,
0100
0000
0100
0000
,
0010
0000
0100
0000
,
0010
0000
0100
0000
,
0001
0000
0001
0000
,
1000
0000
1000
0000
,
0001
0000
1000
0000
,
0001
0000
1000
0000
,
0100
0100
0200
0000
,
0300
0000
0000
0000
,
1000
1000
2000
0000
,
3000
0000
0000
0000
,
0010
0010
0020
0000
,
0030
0000
0000
0000
,
0001
0001
0002
0000
,
0003
0000
0000
0000
,
0110
0000
0000
0000
,
0010
0010
0010
0000
,
1000
0000
0001
0000
,
1000
0000
0001
0000
,
0100
0000
0010
0000
,
0100
0000
0010
0000
,
0001
0000
1000
0000
,
0001
0000
1000
0000
,
0010
0000
0100
0000
,
0010
0000
0100
0000
,
1000
1000
2000
0000
,
3000
0000
0000
0000
,
0010
0010
0020
0000
,
0030
0000
0000
0000
,
0100
0100
0200
0000
,
0300
0000
0000
0000
,
0001
0001
0002
0000
,
0003
0000
0000
0000
,
1001
0000
0000
0000
,
0000
0000
0000
0000
,
0001
0000
0000
0000
,
0001
0000
0000
0000
,
0010
0000
0010
0000
,
0100
0000
0100
0000
,
1000
0000
1000
0000
,
0001
0000
0001
0000
,
0110
0000
0000
0000
,
1000
0000
0001
0000
,
1000
0000
0001
0000
,
2000
0000
0000
0000
,
3000
0000
0000
0000
,
0010
0000
0100
0000
,
0010
0000
0100
0000
,
0020
0000
0000
0000
,
0030
0000
0000
0000
,
1001
0000
0000
0000
,
0100
0000
0100
0000
,
0110
0000
0000
0000
,
0001
0000
0001
0000
,
1001
0000
0000
0000
,
0110
0000
0000
0000
,
1001
0000
0000
0000
,
0110
0000
0000
0000
,
0000
0000
1000
0000
,
1000
0000
1000
0000
,
1001
0000
0000
0000
;

//---------------dance-single - ----------------
#NOTES:
     dance-single:
     :
     Easy:
     5:
     0.235311,0.279709,0.108776,0.194243,0.000000,212.000000,198.000000,14.000000,25.000000,0.000000,0.000000,0.235311,0.279709,0.108776,0.194243,0.000000,212.000000,198.000000,14.000000,25.000000,0.000000,0.000000:
0000
0000
0000
0000
,
0000
0000
0000
0000
,
0020
0000
0000
0030
,
2000
0000
0000
3000
,
0002
0000
0000
0003
,
0200
0300
0020
0030
,
1000
0001
0001
0000
,
0100
0010
0010
0000
,
1000
0100
0001
0100
,
0220
0000
0000
0000
,
0330
0000
0000
0000
,
1000
0001
1000
0100
,
0010
0001
0100
0100
,
0002
0003
0010
1000
,
0001
1000
1000
0000
,
0100
0001
0010
0001
,
0010
1000
0001
1000
,
0200
0300
0010
1000
,
1000
0001
0002
0003
,
0010
0100
0200
0300
,
0010
1000
0001
0000
,
1000
0010
0020
0030
,
0001
0000
1001
0000
,
0100
0001
0020
0030
,
1000
0010
0100
0000
,
0100
0001
0020
0030
,
1000
0000
0100
0000
,
1001
0000
0000
0000
,
0100
0100
0100
0000
,
0010
0001
0100
0001
,
0010
1000
0001
0001
,
0100
0010
1000
0001
,
1000
0010
0100
0100
,
1000
0100
0001
0100
,
1000
0010
0001
0100
,
0010
0010
1000
1000
,
0100
0001
0002
0003
,
0010
1000
0200
0300
,
0010
0010
0100
0000
,
1000
0001
2000
3000
,
0010
1000
0001
0000
,
0010
0100
0020
0030
,
0100
1000
1000
0000
,
0001
0100
0002
0003
,
1000
0100
0010
0000
,
1001
0000
0000
0000
,
0000
0000
0000
0000
,
0110
0000
0100
0000
,
0010
0001
0001
0000
,
2000
3000
0001
0010
,
0100
1000
1000
0000
,
0020
0030
0100
1000
,
0001
0100
0100
0000
,
2002
0000
0000
3003
,
0010
0100
0010
0100
,
1000
0001
1000
0001
,
0200
0300
0001
0010
,
0001
0000
1001
0000
,
0100
0001
0100
1000
,
0010
0001
1000
0001
,
0020
0000
0000
0030
,
1000
1000
1000
0000
,
0110
0000
1000
0010
,
0100
0001
0001
0000
,
1001
0000
0010
1000
,
0001
1000
0100
0000
,
0110
0000
0010
0001
,
1001
0000
1000
0100
,
0110
0000
0100
0010
,
1001
0000
0000
0000
,
0000
0000
0001
1000
,
0100
0010
0100
0001
,
0110
0000
0000
0000
;

//---------------dance-single - ----------------
#NOTES:
     dance-single:
     :
     Medium:
     9:
     0.401805,0.428791,0.186473,0.233091,0.027194,362.000000,338.000000,24.000000,30.000000,0.000000,0.000000,0.401805,0.428791,0.186473,0.233091,0.027194,362.000000,338.000000,24.000000,30.000000,0.000000,0.000000:
0000
0000
0000
0000
,
0000
0000
0000
0000
0000
0000
0000
0000
0000
0000
0000
0000
0000
0000
0000
0000
0000
0000
0000
0000
0000
0000
0000
0000
0000
0000
0000
0000
0000
0000
0000
0000
0000
0000
0000
0000
0000
0000
0000
0000
0000
0000
0000
0000
0000
0000
0000
0000
0020
0030
0000
0000
0000
0000
0000
0000
0100
0000
0000
0000
0000
0000
0000
0000
,
0002
0000
0000
0000
0010
0000
0013
0100
,
0020
0000
0000
0000
1000
0000
1030
0100
,
2000
0000
0010
3010
,
0200
0000
2300
3002
,
2003
0010
0100
0100
,
0001
0100
3010
0200
,
0302
1000
0010
0013
,
0220
0000
0000
0330
,
1001
0000
0000
0000
0000
0010
0010
0000
,
1000
0100
0010
0001
,
0100
1000
0001
0010
,
0100
0101
1000
1100
,
0200
0010
0301
0011
,
0100
0010
0001
1000
,
0010
1000
0100
0001
,
0010
0000
1010
0000
1000
0100
1000
0000
,
0002
1000
0013
1001
,
0010
1000
0010
0000
0200
0000
0001
0000
,
0301
1000
0100
0010
,
0100
0001
0100
0000
2000
0000
0010
0000
,
3010
0100
0001
0100
,
1000
0010
0100
0000
0002
0000
1000
0000
,
1003
0010
0100
0010
,
0001
0100
1000
0000
0020
0000
1000
0000
,
1030
0000
0100
0010
0100
0000
0001
0000
,
0110
0000
0000
0000
,
0010
0000
1000
0001
1000
0000
1010
0000
,
0010
0100
0010
0000
1000
0010
1000
0000
,
0100
1000
0100
0000
0001
0100
0001
0000
,
0100
0010
0100
0001
1000
0000
1000
0001
,
0010
0000
0010
0100
0010
0100
0001
0000
,
1000
0010
1000
0000
0100
0001
0100
0000
,
0010
0100
0010
0000
0100
0001
0100
0000
,
1000
0010
0100
0000
0001
0010
0100
0010
,
1000
0000
0100
0010
0010
1000
0010
0000
,
0100
0000
0100
0010
1000
0100
1000
0000
,
0001
1000
0100
1000
0001
0000
0110
0000
,
0010
0000
0010
0100
0010
1000
0001
0000
,
1000
0010
0100
0000
0101
0000
1010
0000
,
0001
0000
0001
0100
0010
0100
1000
0000
,
0010
0100
0001
0010
0001
0000
1010
0000
,
0001
0000
0100
1000
0100
0000
1000
0010
,
0100
1000
0100
0000
0001
0010
0010
0000
,
0200
0000
0000
0000
,
0300
0000
0000
0000
,
0001
0000
1000
0000
0001
0010
1000
0000
,
0100
1000
0100
1000
0001
0000
0110
0000
,
0002
0000
0103
0000
1000
0010
1000
0000
,
0010
0100
1000
0100
0001
0000
0110
0000
,
0020
0000
1030
0000
0001
0100
0001
0000
,
0010
1000
0010
1000
0100
0001
0010
0000
,
1001
0000
0000
0000
,
1000
0000
0010
0100
0010
0000
0100
1000
,
0100
0000
0001
0010
0001
0000
0010
0000
,
0001
0100
0001
0000
1010
0000
0010
0000
,
1000
0001
1000
0100
0010
0000
0110
0000
,
0001
0000
1000
0100
0010
0000
0100
0010
,
1000
0000
0001
1000
0010
0000
0100
0000
,
0010
0001
0100
0000
1100
0000
0100
1000
,
0010
0000
1001
0000
1000
0010
0010
0000
,
0200
0000
0000
0001
0000
0000
0300
0000
1000
0000
0010
0000
1000
0000
0000
0000
,
0100
1000
0100
0000
0010
0001
1000
0000
,
0002
0000
0000
0010
0000
0000
0003
0000
1000
0000
0100
0000
0001
0000
0000
0000
,
0001
0100
1000
0100
0100
0000
0110
0000
,
0200
0000
0000
0001
0000
0000
0300
0000
0010
0000
0100
0000
0010
0000
0000
0000
,
0002
0000
0000
1000
0000
0000
0003
0000
1000
0000
0001
0000
0100
0000
0000
0000
,
2000
0000
0000
0100
0000
0000
3000
0000
0001
0000
1000
0000
0010
0000
1000
0000
,
0001
0000
0000
0202
0000
0000
0303
0000
1000
0000
0000
0000
0001
0000
0000
0000
,
0010
0001
0010
0000
1000
0000
0010
0000
,
1000
0001
0010
0001
,
2200
0000
0000
0000
,
0000
0000
0000
3300
0000
0000
0000
0000
0000
0000
0000
0000
0000
0000
0000
0000
0000
0000
0000
0000
0000
0000
0000
0000
0000
0000
0000
0000
0110
0000
0000
0000
0000
0000
0000
0000
0000
0000
0000
0000
0000
0000
0000
0000
0000
0000
0000
0000
;

//---------------dance-single - ----------------
#NOTES:
     dance-single:
     :
     Hard:
     12:
     0.466182,0.628893,0.217552,0.505031,0.205897,420.000000,392.000000,28.000000,65.000000,0.000000,0.000000,0.466182,0.628893,0.217552,0.505031,0.205897,420.000000,392.000000,28.000000,65.000000,0.000000,0.000000:
// measure 0
0000
0000
0000
0000
0000
0000
0000
0000
0000
0000
0000
0000
0000
0020
0000
0000
,  // measure 1
0000
0000
0000
0000
0000
0000
0000
0000
0000
0030
0000
0000
0000
0000
1000
0000
,  // measure 2
2002
0000
0000
0000
0000
0000
3003
0010
,  // measure 3
0022
0000
0000
0000
0000
0000
0033
0100
,  // measure 4
0220
0000
0000
0330
,  // measure 5
2200
3300
1010
1001
,  // measure 6
0020
0000
0000
0100
0000
0000
0000
0000
1000
0000
0000
0100
0000
0000
0000
0000
,  // measure 7
0001
0000
0000
1000
0000
0000
1000
0000
0031
0000
0000
0000
0002
0000
0000
0000
,  // measure 8
2003
0000
0000
0100
0000
0000
0100
0000
0001
0000
0000
0000
3010
0000
0000
0000
,  // measure 9
0022
0000
0000
0030
,  // measure 10
2000
0000
0000
0000
0003
0100
3100
0000
,  // measure 11
0020
2030
3200
0302
,  // measure 12
0023
0230
2300
3002
,  // measure 13
0013
0110
1100
1001
,  // measure 14
0021
0100
0001
0031
,  // measure 15
2000
3200
2300
3002
,  // measure 16
0023
0230
2300
3020
,  // measure 17
0002
0000
0000
0000
0033
0000
0000
0000
0010
0000
0000
1000
0000
0000
0100
0000
,  // measure 18
2000
0010
0100
3100
,  // measure 19
0010
0001
0100
1000
0200
0000
0000
0000
,  // measure 20
0010
0001
1000
1300
,  // measure 21
0001
1000
0100
1000
0020
0000
0000
0000
,  // measure 22
0100
0001
1000
1030
,  // measure 23
0100
0001
0010
0100
2000
0000
0000
0000
,  // measure 24
0010
0100
0001
3100
,  // measure 25
0001
0100
0010
0100
0002
0000
0000
0000
,  // measure 26
0010
0100
0010
2003
,  // measure 27
3010
0000
0000
0000
0000
0000
0000
0000
0000
0000
0000
0000
0000
0000
0000
0010
,  // measure 28
0001
0000
0100
0000
0001
0000
0000
1000
0100
0010
0000
0100
0001
0000
0100
1000
,  // measure 29
0100
0001
0010
1000
0001
0100
0010
1000
,  // measure 30
0100
1000
0001
0010
0100
0001
0100
0010
,  // measure 31
0001
0100
0010
1000
0100
0001
0010
0001
,  // measure 32
0100
0010
1000
0001
0100
0010
1000
1000
,  // measure 33
0010
0100
0010
0001
0100
0010
0001
1000
,  // measure 34
0001
0100
0010
1000
0001
1000
0010
0100
,  // measure 35
0010
0001
1000
0010
0001
0100
1000
0010
,  // measure 36
1000
0100
0001
0010
0100
0001
1000
0010
,  // measure 37
0100
1000
0100
0001
0020
0000
1000
0000
,  // measure 38
1030
0000
0100
0000
0010
0000
0100
0000
0001
0000
0010
0000
0000
0011
0000
0000
,  // measure 39
0001
1000
0010
1000
0200
0000
0010
0000
,  // measure 40
0310
0000
1000
0000
0100
0000
0001
0000
0100
0000
1000
0000
0000
1001
0000
0000
,  // measure 41
0001
0100
0010
1000
0002
0000
0010
0000
,  // measure 42
0013
0000
1000
0000
0100
0000
1000
0000
0010
0000
0100
0000
0000
0110
0000
0000
,  // measure 43
1000
0001
0100
0010
2000
0000
0100
0000
,  // measure 44
3100
0001
0100
0010
1000
0000
0010
0000
,  // measure 45
2002
0000
0000
3000
,  // measure 46
0100
0100
0200
0300
,  // measure 47
0003
0000
0010
0000
1000
0010
0000
0100
0000
1000
0000
0100
0001
0010
0001
0010
,  // measure 48
0000
0000
1000
0000
0100
0001
0000
0010
0000
0010
0000
1000
0010
1000
0100
0000
,  // measure 49
1001
0000
0000
0000
0001
0100
0001
0020
0000
0000
0200
0000
0000
0000
0330
0000
,  // measure 50
0000
0000
1000
0000
0100
0000
0000
0000
2100
0000
0000
0002
0000
0000
3003
0000
,  // measure 51
0011
0000
0000
0000
0100
0010
0100
2000
0000
0000
0002
0000
0000
0000
3003
0000
,  // measure 52
0000
0000
0010
0000
0100
0000
0010
0000
0102
0000
0000
2000
0000
0000
3003
0000
,  // measure 53
0200
0010
0010
0310
,  // measure 54
0001
0001
0010
0010
1000
1000
0001
0001
,  // measure 55
0010
0000
0100
0000
0010
0000
0001
0000
0010
0000
1000
0000
0010
0000
1000
0001
,  // measure 56
2000
0000
3000
0120
0000
0000
1000
0000
,  // measure 57
0031
0000
0100
0000
0010
0100
0000
0000
1000
0001
0000
0010
0000
0000
0001
0000
,  // measure 58
1000
1000
0001
0001
0100
0100
0010
0010
,  // measure 59
1000
0000
0001
0000
1000
0000
0100
0000
1000
0000
0010
0000
1000
0000
0010
0001
,  // measure 60
0020
0000
0000
0000
,  // measure 61
0130
0000
0100
0000
0100
0000
0000
1000
0001
0000
0010
0000
0001
0000
0100
0000
,  // measure 62
0010
0000
0000
1010
0000
0000
0000
0000
0100
0000
0001
0000
0100
0000
0010
0000
,  // measure 63
1000
0000
0100
0000
0001
0000
0000
0010
0000
1000
0000
0100
0000
1000
0001
0000
,  // measure 64
0100
0000
0000
0110
0000
0000
0000
0000
0001
0000
1000
0000
0100
0000
1000
0000
,  // measure 65
0010
0000
0001
0000
0100
0000
0000
1000
0000
0100
0000
1000
0000
0010
0001
0000
,  // measure 66
1000
0000
0000
1100
0000
0000
0000
0000
0001
0000
0100
0000
0010
0000
0100
0000
,  // measure 67
0001
0000
0000
0101
0000
0000
0000
0000
1000
0000
0100
0000
0010
0000
0001
0000
,  // measure 68
0010
0000
0000
0110
0000
0000
0000
0000
0100
0000
1000
0000
0010
0000
0001
0000
,  // measure 69
1100
0000
0000
1001
0000
0000
0000
0000
1000
0000
0010
0000
0100
0000
0010
0000
,  // measure 70
0001
0100
1000
0001
0020
0000
0230
0000
,  // measure 71
0320
0000
2030
0000
3200
0000
0310
0001
,  // measure 72
0022
0000
0000
0000
,  // measure 73
0000
0000
0000
0033
0000
0000
0000
0000
0000
0000
0000
0000
0000
0000
0000
0000
0000
0000
0000
0000
0000
0000
0000
0000
1000
0000
0001
0000
1000
0000
0000
0000
0000
0000
0000
0000
0000
0000
0000
0000
0000
0000
0000
0000
0000
0000
0000
0000
;
