#TITLE:Marigold;
#SUBTITLE:;
#ARTIST:SHORTCUTS;
#TITLETRANSLIT:;
#SUBTITLETRANSLIT:;
#ARTISTTRANSLIT:;
#GENRE:;
#CREDIT:;
#BANNER:Marigold.png;
#BACKGROUND:Marigold-bg.png;
#LYRICSPATH:;
#CDTITLE:;
#MUSIC:Marigold.ogg;
#OFFSET:-1.503114;
#SAMPLESTART:36.388691;
#SAMPLELENGTH:11.636364;
#SELECTABLE:YES;
#BPMS:0.000000=82.500000
,16.000000=165.000000
,208.000000=82.500000
;
#STOPS:
;
#BGCHANGES:0.000=Marigold.avi=1.000=0=0=0=StretchNoLoop====,
256.000=Marigold-bg.png=1.000=0=0=1=====,
99999=-nosongbg-=1.000=0=0=0 // don't automatically add -songbackground-
;
#KEYSOUNDS:;
#ATTACKS:;

//---------------dance-single - ----------------
#NOTES:
     dance-single:
     :
     Hard:
     12:
     0.525735,0.961113,0.384015,0.192008,0.328013,460.000000,412.000000,48.000000,24.000000,0.000000,0.000000,0.525735,0.961113,0.384015,0.192008,0.328013,460.000000,412.000000,48.000000,24.000000,0.000000,0.000000:
0000
0000
0000
0000
,
0000
0000
0000
0000
,
0000
0000
0000
0000
,
0000
0000
0000
0000
,
1000
0000
1000
0000
1000
0001
1000
0001
,
1000
0000
1000
0000
1000
0010
1000
0010
,
0100
0000
0100
0000
0100
1000
0100
1000
,
0100
0000
0100
0000
0100
0010
0100
0010
,
0001
0000
0001
0000
0001
0010
0100
1000
,
0100
0000
0100
0000
0010
0100
0010
0001
,
1000
0000
1000
0000
0001
0100
0100
0001
,
0010
0000
0010
0000
0100
0001
0000
0102
,
0000
1000
1003
0000
0100
0010
0000
0010
,
0000
0001
0010
0000
0100
1000
0100
0010
,
0000
0100
0001
0000
0001
0010
0100
0001
,
0000
1000
0000
0100
0000
0120
0000
2030
,
0000
0100
3100
0000
0010
0010
0000
0001
,
0000
0001
0010
0100
0001
1002
0000
0203
,
0000
0000
1300
1000
0100
0010
0100
0001
,
1000
0000
0000
0000
0101
0000
0000
0000
1100
0000
0000
0000
1000
0001
1000
0000
,
0020
0100
0130
0000
1000
0100
1000
0001
,
0000
0001
0010
0000
0100
0010
0100
0000
,
1000
0100
0001
0010
0000
1100
0000
0011
,
0000
0100
0000
0100
0000
0010
0011
0000
,
2000
0100
3100
0000
0100
0010
0100
0001
,
0000
0001
1000
0000
0100
1000
1000
0100
,
0001
0010
0001
0100
0000
1001
0000
0110
,
0000
1100
0000
1010
0000
0100
0001
0100
,
0010
0011
0000
0010
0110
0000
0100
1100
,
0000
1000
1010
0000
0010
0100
0010
0001
,
0010
1000
0010
0210
0000
0302
0000
0023
,
0000
1000
1000
1030
,
0100
1100
0000
0010
0110
0000
0001
1001
,
0000
0100
0101
0000
1000
1100
0000
1000
,
0100
0001
0100
1200
0000
2300
0000
3020
,
0000
0000
0000
0000
0100
0000
0000
0000
0130
0000
0000
0000
0100
1000
0100
0000
,
1002
1000
1000
1000
,
0100
1000
0103
0011
,
0120
0100
0100
0100
,
0001
1000
0031
1100
,
2100
0001
0010
0001
,
0100
3100
0011
0101
,
0201
0010
0010
0310
,
2001
0000
3100
0000
0100
0010
0001
1020
,
0000
0000
0031
0000
0100
0100
0010
0000
,
0001
0001
1000
0000
0001
0010
0001
2010
,
0000
0000
3100
0000
0010
0010
0001
0000
,
1000
1000
0100
0000
1000
0100
0010
0102
,
0000
0000
0013
0000
0100
1000
1000
0000
,
0010
0010
0001
0000
0100
0010
0010
2100
,
0000
0000
3001
0000
0010
1000
0001
0010
,
0200
0000
0000
0300
,
1000
0100
1000
0010
0001
0100
0010
0001
,
0100
0010
0001
0100
0100
1000
0010
0001
,
0010
0100
0001
0100
0010
0100
0001
0100
0010
0100
1000
0100
0010
0100
1000
0100
,
0010
0001
1000
0100
0010
0001
1000
0100
0010
1000
0001
0100
0010
1000
0001
0100
,
0000
0010
0100
0010
0000
0001
0100
0001
0000
1000
0001
1000
0000
1000
0010
1000
,
0000
0100
1000
0001
0000
0010
0001
1000
0000
0100
1000
0010
0000
1000
0001
0010
,
0000
1000
0010
1010
0000
0100
1000
1100
0000
0001
1000
1001
0000
0010
0001
0011
,
0000
0100
0010
0110
0000
0010
0001
0011
0000
1000
0100
1100
0000
0001
0100
0101
,
0000
0100
0001
1000
0010
0100
0001
0010
0100
1000
0100
0010
0001
0010
0001
1000
,
0010
0100
0010
0010
0001
1000
0001
0001
0100
1000
0100
0100
0010
0001
0010
0010
,
1000
0100
1000
0010
0110
0100
0010
1000
0100
1000
0010
0001
0011
0100
0010
0001
,
0001
0010
0100
1000
1001
0100
0010
1000
0100
0001
0100
0010
1100
0100
0001
0002
,
0000
0000
0000
0000
0000
0000
0000
0000
0000
0000
0000
0000
0000
0000
0000
0003
;

//---------------dance-single - ----------------
#NOTES:
     dance-single:
     :
     Medium:
     7:
     0.328013,0.545497,0.096004,0.152006,0.016001,287.000000,275.000000,12.000000,19.000000,0.000000,0.000000,0.328013,0.545497,0.096004,0.152006,0.016001,287.000000,275.000000,12.000000,19.000000,0.000000,0.000000:
0000
0000
0000
0000
,
0000
0000
0000
0000
,
0000
0000
0000
0000
,
0000
0000
0000
0000
,
1000
1000
0100
0010
,
0100
0000
0001
0000
1000
0010
0000
0010
,
1000
0001
0010
0100
,
0001
0000
0010
0000
0001
0100
0000
0100
,
0001
0010
0001
1000
,
0001
0000
0100
0000
0010
0001
0000
0001
,
0010
1000
0100
1000
,
0001
0000
1000
0000
0100
0001
0000
2001
,
0000
3010
0100
0010
,
0001
0000
0100
0000
0001
1000
0000
1000
,
0010
0100
0010
0001
,
0100
0000
0010
0000
0100
0010
0000
0120
,
0000
0130
0001
1000
,
0010
0000
0100
0000
0100
0001
0000
0012
,
0000
0000
1003
0000
0001
0000
0010
0200
,
0000
0001
0001
1300
,
1000
0000
0001
0000
1000
0000
0010
0001
,
0000
0100
0010
0000
0001
1000
0000
0000
,
0010
0100
0000
0010
0000
1000
0000
0020
,
0000
0001
0001
0130
,
0001
0000
0010
0000
0100
0000
0001
1000
,
0000
0001
0010
0000
0100
1000
0000
0000
,
1000
0010
0000
0001
0000
0100
0000
2000
,
0000
0001
0100
3001
,
1000
0000
0010
0000
0001
0000
0100
1000
,
0000
0001
0100
0000
1000
0001
0000
0000
,
0010
0100
0000
0010
0000
1000
0000
0002
,
0000
0010
0100
0013
,
0100
0010
0000
0010
1000
0000
1000
0001
,
0000
0001
1000
0000
1000
0100
0000
0000
,
0010
0100
0000
1000
0000
0010
0000
0200
,
0000
0001
0301
0010
,
0022
0030
0100
0000
,
0010
0100
0010
0003
,
0220
0300
1000
0000
,
0100
0001
0100
0030
,
2020
0030
0001
0000
,
0100
0010
0100
3000
,
0202
0003
0001
0000
,
0010
0010
0010
0300
,
1000
0100
0001
0100
,
0010
0000
1000
0000
0100
0010
0100
0000
,
0001
0010
0001
0100
,
0001
0000
0100
0000
0100
1000
0100
0000
,
0001
0010
0100
1000
,
0010
0000
0100
0000
0001
0010
0001
0000
,
0010
0100
1000
0010
,
2002
0000
0000
3003
,
1000
0010
0001
0010
,
0100
0010
0001
0010
,
0001
0010
0100
0000
0001
1000
0100
0000
,
0100
0001
0010
0000
0001
0100
0010
0000
,
1000
0001
1000
0001
0010
0100
0010
0100
,
0001
0010
0001
0010
0100
0001
0100
0001
,
0010
1000
0010
0100
0001
0010
0001
0100
,
1000
0001
0100
0001
0010
1000
0100
0001
,
1000
0000
0010
0000
1000
0010
1000
0000
0001
0000
1000
0000
1001
0000
0000
0000
,
0010
0000
0100
0000
0010
0100
0010
0000
0100
0000
0001
0000
0101
0000
0000
0000
,
0010
0000
1000
0000
0010
1000
0001
0000
0100
0000
1000
0000
0011
0000
0010
0000
,
0001
0000
0010
0000
0100
0001
0010
0000
1000
0000
0001
0000
0110
0000
0020
0000
,
0000
0000
0000
0000
0000
0000
0000
0000
0000
0000
0000
0000
0000
0000
0000
0030
;

//---------------dance-single - ----------------
#NOTES:
     dance-single:
     :
     Easy:
     5:
     0.213723,0.358414,0.064003,0.216009,0.000000,187.000000,179.000000,8.000000,27.000000,0.000000,0.000000,0.213723,0.358414,0.064003,0.216009,0.000000,187.000000,179.000000,8.000000,27.000000,0.000000,0.000000:
0000
0000
0000
0000
,
0000
0000
0000
0000
,
0000
0000
0000
0000
,
0000
0000
0000
0000
,
1000
0000
0001
0000
,
1000
0001
1000
0000
,
0010
0000
1000
0000
,
0010
1000
0010
0000
,
0100
0000
0001
0000
,
0100
0001
0100
0000
,
1000
0000
0010
0000
,
1000
0010
1000
0000
,
0100
1000
0100
0000
,
0010
0001
0100
0000
,
0100
1000
0100
0010
,
0001
0010
1000
0000
,
0100
0001
0010
0000
,
0010
0100
1000
0000
,
0010
0001
0100
1000
,
0010
0000
1001
0000
,
2000
3000
0100
0010
,
0200
0300
0020
0030
,
0100
0010
1000
0100
,
0002
0000
0000
0003
,
0020
0030
0001
0100
,
0002
0003
0200
0300
,
0001
0010
1000
0100
,
2000
0000
0000
3000
,
0220
0330
0100
0001
,
0200
0300
2000
3000
,
0100
0001
1000
0100
,
0020
0000
0000
0030
,
2002
3003
0001
0100
,
0020
0030
0002
0003
,
0100
1000
0010
0100
,
0020
0000
0000
0030
,
1001
0000
0010
0000
,
0100
0010
0100
0000
,
0110
0000
1000
0000
,
0001
1000
0001
0000
,
0110
0000
0100
0000
,
0001
0100
0010
0000
,
1001
0000
0010
0000
,
0100
1000
0010
0000
,
2000
0000
3001
0000
,
0010
0010
0100
0000
,
0020
0000
1030
0000
,
0001
0001
1000
0000
,
0200
0000
0301
0000
,
0100
0100
1000
0000
,
0002
0000
0013
0000
,
0200
0000
0000
0300
,
1000
0100
1000
0000
,
0001
0100
0001
0000
,
0010
1000
0100
0001
,
0010
0100
0001
0000
,
0010
0100
0100
0010
,
1000
0001
0001
1000
,
0010
1000
0010
0000
0100
0001
0100
0000
,
0010
0001
0010
0000
1000
0100
1000
0000
,
0020
0000
0130
0001
0100
0000
1000
0000
,
0002
0000
0103
1000
0100
0000
0001
0000
,
0200
0000
0310
1000
0100
0010
0100
0000
,
2000
0000
3010
0100
0010
0100
0001
0000
,
1001
0000
0000
0000
;

//---------------dance-single - ----------------
#NOTES:
     dance-single:
     :
     Beginner:
     2:
     0.112004,0.229509,0.024001,0.112004,0.000000,98.000000,95.000000,3.000000,14.000000,0.000000,0.000000,0.112004,0.229509,0.024001,0.112004,0.000000,98.000000,95.000000,3.000000,14.000000,0.000000,0.000000:
// measure 0
0000
0000
0000
0000
,  // measure 1
0000
0000
0000
0000
,  // measure 2
0000
0000
0000
0000
,  // measure 3
0000
0000
0000
0000
,  // measure 4
0100
0000
0000
0000
,  // measure 5
0100
0000
0000
0000
,  // measure 6
1000
0000
0000
0000
,  // measure 7
1000
0000
0000
0000
,  // measure 8
0001
0000
0000
0000
,  // measure 9
0001
0000
0000
0000
,  // measure 10
0010
0000
0000
0000
,  // measure 11
0010
0000
0000
0000
,  // measure 12
1001
0000
0000
0000
,  // measure 13
1000
0000
0000
0000
,  // measure 14
0100
0000
0000
0000
,  // measure 15
1000
0000
0000
0000
,  // measure 16
0010
0000
0000
0000
,  // measure 17
0100
0000
0000
0000
,  // measure 18
0020
0000
0030
0000
,  // measure 19
0002
0000
0003
0000
,  // measure 20
1000
0000
0100
0000
,  // measure 21
0001
0000
0100
0000
,  // measure 22
0010
0000
0010
0000
,  // measure 23
0010
0000
0000
0000
,  // measure 24
0001
0000
1000
0000
,  // measure 25
0010
0000
1000
0000
,  // measure 26
0100
0000
0100
0000
,  // measure 27
0100
0000
0000
0000
,  // measure 28
0010
0000
0001
0000
,  // measure 29
0100
0000
0001
0000
,  // measure 30
1000
0000
1000
0000
,  // measure 31
1000
0000
0000
0000
,  // measure 32
0010
0000
1000
0000
,  // measure 33
0001
0000
1000
0000
,  // measure 34
0010
0000
0010
0000
,  // measure 35
0010
0000
0000
0000
,  // measure 36
0200
0000
0000
0000
,  // measure 37
0300
0000
0000
0000
,  // measure 38
0002
0000
0000
0000
,  // measure 39
0003
0000
0000
0000
,  // measure 40
2000
0000
0000
0000
,  // measure 41
3000
0000
0000
0000
,  // measure 42
0020
0000
0000
0000
,  // measure 43
0030
0000
0000
0000
,  // measure 44
0110
0000
0000
0000
,  // measure 45
0100
0000
0001
0000
,  // measure 46
0100
0000
0000
0000
,  // measure 47
1000
0000
1000
0000
,  // measure 48
0001
0000
0000
0000
,  // measure 49
0010
0000
0100
0000
,  // measure 50
0010
0000
0000
0000
,  // measure 51
1001
0000
0000
0000
,  // measure 52
0200
0300
0002
0003
,  // measure 53
0020
0030
2000
3000
,  // measure 54
0002
0003
2000
3000
,  // measure 55
0020
0030
0200
0300
,  // measure 56
1000
0001
1000
0000
,  // measure 57
0010
0001
0010
0000
,  // measure 58
0100
0010
0100
0000
,  // measure 59
1000
0100
1000
0000
,  // measure 60
0100
0010
0100
0100
,  // measure 61
1000
0001
1000
1000
,  // measure 62
0010
1000
0010
0010
,  // measure 63
0001
0100
0001
0001
;
