#TITLE:Love km;
#SUBTITLE:;
#ARTIST:dj TAKA feat. REN;
#TITLETRANSLIT:;
#SUBTITLETRANSLIT:;
#ARTISTTRANSLIT:;
#GENRE:;
#CREDIT:;
#BANNER:Love km.png;
#BACKGROUND:Love km-bg.png;
#LYRICSPATH:;
#CDTITLE:;
#MUSIC:Love km.ogg;
#OFFSET:-0.526485;
#SAMPLESTART:44.188347;
#SAMPLELENGTH:12.000000;
#SELECTABLE:YES;
#BPMS:0.000000=184.000000
,64.000000=92.000000
,96.000000=184.000000
;
#STOPS:63.750000=1.304000,
95.875000=1.304000
;
#BGCHANGES:;
#KEYSOUNDS:;
#ATTACKS:;

//---------------dance-single - ----------------
#NOTES:
     dance-single:
     :
     Hard:
     13:
     0.560318,0.920582,0.251544,0.223595,0.260861,421.000000,394.000000,27.000000,24.000000,0.000000,0.000000,0.560318,0.920582,0.251544,0.223595,0.260861,421.000000,394.000000,27.000000,24.000000,0.000000,0.000000:
0000
0000
0000
0000
,
0000
0000
0000
0000
,
0000
0000
0000
0000
,
0000
0000
0000
0000
,
1100
0100
0001
0010
,
1000
0000
0100
0000
0010
0000
1000
0001
,
1000
0000
0100
0000
0001
0000
0010
0001
,
0000
0010
0010
0010
1000
0010
0001
0010
,
1000
0100
1000
0002
0000
1000
0013
1000
,
0010
0100
0001
0200
0000
0001
0301
1000
,
0001
0010
0001
2000
0000
0010
3100
0010
,
1000
0100
0001
0100
1001
0100
0100
0100
,
0001
0010
0100
0010
1000
0001
0010
0001
,
0100
1000
0010
0100
0001
1000
1000
1000
,
0100
0000
0000
0001
0100
0000
0000
0010
1000
0000
0000
1000
0001
0000
0000
0010
,
0001
0100
0010
0100
1000
1001
0110
0000
,
0020
0000
1000
0000
0000
1000
0000
0000
1000
0000
0000
1000
0030
0000
1000
0000
0200
0000
0001
0000
0000
0001
0000
0000
0001
0000
0000
0001
0300
0000
0001
0000
,
2000
0000
0010
0000
0000
0100
0000
0000
0010
0000
0000
0001
3000
0000
0010
0000
0002
0000
0100
0000
0000
1000
0000
0000
0010
0000
0000
0100
0003
0000
1000
0000
,
0100
0000
0001
0000
0100
0000
0010
0000
1000
0000
0000
0100
0000
0000
0001
0000
0010
0000
1000
0000
0010
0000
0010
0000
1000
0000
0000
0001
0000
0000
1000
0000
,
0010
0000
0001
0000
0010
0000
0001
0000
0100
0000
0000
1000
0000
0000
0001
0000
0001
0000
1000
0000
0100
0000
0020
0000
0032
0000
2003
0000
3020
0000
0230
0000
,
0301
0000
0001
0000
0001
0000
0010
0001
1000
0000
1000
0000
1000
0000
0100
1000
,
0010
0000
0100
0000
0010
0000
0001
1000
0100
0000
0001
0000
0100
0000
0001
0010
,
0100
1000
0100
0000
0001
0010
0001
0000
0010
1000
0010
0000
1000
0001
1000
0000
,
0010
0000
0000
0010
0000
0000
0010
0000
0001
0000
0000
0001
0000
0000
0001
0000
0100
0000
0000
0100
0000
0000
0100
0000
1000
0000
0000
0110
0000
0000
1001
0000
,
1000
0010
0100
0000
0010
1000
0001
0100
,
0000
0100
0010
0001
0000
1000
0001
0010
,
0001
0000
0100
0010
1000
0000
1000
0001
,
0100
0000
0100
0010
0000
1000
0001
1000
,
1100
0000
0010
0100
0000
0100
0001
1000
,
1010
0000
0100
0001
0000
0001
1000
0010
,
1000
0000
0100
0001
0100
0000
0001
0010
,
1000
0100
1000
0000
0010
0000
1001
0000
,
0100
1000
0010
0000
0100
0001
0100
0010
,
0000
0001
1000
0010
0000
0100
0100
0000
,
0001
1000
0010
1000
0010
0000
0100
0001
,
0010
0000
0010
1000
0000
0010
0100
0010
,
0001
0000
0010
1000
0000
0100
0001
0010
,
1000
0000
0010
0100
0000
1000
1000
0000
,
0010
1000
0100
0000
0100
0001
0010
0000
,
0100
0001
1000
0010
0100
0010
0100
0000
,
2000
0010
0001
0100
,
0001
0000
0010
0000
3001
0000
0010
0200
,
0010
1000
0010
0001
,
0301
1100
0110
0101
,
1020
0100
0001
1000
,
0100
0000
0100
0000
1030
0000
0001
1000
,
0002
0010
0010
0100
,
2003
0000
0001
0000
0001
0010
0001
3000
,
0020
1000
0100
1000
,
1000
0000
0001
0000
0100
0030
0001
2000
,
0001
0010
0100
0001
,
3100
0011
1100
1001
,
0201
0010
0010
0001
,
1000
0000
1000
0000
0310
0000
1000
0010
,
0002
0010
0100
0013
,
0200
0000
1000
0000
1000
1000
1300
0000
,
1010
0100
0010
0100
,
0001
0000
1000
0000
0010
0000
0100
1000
,
0100
0011
1000
0110
,
0100
0000
0101
0000
1000
0001
0100
0100
,
0110
0000
1000
0010
0100
0001
1000
0010
,
1001
0000
0001
0010
0001
1000
0010
0100
,
1010
0000
0000
1000
0100
0000
0000
0100
0001
0000
0000
0001
0010
0000
0000
0010
,
0100
0001
1000
0001
0100
1100
0110
0000
,
2002
0000
0000
0000
,
0000
0000
0000
0000
0000
0000
0000
3003
;

//---------------dance-single - ----------------
#NOTES:
     dance-single:
     :
     Medium:
     11:
     0.497765,0.828524,0.279494,0.335392,0.069873,374.000000,344.000000,30.000000,36.000000,0.000000,0.000000,0.497765,0.828524,0.279494,0.335392,0.069873,374.000000,344.000000,30.000000,36.000000,0.000000,0.000000:
0000
0000
0000
0000
,
0000
0000
0000
0000
,
0000
0000
0000
0000
,
0000
0000
0000
0000
,
0010
0010
1000
1000
,
0100
0010
0100
0100
,
1000
0100
0001
0010
,
0000
1000
0001
0000
1010
0000
0011
0000
,
1000
0000
1000
0010
0000
0010
0001
0000
,
0100
0000
0100
0001
0000
0001
0100
0000
,
1000
0000
0001
1000
0000
0010
1000
0000
,
0100
0010
0100
0001
0000
0010
0001
0000
,
0100
0000
0001
1000
0010
0000
0001
0010
,
1000
0000
0010
0001
0100
1000
0100
0000
,
0001
1000
0001
0100
0010
1000
0010
0100
,
0001
1100
0101
1001
,
1000
0000
0100
0000
1000
0000
0100
1000
0100
0000
0001
0000
0100
0000
0001
0100
,
0001
0000
0010
0000
0001
0000
0010
0001
0010
0000
1000
0000
0100
0000
0001
1000
,
0001
0000
0100
0001
0100
0000
0010
0100
0010
0000
0001
0100
0001
0000
0100
1000
,
0100
0001
0010
0000
0001
0010
0100
0000
1000
0010
0001
0000
1010
0000
1100
0000
,
0200
0000
0001
0000
0010
0000
0301
0010
2000
0000
0100
0000
0010
0000
3100
0010
,
0002
0000
1000
0000
0100
0000
1003
0100
0020
0000
1000
0000
0001
0000
0031
0100
,
1000
1000
0100
0100
1000
0010
1000
0001
,
0100
0101
0001
0011
0010
0110
0001
1001
,
0100
0000
0010
0000
0100
0000
0001
0010
,
0000
0001
1000
0000
0010
1000
0100
0000
,
1001
0000
0001
0010
0100
0000
1000
0001
,
0100
0010
0001
0000
0100
0000
0101
0000
,
0002
0000
1003
0010
1000
0000
0010
0100
,
0020
0000
0031
0100
0001
0000
0100
0010
,
0100
1000
0001
0000
0010
0100
0010
0000
,
1000
0010
0001
0100
1000
0000
0011
0000
,
0200
0000
0001
0000
1300
0000
0001
0100
,
0000
0001
0010
0000
1010
0000
0001
0010
,
0100
0000
0001
0100
1000
0000
0001
0010
,
0001
0010
0100
0000
1100
0000
0001
0010
,
0002
0000
1003
0100
1000
0000
0100
1000
,
0200
0000
0301
0010
0001
0000
0010
1000
,
0001
1000
0010
0000
0010
0100
1000
0000
,
0001
0010
0001
1000
0100
0000
1001
0000
,
0220
0030
2000
3000
,
0001
0010
0002
0303
,
0220
0300
0002
0003
,
1000
0100
2000
3030
,
2001
0100
0200
3300
,
0021
1000
2000
3030
,
0120
0130
2100
3001
,
0210
2300
3002
1003
,
1100
0000
0010
0000
0001
0000
0001
0010
,
0100
0000
0010
1000
0100
0000
0001
0001
,
0010
0000
1000
0100
0001
0000
0001
0010
,
1000
0100
0001
1000
0001
0000
0110
0000
,
1001
0000
1000
0010
0100
0000
0001
0100
,
0010
0100
1000
0000
0100
0001
0100
0000
,
0010
1000
0001
1000
0001
0100
0010
0100
,
0001
0000
1000
0010
1000
0000
0101
0000
,
0200
0010
1000
1000
,
0010
0000
0001
0000
0310
0000
0001
1000
,
0001
0000
1000
0100
0010
0000
0100
0010
,
0100
0001
0010
0000
1000
0000
1001
0000
,
0020
0000
0001
0000
0031
0000
0100
1000
,
0200
0000
0010
0000
0310
0000
0001
1000
,
0002
0000
1003
0100
2000
0000
3010
0001
,
0200
0320
2030
3001
,
0220
0000
0000
0000
,
0000
0000
0000
0000
0000
0000
0000
0330
;

//---------------dance-single - ----------------
#NOTES:
     dance-single:
     :
     Easy:
     7:
     0.306112,0.417377,0.121114,0.540354,0.000000,230.000000,217.000000,13.000000,58.000000,0.000000,0.000000,0.306112,0.417377,0.121114,0.540354,0.000000,230.000000,217.000000,13.000000,58.000000,0.000000,0.000000:
0000
0000
0000
0000
,
0000
0000
0000
0000
,
0000
0000
0000
0000
,
0000
0000
0000
0000
,
0010
0100
0010
0100
,
1000
1000
0100
0001
,
0010
1000
0100
0002
,
0000
0010
0010
0013
,
0100
1000
0200
0300
,
0010
1000
0020
0030
,
0001
1000
0002
0003
,
0100
1000
0002
0003
,
1000
1000
0001
0010
,
0001
0100
0002
0003
,
0010
0010
0100
0100
,
1000
0100
0020
0030
,
1001
0000
0100
0000
1000
0000
0010
0001
,
0100
0000
0010
0000
0001
0000
1000
0010
,
0100
0000
0010
0000
1000
0000
0001
0100
,
0010
0000
0001
0000
1000
0000
1000
0001
,
0020
0000
0230
0000
0320
0000
0130
0001
,
0200
0000
2300
0000
3200
0000
0310
1000
,
0002
0023
0230
2300
,
3001
0001
0010
0010
0100
1000
0100
1001
,
0010
1000
0100
0010
,
0001
0100
0001
0001
,
0010
0001
0100
1000
,
0010
0010
1000
0100
,
1100
1000
0010
0010
,
0001
0010
0100
0100
,
0001
0100
0001
0010
,
2000
0001
0001
3001
,
1010
0100
0001
0100
,
0010
0001
0100
0100
,
0010
0001
0100
1000
,
0001
0010
0100
0001
,
0101
0010
1000
1000
,
0010
0100
0001
0001
,
0010
0001
1000
0100
,
0020
2030
3200
0310
,
2002
3003
2000
3000
,
0020
0030
0100
0010
,
0200
0300
0002
0003
,
0010
1000
0100
0010
,
0022
0033
0200
0300
,
2000
3000
0010
0001
,
0020
0030
2000
3000
,
0100
1000
0100
0010
,
2020
3030
0200
0300
,
0002
0003
0010
0010
,
0002
0003
2000
3000
,
0200
0300
0010
0100
,
0220
0330
0200
0300
,
2000
3000
0002
0003
,
1000
0100
0010
0001
,
0100
0100
0001
0010
,
2002
3003
2000
3000
,
0020
0030
0100
0010
,
0200
0300
2000
3000
,
0010
1000
0100
1000
,
0022
0033
1000
1000
,
0202
0303
0100
0100
,
2000
3001
0002
0013
,
0200
0010
0010
0310
,
1001
0000
0000
0000
;

//---------------dance-single - ----------------
#NOTES:
     dance-single:
     :
     Beginner:
     4:
     0.190322,0.357752,0.083848,0.065215,0.000000,143.000000,134.000000,9.000000,7.000000,0.000000,0.000000,0.190322,0.357752,0.083848,0.065215,0.000000,143.000000,134.000000,9.000000,7.000000,0.000000,0.000000:
// measure 0
0000
0000
0000
0000
,  // measure 1
0000
0000
0000
0000
,  // measure 2
0000
0000
0000
0000
,  // measure 3
0000
0000
0000
0000
,  // measure 4
0110
0000
0000
0000
,  // measure 5
1000
0000
0000
0000
,  // measure 6
0010
0000
0001
0000
,  // measure 7
0020
0000
0000
0030
,  // measure 8
1000
1000
0000
0000
,  // measure 9
0001
0001
0000
0000
,  // measure 10
0100
0100
0000
0000
,  // measure 11
0010
0010
0000
0000
,  // measure 12
0001
0001
0001
0000
,  // measure 13
1000
0000
0001
0000
,  // measure 14
0100
0000
0010
0000
,  // measure 15
0100
0100
0100
0000
,  // measure 16
1001
0000
0100
0010
,  // measure 17
0100
0000
1000
0001
,  // measure 18
1000
0000
0010
0001
,  // measure 19
0010
0000
0110
0000
,  // measure 20
1000
1000
1000
0000
0001
0000
0100
0000
,  // measure 21
0001
0001
0001
0000
0010
0000
1000
0000
,  // measure 22
0010
0010
0010
0000
0100
0100
0100
0000
,  // measure 23
0001
0010
1000
0010
,  // measure 24
0100
0100
0100
0000
,  // measure 25
0001
0000
0100
0000
,  // measure 26
1000
1000
1000
0000
,  // measure 27
0010
0000
0100
0000
,  // measure 28
1001
0000
0010
0010
,  // measure 29
0010
0000
0100
0100
,  // measure 30
0100
0000
0001
0000
,  // measure 31
1000
0000
0110
0000
,  // measure 32
1000
1000
1000
0000
,  // measure 33
0001
0000
0010
0000
,  // measure 34
0100
0000
0001
0000
,  // measure 35
0100
0000
0010
0010
,  // measure 36
0010
0000
1000
0000
,  // measure 37
0010
0000
0010
0000
,  // measure 38
0001
0000
1000
0000
,  // measure 39
0100
0000
0100
0000
,  // measure 40
0020
0000
0000
0000
,  // measure 41
0030
0000
0000
0100
,  // measure 42
0200
0000
0000
0000
,  // measure 43
0300
0000
1001
0000
,  // measure 44
2000
0000
0000
0000
,  // measure 45
3000
0000
0000
0001
,  // measure 46
0002
0000
0003
0000
,  // measure 47
0020
0000
0000
0000
0000
0030
0000
0000
,  // measure 48
0100
0000
0010
0000
,  // measure 49
0100
0000
1000
1000
,  // measure 50
1000
0000
0001
0000
,  // measure 51
1000
0000
0010
0010
,  // measure 52
0010
0000
0100
0000
,  // measure 53
0010
0000
0100
0000
,  // measure 54
0001
0001
0001
0000
,  // measure 55
1000
0000
1000
0000
,  // measure 56
0020
0000
0000
0000
,  // measure 57
0030
0000
0000
0000
,  // measure 58
0100
0000
0010
0000
,  // measure 59
0100
0000
0100
0000
,  // measure 60
1001
0000
1000
0000
,  // measure 61
0110
0000
0010
0000
,  // measure 62
0001
0000
1000
0000
,  // measure 63
0100
0100
0100
0000
,  // measure 64
1001
0000
0000
0000
;
