#TITLE:Little Rock Overture;
#SUBTITLE:;
#ARTIST:Wakusei Keikaku;
#TITLETRANSLIT:;
#SUBTITLETRANSLIT:;
#ARTISTTRANSLIT:;
#GENRE:;
#CREDIT:;
#BANNER:Little Rock Overture.png;
#BACKGROUND:Little Rock Overture-bg.PNG;
#LYRICSPATH:;
#CDTITLE:;
#MUSIC:Little Rock Overture.ogg;
#OFFSET:0.313729;
#SAMPLESTART:69.129997;
#SAMPLELENGTH:15.000000;
#SELECTABLE:YES;
#BPMS:0.000000=175.000000
,36.000000=87.500000
,44.000000=175.000000
,268.000000=87.500000
,284.000000=175.000000
;
#STOPS:
;
#BGCHANGES:;
#KEYSOUNDS:;
#ATTACKS:;

//---------------dance-single - ----------------
#NOTES:
     dance-single:
     :
     Hard:
     12:
     0.576023,0.860634,0.392016,0.544022,0.120005,504.000000,455.000000,49.000000,68.000000,0.000000,0.000000,0.576023,0.860634,0.392016,0.544022,0.120005,504.000000,455.000000,49.000000,68.000000,0.000000,0.000000:
0000
0000
0000
0000
,
0000
0000
0000
0000
,
0000
0000
0000
0000
0000
0000
0000
0000
0001
0000
1000
0000
0010
0000
0100
0010
,
0000
0000
0210
0000
0310
0001
0100
2000
,
0000
0000
0000
0000
0000
0000
3100
0001
0200
0000
0000
0000
0300
0000
0000
0000
,
0011
0010
1000
1100
0000
0100
0000
1001
,
0000
0010
0001
0110
0000
1020
0000
0000
,
0130
1000
0100
0001
0000
0001
0010
1000
,
0100
1000
0100
0010
0202
0000
0303
0000
,
2000
0000
0000
0001
0001
0000
0000
0010
3020
0000
0000
0100
0100
0000
0000
0001
,
0032
0000
0000
1000
1000
0000
0000
0100
0203
0000
0000
0010
0010
0000
0300
0000
,
0002
0000
1003
0010
2000
0000
3100
0010
,
0200
0000
0310
0001
0020
0000
0130
1000
,
0002
0000
0013
1000
0200
0000
0301
1000
,
0020
0000
0130
0001
1000
0001
0001
0000
,
1010
0010
2020
0000
3030
0100
0001
1001
,
0000
1000
0010
0100
0000
0100
0001
0010
,
0001
0000
0100
0010
0100
1000
0001
0010
,
0000
0010
0100
0010
0000
1000
0001
0000
,
0010
0000
0100
1000
0100
0000
0001
1000
,
0001
0000
0010
0100
0010
0000
1000
0100
,
1000
0001
0100
0010
,
1000
1000
0001
0001
0100
1000
0100
0010
,
0020
0000
1000
0000
0100
0000
1000
0032
,
0000
0100
0100
0000
1000
0000
0013
1000
,
0100
1000
0001
0010
0000
0010
0001
0110
,
0000
1000
0001
0000
1000
0010
0000
0201
,
0000
0000
0010
0000
0001
0000
0301
0020
,
0000
0100
0100
0000
1030
0100
0001
2000
,
0000
0000
0001
0000
0100
0000
3100
0101
,
0000
0010
1000
1000
0200
0002
0000
0303
,
0010
0000
1000
0010
0020
0000
0130
0000
,
0001
0000
0010
0001
0002
0000
1003
0000
,
0100
0000
0010
0100
0200
0000
0301
0000
,
0010
1000
0100
0001
,
2000
0000
0000
0010
3010
0000
0100
0001
,
0011
1010
1100
0100
,
1002
0000
0000
1000
0013
0000
0100
0020
,
0000
1000
1030
0000
0110
0000
1001
0000
,
0200
0000
0000
0001
0001
0000
0300
1000
,
0020
0000
0000
0100
0100
0000
0030
0000
,
2000
0000
0000
0010
0010
0000
3000
0000
,
0002
2003
3200
0320
,
0032
0000
0000
1000
1000
0000
0003
0000
,
0020
0130
0200
0310
,
1000
0000
0001
1000
0000
0010
1000
0010
,
0000
0100
1000
0100
0000
0010
0010
0001
,
0010
0000
1000
0010
0000
0100
0010
0100
,
1000
0001
0010
1000
0000
0100
0100
0010
,
1000
0100
1000
1001
0000
0010
0001
0011
,
0000
0100
1000
1010
0000
0010
0100
0000
,
1002
0000
0013
0000
0100
1000
0100
0020
,
0000
1030
0001
0200
0000
0001
0301
0000
,
0010
0100
0001
1000
0000
1000
0010
0100
,
0010
0001
0100
0010
0000
0000
1001
0000
,
1200
0000
0000
0020
0300
0000
1030
0001
,
1000
0100
0010
0100
0000
0100
0001
0010
,
0001
0001
1000
1001
0000
0100
0100
1100
,
0000
0010
0010
0110
0000
1000
0001
0000
,
0200
0000
1300
0010
0000
1000
0001
0020
,
0000
0100
0000
0100
0030
1000
0001
0011
,
0000
0100
1000
1100
0000
0001
0000
1010
,
0000
0001
0100
0110
0000
0010
0000
1002
,
0000
0010
0100
0010
,
1003
0020
0230
0302
,
0023
0000
0000
1000
2030
0000
0000
0001
,
3002
0000
0000
0100
0200
0000
0303
0000
,
0010
0000
0000
0010
1000
0000
0000
1000
0001
0000
0000
0001
0100
0000
0000
0100
,
0010
0000
0000
0010
0001
0000
0000
0001
1000
0000
0000
1000
0200
0000
0000
0000
,
0010
0000
0000
1000
1000
0000
0000
0001
0001
0000
0000
0010
0010
0000
0300
0001
,
0011
0000
0000
0000
0000
0000
1000
0000
1010
0000
0000
0000
0000
0000
0100
0000
1100
0000
0000
0000
1001
0000
0000
0000
0010
0100
0010
0100
0010
0001
1000
0000
,
0020
0000
0130
1000
1000
0010
0100
0010
,
0002
0000
0013
0100
0100
0010
1000
0001
,
0200
0000
1300
0001
0001
0010
0100
0010
,
2000
0000
3001
0010
0010
0100
0001
0000
,
2100
0000
3010
0100
0210
0000
1300
0001
,
0021
0000
0130
1000
1002
0000
0013
0100
,
0100
0010
0100
0010
1000
0001
1000
0001
,
0010
0000
0010
0000
0001
0000
0001
0000
1000
0100
1000
0100
1000
0000
0001
0000
,
0011
0000
0011
0000
1000
0100
0001
0100
,
1010
0000
1010
0000
0100
0001
0010
1000
,
0110
0000
0000
0000
0100
0000
1000
0000
0010
0000
0001
0100
0001
0000
0010
0000
,
0000
0000
1001
1001
2002
0000
3003
0000
;

//---------------dance-single - ----------------
#NOTES:
     dance-single:
     :
     Medium:
     9:
     0.398873,0.495020,0.128005,0.296012,0.000000,349.000000,333.000000,16.000000,37.000000,0.000000,0.000000,0.398873,0.495020,0.128005,0.296012,0.000000,349.000000,333.000000,16.000000,37.000000,0.000000,0.000000:
0000
0000
0000
0000
,
0000
0000
0000
0000
,
0000
0000
0000
0000
0010
0100
0010
0100
,
0000
0000
1001
0000
0001
0010
1000
0020
,
0000
0000
2000
3030
,
0100
0010
1000
0100
0000
0001
0000
1000
,
0000
0010
0100
0001
0000
0020
0000
0000
,
1030
0000
0100
0010
0000
1000
0010
0000
,
0001
1000
0100
0001
0100
0000
0000
0000
,
0002
1000
2003
0010
,
3020
0100
0230
0301
,
1000
0000
0000
1000
0001
0000
0000
0001
,
0100
0000
0000
0100
0010
0000
0000
0010
,
0100
0000
0000
1000
0100
0000
0000
0010
,
1000
0000
0000
0100
0001
0000
0000
0000
,
0010
0010
0020
0000
0030
0000
0110
0000
,
1000
0000
0100
0000
0001
0100
0010
0000
,
1000
0000
0010
0000
1000
0010
0100
0000
,
0001
0000
0010
0000
0001
1000
0001
0000
,
0100
0100
1000
1000
,
0010
0010
0001
0001
,
0100
0001
1000
0010
,
0200
0310
0020
1030
,
1002
0010
0000
0010
,
0000
1000
0000
0013
,
0100
0000
1000
0100
0000
0000
0001
0100
,
0000
0000
0010
0000
0100
0000
0000
0210
,
0000
0001
0000
0301
,
2000
0100
0000
3100
,
0020
1000
0000
1030
,
0100
1000
0001
1001
,
0020
1000
1000
0130
,
2000
0001
0001
3010
,
0200
1000
1000
0310
,
1000
0010
0001
0100
,
0020
0000
0100
0000
0130
0000
0001
1000
,
0002
0023
0230
2300
,
3002
0000
0100
0000
0103
0000
1000
0020
,
0000
1000
0001
1030
,
0100
0000
1000
0100
1000
0000
1000
0000
,
0010
0000
0001
0010
0001
0000
0001
0000
,
0100
0000
0010
0100
0010
0000
0010
0000
,
1000
0001
0100
0010
,
1000
0000
0001
1000
0001
0000
0001
0000
,
0010
0010
0100
0100
,
0210
0001
0000
0001
,
0000
1000
0000
1000
,
0310
0001
0100
0010
,
1000
0100
0100
1001
,
0001
0000
0001
1000
0000
0000
1000
0010
,
0000
0000
0010
0100
0000
0000
0100
0000
,
0010
0000
0100
0000
1000
0000
0100
0001
,
0000
0010
0010
0110
,
1000
0000
0100
0000
0001
1000
0001
0000
,
0010
0000
1000
0000
0010
0100
0010
0000
,
0100
0100
0001
0001
,
0010
1000
0100
0110
,
1000
0000
1000
0100
0000
0000
0100
0001
,
0000
0000
0001
0010
0000
0000
0010
0000
,
1000
0000
0100
0000
0001
0000
0010
0200
,
0000
0000
1000
0000
1000
0300
0000
0110
,
0000
0010
0000
1010
0000
1000
0000
1100
,
0000
0100
0000
0101
0000
0001
0000
0021
,
0000
0100
0000
0100
,
0030
0001
0100
1000
,
0200
0310
0020
1030
,
2000
0001
0002
3003
,
0010
0010
1000
1000
,
0001
0001
0100
0200
,
0010
1000
0010
0001
,
0320
0000
2030
0000
3002
0100
0203
0010
,
0310
0000
1000
0000
0100
0000
1000
0001
,
1000
0000
0001
0000
0100
0000
0010
0100
,
0010
0000
0001
0000
1000
0000
0001
0100
,
0001
0000
1000
0000
0100
1000
0100
0000
,
1000
1000
0001
0001
,
0010
0010
0100
0100
,
0002
0100
1000
0010
,
1003
0000
0010
1000
0100
1000
0001
0000
,
1000
0000
0001
0000
1000
0100
1000
0000
,
0010
0000
0100
0000
0010
0001
0010
0000
,
0110
0000
0001
1000
0001
0100
0010
1000
,
0000
0000
0010
0010
0110
0000
0000
0000
;

//---------------dance-single - ----------------
#NOTES:
     dance-single:
     :
     Easy:
     6:
     0.259439,0.330013,0.184007,0.144006,0.000000,227.000000,204.000000,23.000000,18.000000,0.000000,0.000000,0.259439,0.330013,0.184007,0.144006,0.000000,227.000000,204.000000,23.000000,18.000000,0.000000,0.000000:
0000
0000
0000
0000
,
0000
0000
0000
0000
,
0000
0000
0100
0100
,
0000
1001
0000
0010
,
0010
0000
0100
0000
,
0010
0001
0010
0000
,
1000
0100
1000
0000
,
0001
0000
1000
0000
,
0110
0000
1001
0000
,
2000
0000
3002
0000
,
0023
0000
0000
0000
0230
0000
0000
0300
,
1000
0000
1000
0000
,
0001
0000
0001
0000
,
0010
0010
0100
0100
,
0001
1000
0001
0000
,
0220
0330
0000
0000
,
0001
0010
1000
0000
,
0100
0001
0010
0000
,
1000
0001
0100
0000
,
0010
0010
1000
0000
,
0100
0100
0001
0000
,
0010
0001
1000
0100
,
0010
0000
1001
0000
,
0210
0000
0001
0000
,
0010
0000
0010
0300
,
1000
0100
1000
0000
,
0001
0100
0001
0000
,
1002
0000
0100
0000
,
1000
0000
1003
0000
,
0001
0010
0001
0000
,
0100
0100
0110
0000
,
0010
0000
0010
0000
,
0100
0000
0010
0000
,
1000
0000
1000
0000
,
0001
1000
0001
0000
,
0100
0000
0001
0000
,
0100
0001
1000
0100
,
0010
0000
0001
0000
,
2002
0000
3003
0000
,
0010
0010
1000
0000
,
0100
0100
1000
0000
,
0001
0001
0010
0000
,
1000
0010
0100
0000
,
1000
1000
0010
0000
,
1001
0000
0110
0000
,
2001
0000
0010
0000
,
0010
0000
3100
1000
,
0200
0000
0001
0000
,
0301
0100
0010
0000
,
1000
0000
1001
0000
,
0001
0000
1001
0000
,
0100
0010
0100
0000
,
0001
0000
1000
0000
,
0010
0010
0100
0000
,
0001
0001
0010
0000
,
0100
0000
0010
0000
,
1000
0010
1000
0000
,
0010
0000
0110
0000
,
0100
0000
0110
0000
,
0001
0000
1000
0001
,
0020
0000
0030
0000
,
1000
0100
1000
0000
,
0001
1000
0001
0000
,
0020
0000
0100
0000
,
0100
0000
1000
0030
,
0100
0000
0001
0000
,
1001
0000
0110
0000
,
0200
0000
0302
0000
,
0023
0000
2030
0000
,
0010
0000
0001
0000
,
3100
0100
0110
1001
,
0010
0100
0010
0000
,
1000
0010
1000
0000
,
0100
1000
0100
0000
,
0001
0100
0001
0000
,
0010
0010
0010
0000
,
0100
0100
0100
0000
,
0001
1000
0001
1000
,
0010
0100
0010
0000
,
1000
1000
0001
0000
,
0010
0010
0100
0000
,
1001
0000
0000
0000
,
0000
0110
0110
0000
;

//---------------dance-single - ----------------
#NOTES:
     dance-single:
     :
     Beginner:
     3:
     0.158863,0.231009,0.064003,0.048002,0.000000,139.000000,131.000000,8.000000,6.000000,0.000000,0.000000,0.158863,0.231009,0.064003,0.048002,0.000000,139.000000,131.000000,8.000000,6.000000,0.000000,0.000000:
// measure 0
0000
0000
0000
0000
,  // measure 1
0000
0000
0000
0000
,  // measure 2
0000
0000
0000
0000
,  // measure 3
0000
0010
0000
0000
,  // measure 4
0100
0000
0100
0000
,  // measure 5
0001
0000
0001
0000
,  // measure 6
1000
0000
1000
0000
,  // measure 7
0010
0000
0100
0000
,  // measure 8
0010
0000
0100
0000
,  // measure 9
1000
0000
1000
0000
,  // measure 10
0001
0000
0001
0000
,  // measure 11
0100
0000
0000
0000
,  // measure 12
0100
0000
0000
0000
,  // measure 13
0010
0000
0000
0000
,  // measure 14
0010
0000
0000
0000
,  // measure 15
0110
0000
0000
0000
,  // measure 16
0010
0000
0010
0000
,  // measure 17
1000
0000
1000
0000
,  // measure 18
0100
0000
0100
0000
,  // measure 19
1000
0000
0001
0000
,  // measure 20
1000
0000
0001
0000
,  // measure 21
1000
0000
1000
0000
,  // measure 22
0001
0000
0001
0000
,  // measure 23
0200
0000
0000
0000
,  // measure 24
0300
0000
0000
0000
,  // measure 25
0010
0000
0000
0000
,  // measure 26
0010
0000
0000
0000
,  // measure 27
0002
0000
0000
0000
,  // measure 28
0003
0000
0000
0000
,  // measure 29
1000
0000
0000
0000
,  // measure 30
1000
0000
0000
0000
,  // measure 31
0010
0000
0000
0000
,  // measure 32
0010
0000
0000
0000
,  // measure 33
1000
0000
0000
0000
,  // measure 34
1000
0000
0000
0000
,  // measure 35
0001
0000
0000
0000
,  // measure 36
0001
0000
1000
0000
,  // measure 37
0001
0000
0000
0000
,  // measure 38
1001
0000
0000
0000
,  // measure 39
0010
0010
0010
0000
,  // measure 40
0100
0100
0100
0000
,  // measure 41
0001
0001
0001
0000
,  // measure 42
1000
1000
1000
0000
,  // measure 43
0010
0010
0010
0000
,  // measure 44
1000
0000
0001
0000
,  // measure 45
2000
0000
0000
0000
,  // measure 46
3000
0000
0000
0000
,  // measure 47
0002
0000
0000
0000
,  // measure 48
0003
0000
0000
0000
,  // measure 49
1001
0000
0000
0000
,  // measure 50
1001
0000
0000
0000
,  // measure 51
0100
0000
0100
0000
,  // measure 52
0010
0000
0010
0000
,  // measure 53
0001
0001
0001
0000
,  // measure 54
1000
1000
1000
0000
,  // measure 55
0100
0000
0100
0000
,  // measure 56
0010
0000
0010
0000
,  // measure 57
0110
0000
0000
0000
,  // measure 58
0110
0000
0000
0000
,  // measure 59
1000
0000
1000
0000
,  // measure 60
0001
0000
0001
0000
,  // measure 61
0010
0010
0010
0000
,  // measure 62
0100
0100
0100
0000
,  // measure 63
0020
0000
0000
0000
,  // measure 64
0030
0000
0000
0000
,  // measure 65
1000
0000
0001
0000
,  // measure 66
1000
0000
0001
0000
,  // measure 67
0010
0000
0010
0000
,  // measure 68
0100
0000
0100
0000
,  // measure 69
1000
0000
1000
0000
,  // measure 70
0001
0000
1001
0000
,  // measure 71
0010
0000
0010
0000
,  // measure 72
1000
0000
1000
0000
,  // measure 73
0001
0000
0001
0000
,  // measure 74
0100
0000
0100
0000
,  // measure 75
0010
0010
0010
0000
,  // measure 76
1000
1000
1000
0000
,  // measure 77
0001
0001
0001
0000
,  // measure 78
0100
0100
0100
0000
,  // measure 79
0020
0000
0000
0000
,  // measure 80
0000
0000
0000
0000
,  // measure 81
0030
0000
0000
0000
,  // measure 82
0000
0000
1001
0000
;
