#VERSION:0.83;
#TITLE:Line 4 Ruin;
#SUBTITLE:-kohumix-;
#ARTIST:kohu;
#TITLETRANSLIT:;
#SUBTITLETRANSLIT:;
#ARTISTTRANSLIT:;
#GENRE:;
#ORIGIN:;
#CREDIT:;
#BANNER:Line 4 Ruin -kohumix-.png;
#BACKGROUND:Line 4 Ruin -kohumix--bg.png;
#PREVIEWVID:;
#JACKET:Line 4 Ruin -kohumix--jacket.png;
#CDIMAGE:;
#DISCIMAGE:;
#LYRICSPATH:;
#CDTITLE:;
#MUSIC:Line 4 Ruin -kohumix-.ogg;
#OFFSET:-0.152000;
#SAMPLESTART:22.740000;
#SAMPLELENGTH:11.294000;
#SELECTABLE:YES;
#BPMS:0.000=170.000,
64.000=340.000,
128.000=170.000,
176.000=340.000,
288.000=170.000,
352.000=340.000,
416.000=170.000;
#STOPS:177.500=0.176,
179.500=0.176,
181.500=0.176,
183.500=0.176,
189.500=0.176,
191.500=0.176,
193.500=0.176,
195.500=0.176,
201.500=0.176,
203.500=0.176,
205.500=0.176,
207.500=0.176,
213.500=0.176,
215.500=0.176,
217.500=0.176,
219.500=0.176;
#DELAYS:;
#WARPS:;
#TIMESIGNATURES:0.000=4=4;
#TICKCOUNTS:0.000=4;
#COMBOS:0.000=1;
#SPEEDS:0.000=1.000=0.000=0;
#SCROLLS:0.000=1.000;
#FAKES:;
#LABELS:0.000=Song Start;
#BGCHANGES:;
#KEYSOUNDS:;
#ATTACKS:
;

//---------------dance-single - ----------------
#NOTEDATA:;
#CHARTNAME:;
#STEPSTYPE:dance-single;
#DESCRIPTION:;
#CHARTSTYLE:;
#DIFFICULTY:Hard;
#METER:16;
#RADARVALUES:0.760210,0.849363,0.374375,0.142619,0.008914,597.000000,555.000000,42.000000,16.000000,0.000000,0.000000,0.000000,0.000000,0.000000,0.760210,0.849363,0.374375,0.142619,0.008914,597.000000,555.000000,42.000000,16.000000,0.000000,0.000000,0.000000,0.000000,0.000000;
#CREDIT:;
#NOTES:
// measure 0
0000
0000
0000
0000
,  // measure 1
0000
0000
0000
0000
,  // measure 2
0000
0000
0000
0000
,  // measure 3
0000
0000
0000
0000
,  // measure 4
0000
0000
0000
0000
,  // measure 5
0000
0000
0000
0000
,  // measure 6
0000
0000
0000
0000
,  // measure 7
0000
0000
0000
0000
,  // measure 8
0101
0001
0001
0011
0000
0100
0000
0110
,  // measure 9
0000
1000
0001
0000
0101
0000
0010
0000
,  // measure 10
1100
0100
0100
0110
0000
0001
0000
1001
,  // measure 11
0000
1000
0010
0000
0100
0001
0100
0000
,  // measure 12
1010
1000
1000
1001
0000
0010
0000
0011
,  // measure 13
0000
0001
0100
0000
1010
0000
0100
0000
,  // measure 14
0011
0010
0010
0110
0000
1000
0000
1100
,  // measure 15
0000
0010
0100
0000
0001
0000
1001
0000
,  // measure 16
1000
0000
0010
0100
0010
0100
0000
0001
,  // measure 17
0000
1000
0001
0000
0010
0000
0100
0000
,  // measure 18
1000
0000
0010
0100
0001
0100
0000
0010
,  // measure 19
0000
1000
0001
0000
0100
0000
0010
0000
,  // measure 20
1000
0000
0100
1000
0001
1000
0000
0010
,  // measure 21
0000
1000
0001
0000
0010
0000
0001
0000
,  // measure 22
0100
0000
0010
0000
1000
0100
0000
1000
,  // measure 23
0000
0000
0001
1000
0001
0100
0010
1000
,  // measure 24
0100
0000
0010
0100
1000
0001
0000
1000
,  // measure 25
0000
0000
0001
0100
0001
0000
1000
0000
,  // measure 26
0010
0000
0100
0000
0010
1000
0000
0001
,  // measure 27
0000
0100
0010
0000
0100
0000
0001
1000
,  // measure 28
0010
0000
0100
0000
0010
1000
0000
0001
,  // measure 29
0000
0100
0001
0000
0010
0000
0001
0000
,  // measure 30
0100
0000
0010
1000
0010
0100
0000
0001
,  // measure 31
0000
1000
0100
0000
1000
0000
0000
0000
,  // measure 32
0220
0030
0001
0000
,  // measure 33
0000
0000
0001
0000
,  // measure 34
0000
0000
0001
0000
,  // measure 35
0000
0000
0001
0000
,  // measure 36
0310
0000
1000
0000
0010
0000
0100
0010
,  // measure 37
1000
0000
0100
0000
1000
0000
0001
0100
,  // measure 38
0010
0000
0100
0000
0010
0000
1000
0001
,  // measure 39
0100
0000
0001
0000
0100
0000
0010
1000
,  // measure 40
1001
0000
0001
0100
0010
0100
0010
0100
,  // measure 41
0001
0100
1000
0100
0001
0100
0010
1000
,  // measure 42
0100
1000
0001
1000
0100
1000
0010
1000
,  // measure 43
0100
0010
0010
0100
1000
0001
0110
0000
,  // measure 44
1000
0001
1000
0001
0100
0001
0100
0001
,  // measure 45
0010
0100
0010
0100
1000
0100
1000
0100
,  // measure 46
1000
0001
0010
0100
2000
0000
0000
0000
,  // measure 47
3010
0100
0010
0100
0001
0100
0001
0100
,  // measure 48
0010
1000
0010
1000
0100
1000
0100
1000
,  // measure 49
0001
0100
0010
1000
0002
0000
0000
0000
,  // measure 50
1003
0010
1000
0010
0100
0010
0100
0010
,  // measure 51
1000
0100
1000
0100
0001
0100
0001
0100
,  // measure 52
0001
0010
0100
1000
0020
0000
0000
0000
,  // measure 53
0130
0001
0100
0001
1000
0001
1000
0001
,  // measure 54
0010
1000
0010
1000
0100
1000
0100
1000
,  // measure 55
0010
0100
0001
1000
0200
0000
0000
0000
,  // measure 56
0301
0000
0010
1000
0010
0100
0010
1000
,  // measure 57
0001
0000
1000
0010
0100
0010
1000
0000
,  // measure 58
0001
0000
0100
0010
0001
0010
0100
1000
,  // measure 59
0010
0000
1000
0001
0010
0001
1000
0000
,  // measure 60
0100
0000
0010
0001
0100
0001
0010
0100
,  // measure 61
1000
0000
0001
0100
0010
0100
0001
0000
,  // measure 62
1000
0000
0100
0010
0100
1000
0100
0010
,  // measure 63
0001
0000
1000
0001
0100
0001
1000
0000
,  // measure 64
0110
0000
0100
0010
1000
0001
0010
0100
,  // measure 65
1000
0000
0001
0010
0100
0010
0001
0000
,  // measure 66
0100
0000
0010
1000
0100
0010
0001
0100
,  // measure 67
0010
0000
0100
0001
0100
0010
0100
0000
,  // measure 68
0010
0000
1000
0001
0100
0010
1000
0001
,  // measure 69
0010
0000
0001
1000
0010
0100
0001
0000
,  // measure 70
0100
0010
0100
0010
1000
0010
1000
0010
,  // measure 71
1000
0001
1000
0100
0010
0001
1000
0000
,  // measure 72
1001
1010
0110
0101
,  // measure 73
0001
0010
0001
2000
0000
3010
0100
0000
,  // measure 74
0002
0000
0013
0002
0000
1003
0100
1000
,  // measure 75
0020
0100
0100
1030
,  // measure 76
0101
0000
0000
0000
0011
0000
0000
0000
1010
0000
0000
0000
0100
0000
0001
0100
,  // measure 77
0001
0010
0100
0020
0000
0031
1000
0001
,  // measure 78
0200
0000
0000
0000
0310
1000
0010
0000
0000
0000
0100
0000
0010
0000
2000
0000
,  // measure 79
0000
3001
0010
0200
0000
0300
2001
0000
,  // measure 80
3010
0100
0100
0101
0000
0001
0000
0011
,  // measure 81
0000
0100
1000
0000
1010
0000
0001
0000
,  // measure 82
0110
0100
0100
1100
0000
0010
0000
1010
,  // measure 83
0000
0001
0100
0000
1000
0010
1000
0000
,  // measure 84
0101
0001
0001
1001
0000
0100
0000
0110
,  // measure 85
0000
0010
1000
0000
0001
0100
0010
1000
,  // measure 86
1100
0100
0100
0110
0000
1000
0000
0101
,  // measure 87
0000
0001
0010
0000
0100
0000
1001
0000
,  // measure 88
1000
0000
0010
1000
0100
1000
0000
0001
,  // measure 89
0000
0100
0010
0100
0010
1000
0100
0000
,  // measure 90
0010
0000
0100
1000
0001
1000
0000
0010
,  // measure 91
0000
1000
0010
0100
0010
0000
1000
0000
,  // measure 92
0001
0000
0100
0010
1000
0010
0000
0100
,  // measure 93
0000
0001
0100
0000
0010
0000
0100
0000
,  // measure 94
0001
0000
1000
0010
1000
0100
0000
0010
,  // measure 95
0000
0001
0100
0001
0010
0100
1000
0001
,  // measure 96
0010
0000
0100
0010
1000
0010
0000
0100
,  // measure 97
0000
0001
0010
0001
0100
0000
0010
0000
,  // measure 98
1000
0000
0001
0000
1000
0100
0000
0010
,  // measure 99
0000
0000
0100
1000
0100
0010
0001
0010
,  // measure 100
0100
0000
1000
0001
1000
0010
0000
0100
,  // measure 101
0000
0010
1000
0100
1000
0000
0010
0000
,  // measure 102
0100
0000
0001
0010
0001
1000
0000
0001
,  // measure 103
0000
0100
0010
0000
0100
0000
0000
0000
,  // measure 104
1002
0000
0010
0010
0010
0010
0010
0010
,  // measure 105
0013
0100
0010
0001
1000
0100
0100
0110
;
