#VERSION:0.83;
#TITLE:Lead Me;
#SUBTITLE:;
#ARTIST:SHOGO;
#TITLETRANSLIT:;
#SUBTITLETRANSLIT:;
#ARTISTTRANSLIT:;
#GENRE:;
#ORIGIN:;
#CREDIT:;
#BANNER:Lead Me.png;
#BACKGROUND:Lead Me-bg.png;
#PREVIEWVID:;
#JACKET:Lead Me-jacket.png;
#CDIMAGE:;
#DISCIMAGE:;
#LYRICSPATH:;
#CDTITLE:;
#MUSIC:Lead Me.ogg;
#OFFSET:-0.132270;
#SAMPLESTART:62.911999;
#SAMPLELENGTH:15.000000;
#SELECTABLE:YES;
#BPMS:0.000=172.000;
#STOPS:;
#DELAYS:;
#WARPS:;
#TIMESIGNATURES:0.000=4=4;
#TICKCOUNTS:0.000=4;
#COMBOS:0.000=1;
#SPEEDS:0.000=1.000=0.000=0;
#SCROLLS:0.000=1.000;
#FAKES:;
#LABELS:0.000=Song Start;
#BGCHANGES:;
#KEYSOUNDS:;
#ATTACKS:
;

//---------------dance-single - ----------------
#NOTEDATA:;
#CHARTNAME:;
#STEPSTYPE:dance-single;
#DESCRIPTION:;
#CHARTSTYLE:;
#DIFFICULTY:Hard;
#METER:11;
#RADARVALUES:0.525210,0.564668,0.311086,0.433635,0.018854,390.000000,357.000000,33.000000,46.000000,0.000000,0.000000,0.000000,0.000000,0.000000,0.525210,0.564668,0.311086,0.433635,0.018854,390.000000,357.000000,33.000000,46.000000,0.000000,0.000000,0.000000,0.000000,0.000000;
#CREDIT:;
#NOTES:
0000
0000
0000
0000
,
0010
0000
0100
0000
0010
0000
0001
1000
,
0001
0000
0100
0000
1000
0000
1000
0010
,
0001
0000
0100
0000
1000
0000
0010
0001
,
0000
0001
0010
0000
0100
1000
0100
0000
,
0220
0000
0330
0000
1000
0000
0010
0001
,
0001
0000
0010
0000
1000
0000
0010
0100
,
0001
0000
0110
0000
1000
0100
0010
0000
,
1010
0100
0001
0010
,
2001
0000
0100
0000
0010
0000
3100
0002
,
0000
0000
0010
0000
1000
0000
0100
0100
,
0100
0003
0010
1000
0010
0100
0000
0001
,
0011
0000
1001
0000
0100
0010
0110
0000
,
2000
0000
0001
0000
3001
0010
0000
0100
,
0010
0100
0000
1100
0000
0100
0000
0001
,
0010
0000
1000
0010
0000
1000
0001
1000
,
0200
0000
0010
0010
0300
0001
0010
1000
,
0100
0000
0100
1000
0000
1000
0020
0000
,
0000
0000
0001
0000
0031
1000
0010
1000
,
0001
0000
0100
1000
0000
0010
0100
0010
,
0001
0000
1000
0001
0000
1000
1100
0000
,
0020
0000
0001
0032
0000
0100
1003
0100
,
0010
0001
0000
1010
0000
1000
0100
0010
,
0100
0000
0001
1000
0000
0010
0001
0010
,
2000
3200
0302
0013
,
0110
0000
1000
0002
0000
0000
0010
0000
,
0000
0000
0103
0000
0100
0010
0100
2000
,
0000
0000
3001
0001
0000
0010
0200
0000
,
1000
0301
0011
1010
,
0200
0000
0000
1000
0000
0000
0310
0001
,
0001
0000
0000
0000
1000
0000
0000
0000
0010
0000
0000
0100
0000
0000
1000
0000
,
0002
0000
0010
0020
0003
0000
0100
0000
,
0130
1000
0000
0001
1000
1000
0010
0100
,
0010
0000
0001
0100
0000
0010
0000
1010
,
0000
0100
0010
0100
,
0120
0000
1000
0000
1030
0001
0100
0000
,
0202
0000
0000
0000
0303
0000
0000
0000
0001
0000
0000
1000
0000
0000
0001
0000
,
0020
0000
0130
0000
0100
1000
0100
0010
,
0000
0000
0010
0000
0001
0000
0000
0000
0100
0000
0000
1000
0000
0000
0100
0000
,
0002
0000
0000
0010
0003
0000
1000
0100
,
1000
0010
0001
1000
,
0200
0000
0001
0002
0300
0000
0010
0000
,
0013
1000
0100
0000
0001
0100
0001
0000
,
1000
0000
0010
0000
0100
0001
0100
0010
,
1000
1100
0101
0110
,
0002
0000
1000
0010
0003
1000
0000
1200
,
0000
0000
0310
0001
0000
1000
0100
1000
,
0020
0000
1000
0001
0030
0100
0000
2010
,
0000
0100
0000
0001
3000
0010
1000
0100
,
0020
0000
0030
1000
0000
0100
1000
0002
,
0000
0013
0100
0020
,
2030
0000
0100
0000
3100
0001
0010
0021
,
0000
0000
0100
0230
0000
1000
0301
0000
,
0010
0000
1000
0010
1000
0100
0001
0000
,
0010
0001
0100
0010
0000
0010
1000
0000
,
0100
0001
0100
0000
0001
0010
0001
0000
,
0100
1000
0100
0001
0010
0000
1010
0000
,
2000
0000
0100
0001
3000
0010
0000
0210
,
0000
0000
1300
0000
0001
1000
0001
0000
,
0110
0000
1000
1100
0000
0010
0001
1002
,
0000
0010
0010
0003
0100
1000
0100
0010
,
0200
0001
1000
1300
,
0010
0001
0010
0000
0100
0000
1100
0000
,
0001
1000
0100
1000
0010
0000
0100
0010
,
0100
0000
1000
0010
0001
1000
1000
0000
,
0100
0000
0100
0001
0000
0001
0010
0000
,
1000
0010
1000
0000
0100
0000
0011
0000
,
0100
1000
0100
0010
0001
0001
0010
2010
,
0000
0000
0001
0000
3001
0100
0010
0000
,
0002
0000
0000
0100
0000
0003
0020
0000
,
0000
1000
0000
0030
0100
0000
0001
0000
,
2001
0000
0000
0010
0000
3000
0200
0000
,
0000
0001
0000
0300
0010
0010
1001
0000
,
0000
0000
0220
0000
0000
0000
0000
0000
0000
0000
0000
0000
,
0000
0000
0000
0000
0000
0000
0000
0330
;

//---------------dance-single - ----------------
#NOTEDATA:;
#CHARTNAME:;
#STEPSTYPE:dance-single;
#DESCRIPTION:;
#CHARTSTYLE:;
#DIFFICULTY:Medium;
#METER:8;
#RADARVALUES:0.408048,0.417138,0.160256,0.160256,0.004713,303.000000,286.000000,17.000000,17.000000,0.000000,0.000000,0.000000,0.000000,0.000000,0.408048,0.417138,0.160256,0.160256,0.004713,303.000000,286.000000,17.000000,17.000000,0.000000,0.000000,0.000000,0.000000,0.000000;
#CREDIT:;
#NOTES:
0000
0000
0000
0000
,
1000
0000
0000
0001
0000
0100
0000
0001
,
0000
0010
0100
1000
,
0100
0000
0000
1000
0000
0001
0000
1000
,
0000
0010
0001
0100
,
0010
0000
0000
0100
0000
1000
0000
1000
,
0000
0100
0001
1000
,
0100
0000
0000
0010
0000
0100
0000
0200
,
0000
0010
0001
0301
,
1001
0000
0001
1000
,
0010
0100
0100
0000
,
1000
0000
0010
0000
0100
0001
0100
0000
,
0202
0300
0010
0013
,
1100
0000
0001
1000
,
0010
0000
0010
0000
0100
0000
0001
1000
,
0001
0010
0100
0010
,
1000
0010
0100
0001
,
2000
3000
0010
1000
,
1000
0010
0100
0000
,
0001
0000
0010
1000
0000
0100
0000
1000
,
0000
0001
1000
0000
0110
0000
0100
0000
,
1010
0000
0001
0100
,
0001
0000
0010
0100
0000
1000
0100
0000
,
0001
0000
1000
0000
0100
0010
0100
0000
,
1000
0001
0010
0001
,
0200
0000
0300
0000
0010
0000
0100
1000
,
0100
0000
0001
0000
1000
0000
0010
0001
,
0010
0001
0100
0001
,
0200
1000
0001
1300
,
0110
0000
0100
0010
,
0010
0000
0100
0000
1000
0000
0001
1000
,
0010
0000
0001
1000
,
0001
0000
0000
1010
0000
0000
0010
0000
,
0010
1000
0001
0000
,
0100
1000
0010
0000
,
0001
0100
0010
0100
,
0010
0000
0001
0000
0001
0100
0001
0000
,
1001
0000
0010
1000
,
0100
0000
0100
0000
0010
0001
0010
0000
,
0100
0000
0001
1000
,
1000
0000
0100
0010
0100
0000
1000
0000
,
0002
0003
1000
0100
,
2000
0000
3010
0000
0010
0100
0010
0000
,
0100
0000
0001
0000
0010
0000
1000
0002
,
0000
0100
1000
0103
,
0110
0000
1000
0100
,
0001
0000
0001
0000
0010
1000
0010
0000
,
1000
0001
1000
0100
,
0010
0000
0010
0000
0100
0010
0100
0000
,
0002
1000
0013
1000
,
0200
0010
0301
0010
,
1000
0000
0001
0000
1000
0001
1000
0010
,
0000
0100
0101
1000
,
0001
0000
1000
0000
0001
0000
0010
0001
,
0010
0000
0100
0000
1000
0000
0100
1000
,
0100
0000
1000
0000
0010
0000
0001
0010
,
0001
0100
0101
1000
,
2000
0000
3000
0000
0010
0000
0100
0001
,
0100
1000
0010
0100
,
1100
0000
0000
0101
0000
0000
0010
0120
,
0000
0100
0100
1030
,
0002
0000
0003
0000
0100
0000
0010
0001
,
0010
0000
0100
0000
1000
0000
1000
0010
,
1000
0001
0010
0010
,
0100
1000
0100
0000
1001
0000
0001
0000
,
0010
0000
0100
0000
0010
0100
0010
0000
,
1000
0000
0100
0000
1000
0100
1000
0000
,
0010
0000
0010
0000
0100
0001
0100
1000
,
0000
0010
1001
0100
,
0020
0000
0100
0030
,
1000
0001
2000
3000
,
0010
0100
0010
0001
,
0100
0000
1001
1000
,
0000
0000
0200
0000
0000
0000
0000
0000
0000
0300
0000
0000
;

//---------------dance-single - ----------------
#NOTEDATA:;
#CHARTNAME:;
#STEPSTYPE:dance-single;
#DESCRIPTION:;
#CHARTSTYLE:;
#DIFFICULTY:Easy;
#METER:5;
#RADARVALUES:0.288192,0.308611,0.131976,0.254525,0.000000,214.000000,200.000000,14.000000,27.000000,0.000000,0.000000,0.000000,0.000000,0.000000,0.288192,0.308611,0.131976,0.254525,0.000000,214.000000,200.000000,14.000000,27.000000,0.000000,0.000000,0.000000,0.000000,0.000000;
#CREDIT:;
#NOTES:
0000
0000
0000
0000
,
0020
0030
0100
0001
,
0100
0000
0010
1000
,
0010
0000
0001
0010
,
0001
1000
0010
0000
,
0110
0000
0001
1000
,
0001
0000
0100
0001
,
0100
0000
0010
0020
,
0030
0001
0100
0010
,
2000
3000
0100
0001
,
0002
0003
0010
0100
,
0010
0100
1000
0000
,
1001
0000
0110
0000
,
0200
0000
0300
0010
,
0001
0010
1000
0000
,
1000
0100
0001
0100
,
0010
0000
1001
0000
,
0010
0010
1000
0000
,
0100
0100
0010
0000
,
0001
0100
1000
0100
,
0010
0000
0110
0000
,
1000
0100
1000
0000
,
0010
0100
0010
0000
,
0001
0100
0001
1000
,
0001
0000
0100
0000
,
0020
0030
0100
1000
,
0100
0000
0001
0010
,
0100
0000
0001
1000
,
0001
0100
0010
0000
,
0200
0000
0300
0010
,
1000
1000
0010
0000
,
0002
0000
0003
1000
,
0001
0010
0010
0000
,
2000
0000
3000
0010
,
0100
1000
0100
0000
,
0020
0030
0001
1000
,
0100
0000
0110
0000
,
2002
3003
0010
0100
,
0010
0010
0001
0000
,
0002
0003
0010
1000
,
0100
0100
1000
0000
,
0200
0300
0010
0000
,
1000
0001
1000
0000
,
0020
0030
0100
0001
,
1000
0000
0110
0000
,
2000
3000
0100
0010
,
0002
0003
0010
0100
,
0020
0030
0100
0010
,
0100
1000
1000
0000
,
0220
0330
0010
0100
,
2000
3000
0010
1000
,
0002
0003
1000
0010
,
1000
0000
0110
0000
,
0100
0001
0010
0000
,
0100
1000
0001
0000
,
0001
0010
0100
0000
,
0010
1000
0100
0000
,
1000
0000
1001
0000
,
0100
0010
0010
0000
,
0100
0001
0100
1000
,
0100
0000
0110
0000
,
2000
0000
3000
0100
,
0010
0001
0010
0000
,
0100
0001
0010
0100
,
1000
0001
1000
0000
,
0002
0003
0010
0100
,
0100
0000
0010
1000
,
0200
0300
1000
0010
,
0001
0000
1001
0000
,
0002
0000
0000
0003
,
0010
0000
0100
0000
,
0020
0000
0000
0030
,
0001
0000
0100
0110
;

//---------------dance-single - ----------------
#NOTEDATA:;
#CHARTNAME:;
#STEPSTYPE:dance-single;
#DESCRIPTION:;
#CHARTSTYLE:;
#DIFFICULTY:Beginner;
#METER:3;
#RADARVALUES:0.181803,0.239206,0.075415,0.197964,0.000000,135.000000,127.000000,8.000000,21.000000,0.000000,0.000000,0.000000,0.000000,0.000000,0.181803,0.239206,0.075415,0.197964,0.000000,135.000000,127.000000,8.000000,21.000000,0.000000,0.000000,0.000000,0.000000,0.000000;
#CREDIT:;
#NOTES:
// measure 0
0000
0000
0000
0000
,  // measure 1
1000
0000
1000
0000
,  // measure 2
0001
0000
0001
0000
,  // measure 3
0010
0000
0100
0000
,  // measure 4
0100
0000
0010
0000
,  // measure 5
0002
0000
0003
0000
,  // measure 6
1000
0000
1000
0000
,  // measure 7
0100
0000
0010
0000
,  // measure 8
0200
0000
0300
0000
,  // measure 9
1000
0000
0000
0000
,  // measure 10
0001
0000
0000
0000
,  // measure 11
0010
0000
0100
0000
,  // measure 12
0020
0000
0030
0000
,  // measure 13
0110
0000
0000
0000
,  // measure 14
0100
0000
0100
0000
,  // measure 15
1000
0000
0010
0000
,  // measure 16
0001
0000
0001
0000
,  // measure 17
0020
0000
0030
0000
,  // measure 18
1000
0000
1000
0000
,  // measure 19
0010
0000
1000
0000
,  // measure 20
0002
0000
0003
0000
,  // measure 21
0010
0000
0010
0000
,  // measure 22
0100
0000
0010
0000
,  // measure 23
1000
0000
0001
0000
,  // measure 24
1000
1000
1000
0000
,  // measure 25
0200
0000
0300
0000
,  // measure 26
0001
0000
0100
0000
,  // measure 27
0010
0000
0010
0000
,  // measure 28
2000
0000
3000
0000
,  // measure 29
1001
0000
0000
0000
,  // measure 30
0100
0000
0100
0000
,  // measure 31
0001
0000
0200
0000
,  // measure 32
0300
0000
0000
0010
,  // measure 33
0010
0000
0100
0000
,  // measure 34
1000
0000
0010
0000
,  // measure 35
2000
0000
3000
0000
,  // measure 36
0001
0000
1001
0000
,  // measure 37
0100
0000
0100
0000
,  // measure 38
0010
0000
0100
0000
,  // measure 39
0020
0000
0030
0000
,  // measure 40
0002
0000
0003
0000
,  // measure 41
1000
0000
1000
0000
,  // measure 42
0100
0000
0100
0000
,  // measure 43
1000
0000
0001
0000
,  // measure 44
2002
0000
3003
0000
,  // measure 45
0010
0000
0100
0000
,  // measure 46
0001
0000
0001
0000
,  // measure 47
1000
0000
0010
0000
,  // measure 48
0100
0000
0100
0000
,  // measure 49
0001
0000
0010
0010
,  // measure 50
0010
0000
0001
0001
,  // measure 51
0001
0000
0100
0000
,  // measure 52
0220
0000
0330
0000
,  // measure 53
1000
1000
1000
0000
,  // measure 54
0100
0000
1000
0000
,  // measure 55
0010
0010
0010
0000
,  // measure 56
0001
0000
0010
0000
,  // measure 57
1000
0000
1000
0000
,  // measure 58
0001
0000
0001
0000
,  // measure 59
0110
0000
0000
0000
,  // measure 60
1001
0000
0000
0000
,  // measure 61
0200
0000
0300
0010
,  // measure 62
0020
0000
0030
0001
,  // measure 63
0002
0000
0003
1000
,  // measure 64
2000
0000
3000
0100
,  // measure 65
0100
0000
0010
0000
,  // measure 66
0010
0000
0100
0000
,  // measure 67
1000
0000
0001
0000
,  // measure 68
2002
0000
3003
0000
,  // measure 69
0010
0000
0000
0000
,  // measure 70
0010
0000
0000
0000
,  // measure 71
0100
0000
0100
0000
,  // measure 72
1000
0000
0001
0000
;
