#TITLE:Lapistoria no yakusoku;
#SUBTITLE:;
#ARTIST:positive MAD-crew;
#TITLETRANSLIT:;
#SUBTITLETRANSLIT:;
#ARTISTTRANSLIT:;
#GENRE:;
#CREDIT:;
#BANNER:Lapistoria no yakusoku.png;
#BACKGROUND:Lapistoria no yakusoku-bg.PNG;
#LYRICSPATH:;
#CDTITLE:;
#MUSIC:Lapistoria no yakusoku.ogg;
#OFFSET:-0.787252;
#SAMPLESTART:55.544998;
#SAMPLELENGTH:15.000000;
#SELECTABLE:YES;
#BPMS:0.000000=186.000000
,108.000000=93.000000
,124.000000=186.000000
,252.000000=93.000000
,268.000000=186.000000
;
#STOPS:
;
#BGCHANGES:;
#KEYSOUNDS:;
#ATTACKS:;

//---------------dance-single - ----------------
#NOTES:
     dance-single:
     :
     Hard:
     13:
     0.652871,0.920908,0.295712,0.179219,0.183700,510.000000,477.000000,33.000000,20.000000,0.000000,0.000000,0.652871,0.920908,0.295712,0.179219,0.183700,510.000000,477.000000,33.000000,20.000000,0.000000,0.000000:
0000
0000
0000
0000
,
0000
0000
0000
0000
,
0000
0000
0000
0000
,
1000
0100
0001
0000
0010
0100
0001
0000
,
0010
0100
1000
0010
0100
1000
0010
0000
,
0100
0010
0100
0000
0001
0010
0001
0000
,
0001
1000
0100
0010
1000
0100
0001
0000
,
1000
0100
1000
0100
0010
0100
0001
0000
,
0001
0100
0010
0100
0001
1000
0010
0000
,
1000
0010
0100
1000
0001
0100
0010
0001
,
1000
1000
0100
0100
0010
0001
1000
0010
,
1000
0000
1001
0000
0100
0010
0001
0000
,
0010
0100
1000
0001
0000
0100
0010
0000
,
0100
0000
0110
0000
1000
0100
0001
0000
,
0100
0010
1000
0010
0000
0100
0100
0000
,
0001
0000
1100
0000
0001
0010
0100
0000
,
1000
0100
1000
0001
0000
0010
0001
0000
,
0100
0000
1010
0000
0010
1000
0001
0000
,
0100
0010
0100
0001
1000
0010
0001
0000
,
1000
0100
1000
0000
0010
0100
0010
0000
,
0001
0010
0001
0000
0100
0001
0100
0000
,
0001
1000
0001
1000
0010
0001
0010
0001
,
1000
0100
0010
1000
0100
0001
0010
0000
,
1000
0100
0001
0000
0001
0010
0100
0000
,
0010
0100
1000
0000
0100
0001
0010
0000
,
0100
0010
0100
0001
1000
0001
1000
0010
,
0001
1000
0001
0100
0010
1000
0010
0000
,
1000
0000
0000
1000
0010
0000
0000
0100
0001
0010
0000
0010
0001
0000
0100
0000
,
1000
0000
0010
1000
0010
0000
0100
0010
0001
1000
0100
0001
0010
0000
0001
0000
,
1000
0010
1000
0000
0100
0001
0100
0000
0010
0100
0001
0000
0100
1000
0001
0000
,
1010
0010
0011
0001
0110
1001
1100
0101
,
0010
0100
0010
0100
1000
0001
1000
0001
,
1000
0100
0001
0010
0001
0100
1000
0010
,
0001
1000
0100
0010
0001
1000
0010
0100
,
0010
1000
0001
0100
0010
0100
0001
0000
,
1000
1000
0100
0000
0010
0010
0100
0000
,
0001
0100
0010
0100
2002
0000
3003
0000
,
0100
0000
1000
0000
0100
0000
0010
0000
0001
0000
1000
0000
,
0001
0000
0100
0000
0010
0000
1001
0000
0000
0110
0000
0000
,
2000
0000
0100
3200
0000
0010
0320
0000
,
2030
0000
0001
3002
0000
0103
0200
0000
,
0320
0000
0001
0032
0000
1000
2003
0000
,
3020
0000
0002
0033
,
0100
1000
0100
0000
0010
0001
0010
0000
,
0001
1000
0001
0000
0100
0001
0100
0000
,
1000
0100
0010
0000
0001
0100
0010
0000
,
0100
0001
1000
0010
0100
0001
1000
0000
,
1000
0000
1000
0000
0010
0100
0010
0100
,
0001
0000
0001
0000
0100
1000
0100
1000
,
0001
0000
0100
0000
1000
0100
0010
0001
,
0100
0000
1000
0000
0001
0100
0010
1000
,
0001
0000
0100
0110
0000
1000
0100
0010
,
0001
0000
0100
1100
0000
0010
0100
0001
,
1001
0000
0100
0010
0110
0000
0001
0100
,
1001
0011
1100
1010
,
1000
0000
0100
0100
0010
0000
1000
0001
,
0100
0001
0010
0000
1001
0000
0100
0001
,
1000
0000
1000
0100
0010
0000
0010
1000
,
0001
0010
0100
0000
0011
0000
1100
0000
,
0100
0000
1000
0000
1000
0000
0010
0000
0001
0000
0001
0000
,
0100
0000
0010
0000
0100
0000
0001
0000
0100
0000
0001
0000
,
1000
0000
0010
0000
0100
0000
0010
0000
0001
0000
1000
0000
,
0100
0000
0010
1000
0010
0000
0110
0000
0000
1000
0000
0000
,
1002
0000
0000
0010
0003
0000
0100
0000
0002
0000
0000
1000
0003
0000
0010
0000
,
0020
0000
0000
0100
0030
0000
0001
0000
0002
0000
0000
0000
2000
0000
3003
0000
,
0010
0000
0010
0000
0100
1000
0100
0000
0001
0000
0001
0000
0001
0010
0100
0000
,
0010
1000
0100
0010
0001
0010
0100
0001
1000
0000
0100
0000
1100
0000
0101
0000
,
0100
0001
1000
0001
0100
0010
1000
0001
,
0010
0100
1000
0100
0010
0001
0100
0001
,
1000
0001
0100
0010
1000
0001
1000
0010
,
0100
0010
0001
0100
0010
1000
0001
0100
,
0001
0100
0010
0010
0100
0001
1000
1000
,
0001
0100
0010
0100
0010
1000
0001
0100
,
0010
0001
0010
0010
0100
1000
0001
0000
,
1010
0110
1100
0101
,
2002
0000
0000
0000
,
0000
3003
0000
0000
0000
0000
0000
0000
;

//---------------dance-single - ----------------
#NOTES:
     dance-single:
     :
     Challenge:
     16:
     0.786005,1.159662,0.448049,0.143376,0.380841,614.000000,564.000000,50.000000,16.000000,0.000000,0.000000,0.786005,1.159662,0.448049,0.143376,0.380841,614.000000,564.000000,50.000000,16.000000,0.000000,0.000000:
0000
0000
0000
0000
,
0000
0000
0000
0000
,
0000
0000
0000
0000
,
0100
0010
0100
1000
0100
0001
0010
0001
,
1000
0010
0100
0010
1010
0001
0100
0001
,
0011
0010
0100
0010
1000
0100
1000
0100
,
0100
0001
0010
0100
1100
0100
0001
0010
,
1001
0100
0010
0000
1000
0001
0010
0100
,
0011
0100
1000
0000
0010
1000
0010
0010
,
0101
0010
1000
0100
0110
0001
0010
0100
,
1000
0000
0100
0000
1000
0000
1000
0000
0010
0001
0010
0001
0010
0001
0010
0001
,
0010
1000
0100
0000
0100
0010
0001
0000
,
1000
1000
0001
0100
0000
0100
0010
0000
,
0001
1000
0010
0000
0100
1000
0001
0000
,
0100
0010
1000
0001
0000
0100
0010
0000
,
0001
0001
0010
0000
0100
0100
0010
0000
,
0001
0010
0001
0100
0000
0100
0010
0000
,
1000
1000
1100
0010
0010
0110
0001
0010
,
0101
0000
0010
0000
1010
0000
0000
0000
0100
0000
0001
1000
0001
1000
0001
0000
,
0100
0010
1000
0001
0100
0010
1000
0100
,
0001
0010
0001
0000
0100
0010
0100
0000
,
0001
0010
0100
1000
0001
0010
0100
1000
,
0010
1000
0100
0000
0001
1000
0010
0000
,
0100
0001
0100
1000
0100
0001
0100
1000
,
0010
1000
0011
0000
0100
0010
0101
0000
,
0001
0001
0001
0000
0100
1000
1000
0000
,
0100
0010
0100
0000
1000
0010
1000
0000
0100
0010
1000
0100
0001
0010
1000
0100
,
0002
0000
0000
0100
2003
0000
0010
0000
3100
0001
0000
0001
0200
0000
0010
0000
,
0301
0010
1000
0100
0002
0000
0010
0010
0003
0100
0100
1000
0100
0010
0100
0000
,
0010
1000
1010
0000
0100
1000
1100
0000
0100
0001
0101
0000
0010
0100
0110
0000
,
1000
0100
1000
0100
0010
0100
0010
0001
1100
0000
0110
0000
0011
0001
1001
0000
,
0100
0010
1000
0100
0010
0100
0001
0010
,
0001
0000
1000
0000
0100
0000
0010
0001
0010
0000
0001
0000
1000
0000
0100
0000
,
0100
1000
0100
0010
0010
1000
0010
0001
,
0100
0000
0010
0000
0001
0000
0010
0100
0010
0000
1000
0000
0001
0000
0000
0000
,
0010
1000
0010
0000
0100
0010
0000
0010
0001
0100
0001
0000
0010
0000
0000
0000
,
1000
0100
0001
0000
1000
0000
0001
0020
0002
0000
0000
0000
0033
0000
0000
0000
,
1010
0000
1100
0000
0110
0000
0011
0000
0101
0000
1001
0000
,
0101
0000
1010
0000
0110
0000
2001
0000
0000
3002
0000
0000
,
0013
0000
0100
1000
0000
0100
0010
0001
,
0010
0000
0100
0010
0000
1000
0100
0000
,
0001
0000
0100
0001
0000
0100
1000
0000
,
0010
0001
0100
0000
1100
0000
0110
0000
,
1000
0100
0010
0000
0100
1000
0010
0000
,
0001
0010
0100
0000
0001
1000
0100
0000
,
1000
0100
0001
0100
0010
0001
0100
0010
,
1000
0000
0100
0000
1000
0000
0100
0000
0001
0010
0001
0000
0100
0010
0100
0000
,
1000
0100
1000
0100
0010
0100
0010
0100
,
0001
0010
0001
0010
0100
0001
0100
0001
,
1000
0100
0001
0100
1000
0010
0001
0010
,
1000
0100
0010
0001
0010
0100
1000
0100
,
0010
0010
1000
0000
0100
0100
0001
0000
,
0010
1000
0100
0010
0001
1000
0001
0000
,
0100
1000
0010
0100
0010
1000
0001
0100
,
0020
2030
3200
2300
,
3001
0000
0100
0010
0100
0000
1000
0000
0001
0000
0100
0001
0100
0000
0001
0000
,
1000
0000
0010
1000
0010
0000
1000
0000
0001
0000
0100
0001
0100
0001
0100
0000
,
0010
0000
0001
0010
0100
0000
1000
0000
0100
0000
0010
1000
0100
0000
0001
0000
,
0010
0000
1000
0100
0010
0000
0100
0000
0001
0000
0100
0010
1000
0001
0010
0000
,
0100
0000
1000
0000
0010
0000
0001
0000
0100
0000
0010
0000
,
0001
0000
0010
0000
0100
0000
1000
0000
0010
0000
0100
0000
,
1100
0000
0110
0000
0011
0000
0101
0000
1001
0000
1010
0000
,
1100
0000
0010
0001
0010
0000
2010
0000
0000
3200
0000
0000
,
1300
0000
0000
0011
0000
0000
0010
0000
0001
0000
0000
1100
0000
0000
0010
0000
,
1000
0000
0000
1010
0000
0000
0010
0000
0100
0000
0000
0000
1001
0000
0000
0000
,
0010
0000
0100
0001
0010
0000
0100
1000
0001
1000
0100
0000
0001
0000
0010
0000
,
0100
0000
0100
0000
1000
0000
0001
0000
1000
0000
0000
0000
0100
0000
0001
0000
0010
0000
0000
0000
0001
1000
0001
1000
0001
1000
0001
1000
0001
0000
0000
0000
,
0100
0010
1000
0001
1000
0001
1000
0100
,
0010
0001
1000
0100
0001
0100
0010
0001
,
1000
0100
1000
0100
0001
0010
0001
0001
,
0100
0010
1000
0001
0100
0010
1000
0001
,
0100
0100
0010
0001
1000
0100
0010
0001
,
1000
0100
0010
1000
0010
0001
0100
0010
,
1000
0001
0100
0010
0100
0010
0001
0000
,
1100
0000
0110
0000
0101
0001
1010
0010
,
0022
0000
0000
0000
,
0000
0033
0000
0000
0000
0000
0000
0000
;

//---------------dance-single - ----------------
#NOTES:
     dance-single:
     :
     Medium:
     11:
     0.524857,0.784477,0.116493,0.421166,0.134415,410.000000,397.000000,13.000000,47.000000,0.000000,0.000000,0.524857,0.784477,0.116493,0.421166,0.134415,410.000000,397.000000,13.000000,47.000000,0.000000,0.000000:
0000
0000
0000
0000
,
0000
0000
0000
0000
,
0000
0000
0000
0000
,
0010
0000
1000
0000
1000
0100
0010
0000
,
0100
0000
1000
0001
0000
0010
1000
0000
,
0100
0000
0010
0000
0001
0010
1000
0000
,
0010
0000
0100
0010
0000
0100
1000
0000
,
0100
1000
0010
0000
0010
1000
0100
0000
,
0010
1000
0010
1000
0000
0010
0100
0000
,
1000
0010
1000
0000
0100
0010
0100
0000
,
0010
0100
0001
0000
0100
0000
0110
0000
,
2002
3000
0103
0010
,
1000
0000
1000
0100
0000
0100
0010
0000
,
0001
0000
0010
0000
1000
0010
0100
0000
,
0001
0000
0001
0010
0000
0010
1000
0000
,
0100
0000
0100
0000
0010
0001
0100
0000
,
0010
0000
0010
0000
1000
0001
0100
0000
,
0010
0001
0100
0000
1000
0001
1000
0000
,
0100
1000
0010
0100
0010
0000
0100
0000
,
0202
0000
0003
0000
0301
1000
0010
0000
,
1000
0100
1000
0000
0100
0000
0001
0000
,
0010
0000
0100
0000
0100
0010
1000
0000
,
0001
1000
0100
0001
1000
0000
0100
0000
,
0100
1000
0001
0000
0100
1000
0010
0000
,
0010
0100
0001
0000
1000
0000
0001
0000
,
1000
0010
1000
0010
0100
0000
0010
1000
,
0100
0001
0100
0000
1010
0000
1001
0000
,
0020
0000
2030
0000
3010
0100
0002
0000
,
0203
0000
0320
0000
1030
0100
2000
0000
,
3100
0100
1000
1000
0010
1000
0010
0001
,
0020
0000
2030
0000
3200
0302
2003
3200
,
0301
0000
1000
0000
0010
0000
0100
1000
,
0010
0000
0001
0000
1000
0000
0001
0100
,
1000
0000
0010
1000
0100
0000
1000
0010
,
0100
0001
0100
0000
0001
0000
0100
0000
,
0001
0100
1000
0000
1000
0010
0001
0000
,
1000
0010
0100
1000
0200
0000
0300
0000
,
0010
0000
0100
0000
1000
0000
0100
0000
0010
0000
0001
0000
,
1000
0000
0100
0000
1000
0000
2002
0000
0000
3003
0000
0000
,
0001
0000
0100
1000
0000
1000
0010
0000
,
0100
0000
1000
0010
0000
0010
1000
0000
,
0001
0000
0100
1000
0000
1000
0001
0000
,
0020
0130
2000
3100
,
0010
0000
0100
0000
0001
0000
0100
0010
,
1000
0000
0100
0000
1000
0000
1000
0010
,
0100
1000
0100
0000
0100
0010
0100
0000
,
0001
0010
0001
1000
0001
0000
0110
0000
,
0020
0032
0203
0302
,
0023
0000
0230
0000
0320
0000
1030
0001
,
2000
0000
3002
0000
2003
0000
3010
0100
,
0020
0000
0031
2000
0002
0000
3003
0000
,
0100
0000
0010
0000
0001
0010
0001
0000
,
0100
0000
0100
0000
0010
1000
0100
0000
,
1000
0001
0100
0000
0100
0010
1000
0000
,
0100
0001
0100
0010
1000
0000
0001
0000
,
0200
0000
1300
0010
0200
0000
0301
0010
,
1000
0001
0200
0000
0320
0000
1030
1000
,
2000
0000
3001
0010
2000
0000
3010
0001
,
0100
0010
0200
0000
0320
0000
1030
0000
,
0001
0000
0100
0000
1000
0000
0010
0000
1000
0000
0100
0000
,
0010
0000
0010
0000
1000
0000
1000
0000
0001
0000
0010
0000
,
0001
0000
1000
0000
0010
0000
1000
0000
0100
0000
1000
0000
,
0010
0000
0100
0000
1000
0000
0100
0000
0000
0001
0000
0000
,
0010
0000
0000
1000
0000
0000
0100
0000
0010
0000
0000
0001
0000
0000
1000
0000
,
0010
0000
0000
1000
0000
0000
0100
0000
0100
0000
0000
0000
1001
0000
0000
0000
,
0010
0000
0010
0100
0000
0100
1000
0000
0001
0000
0001
1000
0000
1000
0010
0000
,
0010
0000
0010
0000
1000
0001
1000
0000
0001
0100
1000
0100
0010
0000
0110
0000
,
0100
0000
0010
1000
0100
0000
0100
0010
,
1000
0010
1000
0000
0101
0000
1100
0000
,
0001
0000
1000
0100
0010
0000
0100
0010
,
1000
0100
0010
0000
0110
0000
1001
0000
,
0100
0010
0100
0000
0001
1000
0001
0000
,
1000
0100
0001
1000
0100
0000
0100
0000
,
0010
1000
0001
0100
1000
0001
1000
0000
,
0020
2030
3002
0023
,
0200
0000
0000
0000
,
0000
0330
0000
0000
0000
0000
0000
0000
;

//---------------dance-single - ----------------
#NOTES:
     dance-single:
     :
     Easy:
     6:
     0.317475,0.470451,0.089610,0.268829,0.000000,248.000000,238.000000,10.000000,30.000000,0.000000,0.000000,0.317475,0.470451,0.089610,0.268829,0.000000,248.000000,238.000000,10.000000,30.000000,0.000000,0.000000:
0000
0000
0000
0000
,
0000
0000
0000
0000
,
0000
0000
0000
0000
,
0010
0000
0100
0000
,
0010
0100
0001
0000
,
1000
0000
0001
0000
,
0010
1000
0100
0000
,
1000
1000
0100
0000
,
0001
0001
0010
0000
,
1000
0001
1000
0001
,
0010
0100
0010
0000
,
1001
0000
0100
1000
,
0100
0000
0010
0100
,
0001
0000
0010
0001
,
0010
0100
1000
0000
,
0001
0001
0010
0000
,
0100
0100
0010
0000
,
1000
1000
0100
1000
,
0010
0001
0100
0000
,
0110
0000
0001
0010
,
0001
0000
1000
0100
,
1000
0000
0010
1000
,
0100
1000
0001
0000
,
0010
0010
0100
1000
,
0001
0001
0010
0100
,
1000
0000
0001
0000
,
0010
0100
0010
0000
,
1000
0000
1001
0000
1000
0100
1000
0000
,
0010
0000
0110
0000
0010
0001
0010
0000
,
1000
0010
0100
0000
0001
1000
0010
0000
,
0010
0100
1000
0100
0001
0000
1001
0000
,
0200
0000
0310
0010
,
0002
0000
1003
1000
,
0020
0000
0130
0100
,
0200
0000
1300
0000
,
0010
0010
1000
1000
,
0100
0010
0001
0000
,
1000
0001
1000
0001
,
1000
0000
1001
0000
,
0020
0030
1000
0100
,
0020
0030
0001
0010
,
0200
0300
0001
0001
,
2000
3000
0200
0300
,
1000
0100
2000
3000
,
0010
1000
0020
0030
,
0001
0010
0100
0010
,
0200
0300
0220
0330
,
0001
0000
0100
0010
,
1000
0000
0001
0010
,
0001
0010
0100
0000
,
0010
0000
1001
0000
,
0100
0010
0100
0000
,
0001
1000
0001
0000
,
1000
1000
0100
0010
,
0001
1000
0001
0000
,
0020
0000
0130
1000
,
0002
0000
0013
0100
,
2000
0000
3100
0001
,
0020
0100
0130
0000
,
2000
3000
0002
0003
,
0020
0030
0200
0300
,
1000
0100
0010
0100
,
0001
0010
1000
0000
,
1001
0000
0010
0010
0100
0000
1000
1000
,
0100
0001
0010
0000
0100
0000
1000
0000
,
0100
0001
1000
0000
0010
0100
1000
0000
,
0010
0100
0001
0010
1000
0100
0001
0000
,
0200
1000
1300
0000
,
0002
0010
0013
0000
,
0020
1000
1030
0000
,
2000
0001
3001
0000
,
0010
0100
1000
1000
,
0010
0001
0100
0100
,
2000
3000
0002
0003
,
0020
0030
0200
0300
,
1001
0000
0000
0000
;

//---------------dance-single - ----------------
#NOTES:
     dance-single:
     :
     Beginner:
     4:
     0.174099,0.302433,0.071688,0.134415,0.000000,136.000000,128.000000,8.000000,15.000000,0.000000,0.000000,0.174099,0.302433,0.071688,0.134415,0.000000,136.000000,128.000000,8.000000,15.000000,0.000000,0.000000:
// measure 0
0000
0000
0000
0000
,  // measure 1
0000
0000
0000
0000
,  // measure 2
0000
0000
0000
0000
,  // measure 3
0001
0000
0000
0000
,  // measure 4
0000
0000
1000
0000
,  // measure 5
0100
0000
0000
0000
,  // measure 6
0000
0000
0010
0000
,  // measure 7
1000
0000
0000
0000
,  // measure 8
0100
0000
0000
0000
,  // measure 9
0001
0000
0000
0000
,  // measure 10
1001
0000
0000
0000
,  // measure 11
0020
0000
0030
0000
,  // measure 12
0100
0000
0000
0000
,  // measure 13
1000
0000
0010
0000
,  // measure 14
1000
0000
0000
0000
,  // measure 15
0001
0000
0000
0000
,  // measure 16
0100
0000
0000
0000
,  // measure 17
0001
0000
0010
0000
,  // measure 18
0001
0000
0000
0000
,  // measure 19
0200
0000
0300
0000
,  // measure 20
0001
0000
1000
0000
,  // measure 21
0002
0000
0003
0000
,  // measure 22
0010
0000
0100
0000
,  // measure 23
0020
0000
0030
0000
,  // measure 24
1000
0000
0100
0000
,  // measure 25
2000
0000
3000
0000
,  // measure 26
0200
0000
0300
0000
,  // measure 27
0010
0000
0100
0000
,  // measure 28
0010
0010
0010
0000
,  // measure 29
0001
0001
1000
1000
,  // measure 30
0010
0100
0010
0100
,  // measure 31
1000
1000
1000
0000
,  // measure 32
0100
0100
0100
0000
,  // measure 33
0001
0001
0001
0000
,  // measure 34
0010
0010
0010
0000
,  // measure 35
1000
0000
0001
0000
,  // measure 36
1000
0000
1000
0000
,  // measure 37
0220
0000
0000
0000
,  // measure 38
0000
0000
0330
0000
,  // measure 39
0001
0000
0001
0000
,  // measure 40
0100
0000
0100
0000
,  // measure 41
1000
0000
1000
0000
,  // measure 42
0010
0000
0010
0000
,  // measure 43
0001
0000
1000
0000
,  // measure 44
0001
0000
1000
0000
,  // measure 45
0100
0000
0100
0000
,  // measure 46
1000
0000
1001
0000
,  // measure 47
0020
0000
0030
0000
,  // measure 48
0100
0000
0100
0000
,  // measure 49
0001
0000
0100
0000
,  // measure 50
1000
0000
0100
0000
,  // measure 51
1000
1000
1000
0000
,  // measure 52
0001
0001
0001
0000
,  // measure 53
0010
0000
0100
0000
,  // measure 54
0010
0000
0110
0000
,  // measure 55
2000
0000
3000
0000
,  // measure 56
0001
0000
0001
0000
,  // measure 57
0020
0000
0030
0000
,  // measure 58
0100
0000
0100
0000
,  // measure 59
2002
0000
0000
0000
,  // measure 60
0000
0000
3003
0000
,  // measure 61
0220
0000
0000
0000
,  // measure 62
0000
0000
0330
0000
,  // measure 63
0010
0000
0010
0000
,  // measure 64
1000
0000
0001
0001
,  // measure 65
0001
0000
0100
0000
,  // measure 66
0010
0000
1001
0000
,  // measure 67
0100
0000
1000
0000
,  // measure 68
0100
0000
0100
0000
,  // measure 69
0010
0000
0100
0000
,  // measure 70
0010
0000
0010
0000
,  // measure 71
0001
0001
0001
0000
,  // measure 72
1000
1000
1000
0000
,  // measure 73
0010
0000
0100
0000
,  // measure 74
0010
0000
0010
0000
,  // measure 75
1001
0000
0000
0000
;
