#VERSION:0.83;
#TITLE:La dolce primavera;
#SUBTITLE:;
#ARTIST:OSTER project;
#TITLETRANSLIT:;
#SUBTITLETRANSLIT:;
#ARTISTTRANSLIT:;
#GENRE:;
#ORIGIN:;
#CREDIT:;
#BANNER:La dolce primavera.png;
#BACKGROUND:La dolce primavera-bg.png;
#PREVIEWVID:;
#JACKET:;
#CDIMAGE:;
#DISCIMAGE:;
#LYRICSPATH:;
#CDTITLE:;
#MUSIC:La dolce primavera.mp3;
#OFFSET:-0.513083;
#SAMPLESTART:13.513000;
#SAMPLELENGTH:13.090909;
#SELECTABLE:YES;
#BPMS:0.000=73.333,
8.000=220.000,
224.000=73.333,
228.000=146.667,
236.000=220.000,
290.000=73.333,
298.000=220.000;
#STOPS:;
#DELAYS:;
#WARPS:;
#TIMESIGNATURES:0.000=4=4;
#TICKCOUNTS:0.000=4;
#COMBOS:0.000=1;
#SPEEDS:0.000=1.000=0.000=0;
#SCROLLS:0.000=1.000;
#FAKES:;
#LABELS:0.000=Song Start;
#BGCHANGES:;
#KEYSOUNDS:;
#ATTACKS:
;

//---------------dance-single - ----------------
#NOTEDATA:;
#CHARTNAME:;
#STEPSTYPE:dance-single;
#DESCRIPTION:;
#CHARTSTYLE:;
#DIFFICULTY:Hard;
#METER:13;
#RADARVALUES:0.611777,1.277188,0.570389,0.543227,0.574916,473.000000,410.000000,63.000000,60.000000,0.000000,0.000000,0.000000,0.000000,0.000000,0.611777,1.277188,0.570389,0.543227,0.574916,473.000000,410.000000,63.000000,60.000000,0.000000,0.000000,0.000000,0.000000,0.000000;
#CREDIT:;
#NOTES:
0000
0000
0000
0000
,
0000
0000
0000
0000
,
0002
0010
0010
0103
,
1000
0010
2000
0100
,
0001
0000
0000
3010
0000
0100
0000
0000
0010
0000
0000
1000
,
0020
0000
0000
0130
,
0010
0001
2000
0000
,
0000
0000
0000
3010
0000
0001
0000
0000
0101
0000
0000
0010
,
0200
0001
0310
1000
,
0100
0000
0000
0000
0000
0000
0000
0000
0000
0000
0000
0000
0010
0000
0000
0000
0000
0000
0100
0000
0000
1000
0000
0000
0100
0000
0000
0000
0000
0000
0000
0000
0000
0000
0000
0000
0000
0000
0000
0000
0000
0000
0000
0000
0101
0000
0000
0000
,
0000
0000
0000
0010
0000
0001
0000
0000
0010
0100
0000
0000
,
2000
3020
0032
0203
,
0320
0000
0000
2030
0000
0000
3001
0000
0010
0001
0000
0100
,
0001
0000
0010
1000
0000
0100
0001
0000
0100
1000
0000
0000
,
0010
0100
0101
1000
,
0010
0110
0001
1000
,
1100
0000
0000
0001
0000
0010
0000
0000
0110
0000
0000
0000
,
2000
0100
3001
0200
,
0010
0000
0000
1300
0000
0000
0010
0000
1000
0010
0000
1000
,
0100
0000
1000
0001
0000
0000
0000
0000
0011
0000
0000
0000
,
2000
0002
3000
0003
,
0010
0100
0010
0001
0020
0000
0000
0000
,
0000
0000
0000
0000
0030
0000
0000
0000
1000
0000
0000
0000
0100
0000
0001
0100
,
0001
0000
0000
0000
0000
0110
0000
0000
0000
1000
0000
0001
,
0000
0000
1000
0100
0000
1000
0020
0000
0000
0000
0000
0100
,
0000
0230
2300
3002
,
0013
0000
0000
0000
0000
1000
0000
0000
1000
0001
0000
0000
,
0100
0000
0000
0010
0000
0000
0100
0000
0000
0000
0000
1001
,
0000
0000
1000
0010
2000
0000
0000
0000
3000
0000
0000
0000
0100
0000
0000
0000
,
0100
0010
0001
0100
,
1000
0001
0020
0001
,
1000
0000
0000
0030
0000
0000
0100
0000
0000
0000
1000
0000
0100
0000
0000
0000
0010
0000
0001
0000
0000
0000
0000
0000
,
0210
0001
0002
0303
,
0010
0000
0000
0100
0000
0000
1000
0000
0000
0100
0000
0010
,
0100
0000
0000
0001
0000
1000
0000
0000
0010
1000
0000
0000
,
2000
0000
0000
0000
0010
0000
0000
0000
3010
0000
0001
0010
0001
0000
0000
1000
,
0000
0000
0000
0000
0000
0000
0001
0000
0000
0000
0000
0000
0000
0000
0000
0100
0000
0000
0000
0000
0000
0000
0000
0000
0010
0000
0000
0000
0000
0000
0000
0000
0000
0000
0000
0000
0000
0000
0000
0000
0000
0000
0000
0000
0011
0000
0000
0000
,
0000
1002
0200
0303
,
2000
0010
3010
0100
,
1000
0001
1000
0010
,
0100
0000
0000
0011
0000
0000
0000
0000
0101
0000
0000
0000
,
0010
0000
0000
0100
1000
0100
1000
0000
0000
0101
0000
0000
,
0000
0000
0011
0000
0000
0000
0100
0000
0000
0120
0000
0000
,
0001
1000
0001
0031
,
1100
1100
2200
3300
,
0010
0000
0001
0010
0000
0001
0110
0000
0000
0110
0000
0000
,
0220
0330
0001
1000
,
0010
0000
0000
0000
0000
1000
0000
0000
0001
1000
0000
0000
,
0100
0010
0100
0001
,
0010
1000
0001
0001
,
0101
0000
0000
0101
0000
0000
0102
0000
0000
0013
0000
1000
,
0000
0000
0100
0000
0000
1000
1001
0000
0000
1001
0000
0000
,
2001
3010
0100
0001
,
0020
0000
0000
0031
0000
1000
0100
0000
0000
0200
0000
0000
,
0301
0000
0010
0100
0000
0000
2000
0000
0000
0000
0000
0002
,
3000
0000
0010
1003
0000
0000
1100
0000
0000
0110
0000
0000
,
1002
0000
0000
0000
0000
0000
0000
0000
0000
0000
0000
0000
0013
0000
0000
0000
0100
0000
0000
0000
1000
0000
0000
0100
2000
0000
0000
0000
0000
0000
0000
0000
3010
0000
0000
0001
0010
0000
0000
0000
0100
0000
0000
0000
0001
0000
0000
0000
,
0010
0000
0000
0000
0000
0000
0000
0001
0000
0000
0000
0000
0201
0000
0000
0000
0010
0000
0000
0000
0010
0000
0000
0000
,
1300
0000
0001
0000
1000
0000
0011
0000
0101
0000
1010
0000
,
0100
0000
0001
0100
0000
0010
0001
0000
1000
0010
0000
0100
,
0000
0000
1100
0000
0000
1000
0001
0000
0010
0001
0000
0100
,
0001
0000
0010
2000
0000
0000
0200
3000
0000
0310
0001
0010
,
0001
1000
1010
0100
,
0001
0000
0000
0011
0000
0000
1000
0000
0001
1000
0000
0001
,
1000
0000
0010
0001
0000
0000
0110
0000
0000
1010
0000
0000
,
0100
0000
0001
0010
0000
0001
0100
0000
0010
1000
0000
0001
,
0000
0000
0011
0000
0000
0010
1000
0000
0100
0001
0000
0010
,
0100
0000
0010
0002
0000
0000
0020
0000
0000
0033
0000
0000
,
2000
0100
3100
0200
,
0010
0310
0002
2003
,
3020
0000
0000
0130
0000
0001
0100
0000
0110
0000
0000
1000
,
0010
0100
0100
0011
,
2020
0000
0000
3030
0000
0000
1000
0100
0001
0010
0001
0010
,
0100
0000
0000
0000
1000
0000
0000
0000
0001
0000
0000
0000
0100
0000
0000
0000
0101
0000
0000
0000
0000
0000
0010
0100
0010
0000
0000
0000
0001
0000
0000
0000
0011
0000
0000
0000
0100
0000
0000
0000
0010
0000
0000
0000
0110
0000
0000
0000
,
1000
0000
1100
0000
1100
0000
0101
0000
0000
1001
0000
0000
0010
0000
0000
0000
1000
0000
0010
0000
0000
0000
0100
0000
,
0001
0000
0010
0001
0000
1000
0000
0000
0101
0000
0000
0010
,
0100
0000
1000
0001
0000
0010
1000
0000
0100
0020
0000
0000
,
0200
0030
0000
0301
1000
0001
1000
0000
0000
0010
0000
0000
,
1000
0100
0010
0100
,
0001
0000
0000
0010
0000
0000
0010
0000
0000
1000
0000
0100
,
1000
0000
0011
0000
0000
0010
0001
0000
0000
0100
0000
0000
,
0101
1000
0100
1100
,
0011
0000
0000
0011
0000
0000
1001
0000
0000
0010
0000
0100
,
0010
0000
0001
1000
0000
0100
2002
0000
0000
3000
0000
0000
,
0010
0100
0100
1003
,
0020
0100
0001
0031
,
1100
0011
0220
0000
,
0000
0000
0000
0000
,
0000
0000
0330
0000
0000
0000
0000
0000
0000
0000
0000
0000
;

//---------------dance-single - ----------------
#NOTEDATA:;
#CHARTNAME:;
#STEPSTYPE:dance-single;
#DESCRIPTION:;
#CHARTSTYLE:;
#DIFFICULTY:Medium;
#METER:11;
#RADARVALUES:0.481144,0.878067,0.172022,0.552281,0.253506,372.000000,353.000000,19.000000,61.000000,0.000000,0.000000,0.000000,0.000000,0.000000,0.481144,0.878067,0.172022,0.552281,0.253506,372.000000,353.000000,19.000000,61.000000,0.000000,0.000000,0.000000,0.000000,0.000000;
#CREDIT:;
#NOTES:
0000
0000
0000
0000
,
0000
0000
0000
0000
,
0020
0030
0100
0200
,
0300
0001
0002
0003
,
0010
0010
1000
0100
,
2000
0000
3000
0010
,
0001
0001
0200
0000
,
0300
0100
0001
0010
,
0220
0000
0330
1000
,
0001
0000
0000
0100
0000
0000
0010
0000
0000
0010
0000
1000
,
0000
0000
1000
0100
0000
0000
0001
0000
0000
1000
0000
0000
,
2000
3000
0001
0002
,
0003
0100
0200
0300
,
0010
0020
1000
0130
,
0001
0000
0000
0100
0000
0001
0000
0000
0100
0001
0000
0000
,
1000
0000
0000
0001
0000
0000
0010
0000
0000
1000
0010
0000
,
0000
0000
1000
0010
0000
0000
0100
0000
0000
1000
0000
0000
,
2200
3300
0100
0202
,
0303
1000
1001
0100
,
0001
0000
0000
0200
0000
0000
0000
0000
0020
0300
0000
0000
,
1030
0000
0001
0001
,
0100
1000
0011
0000
,
0100
0100
1000
0100
,
0002
0000
0013
0200
,
0000
1300
0020
0100
,
0001
0031
1000
0100
,
0010
0000
0000
0001
0000
0010
0000
0000
0010
1000
0000
0000
,
0010
0000
0000
0100
0000
0000
0100
0000
0000
0010
0000
1000
,
0000
0000
1000
0001
0000
0000
0100
0000
0000
0100
0000
0000
,
0002
0100
0013
0200
,
1000
0301
0020
1000
,
0100
0130
0001
1001
,
0200
0300
0010
0010
,
0001
0000
0000
0100
0000
0000
1000
0000
0000
0100
0000
0010
,
0100
0000
0000
0010
0000
0000
1000
0000
0001
1000
0000
0000
,
0200
0001
0301
0100
,
1000
0000
0000
0100
0000
0000
0002
0000
0000
0000
0000
2003
,
0000
3020
0100
0130
,
1000
0001
1000
0010
,
1000
0010
0100
0001
,
0010
0000
0000
1000
0000
0000
0001
0000
1000
0001
0000
0000
,
0200
0010
0310
2000
,
0100
3100
0002
0010
,
1000
0000
0000
1003
0000
0000
0010
0000
1000
0010
0000
0000
,
0100
0001
0202
0303
,
0010
0010
1000
0100
,
2200
3300
0010
0010
,
0100
0000
0000
0010
0000
0001
0010
0000
0000
1000
0000
0000
,
0001
0000
0100
0001
0000
0000
1000
0000
0000
0001
0000
0000
,
0010
0000
0000
0001
0000
0000
0100
0000
0010
0100
0000
0000
,
1000
0010
1020
0100
,
0100
0031
0010
0001
,
0012
0100
0010
1003
,
0010
0000
0000
0100
0000
0000
0100
0000
0001
1000
0000
0000
,
0010
0000
0000
0010
0000
1000
0100
0000
0000
0010
0000
0000
,
0001
0010
0100
1001
,
2000
0000
0000
3100
0010
0100
0002
1000
0100
1003
0010
0010
,
1000
0000
0000
0000
0000
0000
0000
1100
0000
0000
0000
0000
0200
0000
0000
0000
0000
0000
0000
0000
1000
0000
0000
0000
,
0320
0000
0001
0000
0001
0000
0130
0000
1000
0000
0101
0000
,
1000
0000
0000
0100
0000
0000
1000
0000
0001
0010
0000
0000
,
1000
0000
0000
0010
0000
1000
0100
0000
0000
0001
0000
0000
,
0010
1000
1010
0000
,
2000
0001
3010
0200
,
0001
1300
0020
0100
,
0001
0031
1000
1001
,
0010
0000
0000
0100
0000
0000
0010
0000
0100
0001
0000
0000
,
0010
0000
0000
0001
0000
0010
1000
0000
0000
0010
0000
0000
,
0100
0010
0110
0000
,
2000
0000
3001
0002
,
0000
0103
0200
0000
,
0310
0020
1000
1030
,
0100
0000
0000
0001
0000
0100
0001
0000
0000
2000
0000
0000
,
0200
0000
0000
3300
0000
0000
0010
0000
0100
0100
0000
0001
,
0001
0000
1000
1000
0110
0000
0010
0100
0010
1000
0100
1000
,
0001
0000
0010
0000
0010
0000
1000
0000
0000
1001
0000
0000
0002
0000
0000
0000
0000
0000
1000
0000
0000
0000
0000
0000
,
0013
0200
0010
0301
,
2000
0010
0001
3010
,
2020
0000
0000
3030
0000
0000
0100
0000
0000
0010
0000
0001
,
0010
0000
0000
1000
0000
0000
0001
0000
0100
0001
0000
0000
,
0100
0000
0000
0010
0000
1000
0010
0000
0000
0001
0000
0100
,
0010
0000
0100
0001
0000
0000
0200
0000
0000
0001
0000
0000
,
0301
0020
0100
0130
,
1000
0000
0000
0100
0000
0000
0001
0000
0000
0100
0000
1000
,
0100
0000
0010
0001
0000
0001
0200
0000
0000
0300
0000
0000
,
1000
2000
3000
0001
,
0002
0100
1000
1003
,
0010
0100
0020
0000
,
0000
0000
0000
0000
,
0000
0000
0030
0000
0000
0000
0000
0000
0000
0000
0000
0000
;

//---------------dance-single - ----------------
#NOTEDATA:;
#CHARTNAME:;
#STEPSTYPE:dance-single;
#DESCRIPTION:;
#CHARTSTYLE:;
#DIFFICULTY:Easy;
#METER:6;
#RADARVALUES:0.351804,0.548207,0.099592,0.443636,0.040742,272.000000,261.000000,11.000000,49.000000,0.000000,0.000000,0.000000,0.000000,0.000000,0.351804,0.548207,0.099592,0.443636,0.040742,272.000000,261.000000,11.000000,49.000000,0.000000,0.000000,0.000000,0.000000,0.000000;
#CREDIT:;
#NOTES:
// measure 0
0000
0000
0000
0000
,  // measure 1
0000
0000
0000
0000
,  // measure 2
2000
0000
3000
0002
,  // measure 3
0000
0003
0200
0000
,  // measure 4
0300
0010
0001
0001
,  // measure 5
0020
0000
0030
1000
,  // measure 6
0001
1000
2000
0000
,  // measure 7
3000
0220
0000
0330
,  // measure 8
0010
0000
1000
1000
,  // measure 9
0001
1000
0001
0000
,  // measure 10
0001
0010
0000
0010
,  // measure 11
0100
0001
0010
0001
,  // measure 12
0000
1000
0100
0000
,  // measure 13
0010
0020
0000
0030
,  // measure 14
0100
0001
0100
0010
,  // measure 15
1000
0010
0001
0010
,  // measure 16
1000
1000
0000
0010
,  // measure 17
1000
0100
0010
0200
,  // measure 18
0300
1000
0001
0010
,  // measure 19
0001
2000
0000
3000
,  // measure 20
1001
0000
0100
0001
,  // measure 21
0000
0001
0010
0001
,  // measure 22
0100
0100
0000
1000
,  // measure 23
0100
0010
0100
0000
,  // measure 24
0001
0010
0001
0000
,  // measure 25
1000
0001
0001
0000
,  // measure 26
0010
0100
1000
2000
,  // measure 27
3000
0100
0020
0030
,  // measure 28
0010
0002
0000
0003
,  // measure 29
1000
0010
1000
0010
,  // measure 30
0100
0010
0100
0001
,  // measure 31
0010
0200
0000
0300
,  // measure 32
0110
0000
0001
1000
,  // measure 33
0000
0010
1000
0000
,  // measure 34
0100
0001
0010
1000
,  // measure 35
1000
0000
0010
1000
,  // measure 36
0000
0100
0002
0003
,  // measure 37
2000
3000
0022
0033
,  // measure 38
0100
0010
0100
1000
,  // measure 39
0000
0001
0001
0000
,  // measure 40
0010
0001
0000
0100
,  // measure 41
0100
0010
1000
0100
,  // measure 42
0000
0010
0100
0000
,  // measure 43
0001
0002
0000
0003
,  // measure 44
1000
1000
2000
3000
,  // measure 45
0100
0001
0010
0010
,  // measure 46
0020
0030
1000
0100
,  // measure 47
0200
0300
0001
0002
,  // measure 48
0003
0010
0020
0030
,  // measure 49
1000
0010
0100
0100
,  // measure 50
1000
0001
2000
3000
,  // measure 51
0100
0010
0001
0010
,  // measure 52
0002
0003
0010
0100
,  // measure 53
0100
0000
0000
0000
0000
0001
0000
0000
0000
0100
0000
0000
,  // measure 54
0010
0000
0000
1000
0000
0000
0010
0000
0000
0000
0000
0100
,  // measure 55
0000
0010
0001
0001
,  // measure 56
0020
0000
0000
1000
0000
0000
0100
0000
0000
0100
0000
0030
,  // measure 57
0001
0000
0000
0000
1000
0000
0000
0000
1001
0000
0000
0000
,  // measure 58
0010
0000
0000
0000
0010
0000
1000
0000
0000
0000
1000
0000
,  // measure 59
0100
1000
0010
1000
,  // measure 60
0000
0001
0010
0000
,  // measure 61
0010
0100
0010
0100
,  // measure 62
0002
0003
0010
0020
,  // measure 63
0030
1000
2000
3000
,  // measure 64
0100
0200
0001
0301
,  // measure 65
0010
1000
0010
0001
,  // measure 66
0100
0010
0100
0001
,  // measure 67
1000
2020
0000
3030
,  // measure 68
0001
1000
0010
1000
,  // measure 69
0100
0001
0010
0000
,  // measure 70
0010
0100
0000
0100
,  // measure 71
0001
1000
0100
0202
,  // measure 72
0000
0303
1000
0100
,  // measure 73
0010
0000
0000
1001
0000
0000
0001
0000
0001
1000
0000
1000
,  // measure 74
0010
0000
0100
0220
0000
0330
1000
0000
0000
0001
0000
0000
,  // measure 75
1000
0010
0100
0010
,  // measure 76
1000
0010
0100
0020
,  // measure 77
0002
0033
1000
0001
,  // measure 78
0001
1000
0100
0100
,  // measure 79
0010
0100
0001
0100
,  // measure 80
0010
0010
2000
3000
,  // measure 81
0001
0002
0003
0010
,  // measure 82
0020
0030
0100
0200
,  // measure 83
0010
0310
0202
0000
,  // measure 84
0300
2000
0000
3000
,  // measure 85
2003
0000
3010
0020
,  // measure 86
0200
0330
1001
0000
;
