#TITLE:LEMON & SALT;
#SUBTITLE:;
#ARTIST:Hideyuki Ono x 96 x Yoshihiko Koezuka;
#TITLETRANSLIT:;
#SUBTITLETRANSLIT:;
#ARTISTTRANSLIT:;
#GENRE:;
#CREDIT:;
#BANNER:LEMON & SALT.png;
#BACKGROUND:LEMON & SALT-bg.png;
#LYRICSPATH:;
#CDTITLE:;
#MUSIC:LEMON & SALT.ogg;
#OFFSET:-0.266992;
#SAMPLESTART:37.674000;
#SAMPLELENGTH:14.025974;
#SELECTABLE:YES;
#BPMS:0.000000=154.000000
,204.000000=158.500000
,232.000000=160.000000
,236.000000=161.000000
,240.000000=162.000000
,244.000000=165.000000
;
#STOPS:133.750000=0.779000,
203.750000=0.779000,
243.750000=0.741000,
245.750000=0.741000
;
#BGCHANGES:0.000=LEMON & SALT.avi=1.000=0=0=0=StretchNoLoop====,
99999=-nosongbg-=1.000=0=0=0 // don't automatically add -songbackground-
;
#KEYSOUNDS:;
#ATTACKS:;

//---------------dance-single - ----------------
#NOTES:
     dance-single:
     :
     Hard:
     13:
     0.541493,0.791712,0.373302,0.335015,0.114862,396.000000,357.000000,39.000000,35.000000,0.000000,0.000000,0.541493,0.791712,0.373302,0.335015,0.114862,396.000000,357.000000,39.000000,35.000000,0.000000,0.000000:
0000
0000
0000
0000
,
0000
0000
0000
0000
,
0000
0000
0000
0000
,
0000
0000
0000
0000
,
0020
0000
0000
2000
0000
0000
0000
0000
0030
0000
0000
0000
0001
0000
0000
3200
,
0000
0000
0010
0000
0301
0022
0000
0033
,
0000
0101
0000
1001
0000
1100
0000
1010
,
0000
0220
0000
0000
0000
0000
0330
0000
,
1000
0000
0000
0000
0010
0000
0000
0011
0000
0000
0100
0000
0010
0000
0100
0000
,
0001
0000
0000
1000
0000
0000
0110
0000
0000
0000
1000
0000
0100
0000
0001
0000
,
0100
0000
0000
0000
1000
0000
0000
1010
0000
0000
0001
0000
1000
0000
0010
0000
,
1000
0000
0000
0100
0000
0000
0011
0000
0000
0000
0010
0000
0100
0000
0010
0000
,
0001
0000
0000
0000
0100
0000
0000
1100
0000
0000
1000
0000
0100
0000
0001
0000
,
0100
0000
0000
0010
0000
0000
1010
0000
0000
0000
0001
0000
0100
0000
0010
0000
,
0100
0000
0000
0000
0001
0000
0000
0011
0000
0000
0100
0000
1000
0000
0100
0000
,
0010
0100
0010
0001
0000
0010
0110
2000
,
0000
0000
0010
0000
0001
0000
3100
0100
,
0010
0000
0000
0001
0000
0000
0100
0000
0010
0000
0000
0100
0000
0000
1000
0000
,
0002
0000
0100
0000
1000
0000
0013
0100
,
0100
0010
0010
0001
0001
1000
0010
1000
,
0200
0000
0010
0000
0001
0000
0301
0010
,
1000
0000
0000
0100
0000
0000
0001
0000
1000
0000
0000
0010
0000
0000
0100
0000
,
0002
0000
1003
0200
0000
0010
0301
0010
,
1000
0100
0001
0100
1000
0010
0001
0100
,
0020
0000
0000
0000
0130
1000
0100
0001
,
2000
0000
0000
0000
3100
0001
0010
0001
,
0200
0000
0000
0000
0301
1000
0010
1000
,
0100
0100
0001
0001
0010
1000
0010
0100
,
0220
0000
0030
0000
1300
0001
0010
0001
,
0202
0000
0300
0000
0013
1000
0100
0010
,
2020
0000
3000
0000
1030
0100
0001
0100
,
0110
0010
1010
1000
1001
0100
0101
0001
,
0022
0003
1000
1030
,
0100
0000
1000
0000
0100
0000
0001
0010
2100
0000
0000
0000
3001
0000
0000
0000
,
0010
0001
0010
0000
0100
0010
0100
0001
,
0000
0100
0000
0010
0010
0000
1000
0100
,
1000
0001
0000
0100
0010
0000
1000
0001
,
1000
0100
0100
0000
0001
0001
0100
0100
,
1000
0010
0001
0010
0010
0100
0001
0100
,
1000
0000
0010
0000
0001
0000
0000
0000
1000
0000
0000
0001
0000
0000
1000
0000
,
0010
0000
0000
1000
0000
0000
0010
0000
0100
0000
1000
0000
0001
0000
1000
0000
,
0010
0001
0200
0000
0301
0000
0021
0000
,
0130
2100
3001
0201
,
0310
0000
0110
0000
1000
0001
0100
0000
,
0100
0010
1000
0000
0010
0001
0100
0010
,
1000
0001
1000
0010
2000
0000
3100
0010
,
0001
0100
0010
1000
0200
0000
1300
0001
,
0010
0100
0001
0001
1000
0001
1000
0010
,
0100
1000
0100
0001
1010
0000
0110
0000
,
1001
0011
2001
0010
,
0010
0000
0000
0000
3100
0000
0000
0000
0010
0001
0010
0000
0100
1000
0100
0001
,
0011
0000
0000
0010
0000
0000
1010
0000
1000
0000
0100
0000
0001
0000
0100
0000
,
0010
0001
0010
0010
0010
0100
1000
0001
,
0100
1000
0100
1000
0010
1000
0010
1000
,
0001
0100
0010
0100
1000
0001
0010
0100
,
2000
0000
0001
0000
3001
0100
0010
0100
,
0020
0000
0100
0000
0130
1000
0001
0010
,
1000
0001
1000
0010
0100
1000
0100
0001
,
0010
0010
1000
1000
0100
0100
0001
0001
,
0010
0100
1000
0100
0001
0010
0100
0010
,
0011
0010
0110
1000
1100
0010
1001
0001
,
1000
0100
0001
0100
0010
1000
0001
0100
0202
0000
0000
0000
0000
0000
0000
0000
,
0000
0000
0000
0000
,
0000
0000
0000
0000
0000
0303
0000
0000
;

//---------------dance-single - ----------------
#NOTES:
     dance-single:
     :
     Medium:
     9:
     0.403385,0.487207,0.134006,0.411590,0.004786,295.000000,281.000000,14.000000,43.000000,0.000000,0.000000,0.403385,0.487207,0.134006,0.411590,0.004786,295.000000,281.000000,14.000000,43.000000,0.000000,0.000000:
0000
0000
0000
0000
,
0000
0000
0000
0000
,
0000
0000
0000
0000
,
0000
0000
0000
0000
,
0010
0000
0000
0000
0100
0000
0000
0000
0100
0000
0000
0000
0001
0000
0000
2000
,
0000
0000
3100
0000
0001
0010
0001
0000
,
0000
0200
0000
2300
0000
3002
0000
0023
,
0000
2000
0000
0000
0000
0000
3030
0000
,
0100
0000
0001
0010
0000
0100
0010
0000
,
0001
0000
1000
0000
0010
1000
0010
0000
,
1000
0000
0010
0100
0000
1000
0010
0000
,
0001
0000
0010
0001
0000
0001
1000
0000
,
0010
0000
0001
0000
1000
0010
1000
0000
,
0100
0000
0001
1000
0000
0001
0010
0000
,
0001
0000
0001
0100
0010
0000
0100
1000
,
0100
0000
1000
0001
0010
0001
0100
0000
,
0020
0000
1000
1030
,
0002
0013
0200
0310
,
1000
1000
0001
0001
,
0200
0320
2030
3002
,
2003
0000
0100
3100
,
0020
1030
0002
1003
,
0200
0000
0001
0010
,
0301
0000
1000
0100
1000
0000
1010
0000
,
0010
0000
0100
0000
1000
0000
1000
0010
,
0001
0000
1000
0000
0010
0000
0010
0100
,
1000
0000
0100
0000
0001
0000
0100
1000
,
0010
0000
0001
0100
0100
0000
0101
0000
,
2000
0000
3001
0000
0100
0001
0100
0000
,
0020
0000
0031
0000
1000
0010
1000
0000
,
0200
0000
0310
0001
2000
0000
3001
0010
,
0001
0011
0100
0110
,
0002
1000
1000
0013
,
0001
0100
0010
0100
2002
0000
3003
0000
,
0100
0000
1000
0100
1000
0000
0001
0100
,
0000
0010
0100
0000
0001
0000
0010
0000
,
1000
0000
0010
0000
0100
0001
0100
0000
,
0001
0000
1001
0000
0020
0000
0031
0100
,
0002
0000
0103
0010
0200
0000
1300
0001
,
2000
0010
0010
3000
0001
0000
1000
0100
,
1000
0000
0010
0100
0010
0001
1000
0000
,
0010
0101
0200
0301
,
0020
0031
2000
0001
,
3001
0000
0011
0000
0100
0000
0001
0100
,
0010
0000
0100
0010
1000
0001
1000
0000
,
0010
0001
0001
0000
0100
0000
0001
0010
,
1000
0000
1000
0100
0010
0100
0001
0000
,
1000
0010
0100
0000
0001
0000
0100
0000
,
1000
0100
1000
0000
0200
0000
0320
0000
,
2030
3002
0200
0300
,
0010
0000
0013
0000
0100
0010
1000
0010
,
0200
0000
1300
0000
1000
0010
0001
0000
,
0100
0000
0100
0001
0010
0001
0001
0000
,
1000
0001
1000
0000
0100
0001
0100
0000
,
0010
0100
0010
0100
0001
0010
1000
0000
,
0100
0000
0101
0000
0001
0010
0001
0000
,
0010
0000
0110
0000
1000
0001
1000
0000
,
0001
0000
0010
1000
0010
0000
0001
0100
,
0200
0310
0020
0031
,
0002
0000
1003
0000
2000
0000
3010
0001
,
0001
0011
0110
1100
,
0010
0001
0100
1000
2002
0000
0000
0000
,
0000
0000
0000
0000
,
0000
0000
0000
0000
0000
3003
0000
0000
;

//---------------dance-single - ----------------
#NOTES:
     dance-single:
     :
     Easy:
     5:
     0.257073,0.294334,0.067003,0.382874,0.000000,188.000000,181.000000,7.000000,40.000000,0.000000,0.000000,0.257073,0.294334,0.067003,0.382874,0.000000,188.000000,181.000000,7.000000,40.000000,0.000000,0.000000:
0000
0000
0000
0000
,
0000
0000
0000
0000
,
0000
0000
0000
0000
,
0000
0000
0000
0000
,
1000
0001
0001
0010
,
0020
0030
0100
0100
,
0000
1000
0001
1000
,
0010
0000
0110
0000
,
2000
3000
0001
0010
,
1000
0100
0100
0000
,
0002
0003
0010
1000
,
0100
1000
1000
0000
,
0020
0030
0100
0001
,
0010
0001
1000
0000
,
0200
0300
0001
0001
,
0010
1000
0010
0000
,
2000
0000
0001
3000
,
0010
0100
0010
0100
,
0200
0300
1000
0100
,
0010
0010
0001
0010
,
0002
0000
0010
0003
,
1000
0100
1000
0100
,
0020
0030
0100
0001
,
0001
0010
1000
0000
,
2002
3003
0010
0100
,
0200
0300
1000
0010
,
2000
3000
0001
0100
,
0010
0010
1000
0000
,
0220
0330
0100
0001
,
0002
0003
1000
0010
,
0020
0030
1000
0001
,
1000
1000
0100
0100
,
0020
0000
0000
0030
,
1000
0001
1001
0000
,
0100
0000
0010
0001
,
0001
0000
1000
0100
,
0001
0100
1000
0010
,
0010
0000
0001
0001
,
0001
0100
0010
1000
,
0010
0000
1000
0100
,
0010
0001
0010
0000
,
0110
0000
2000
3000
,
0002
0003
0200
0300
,
0020
0030
1000
0001
,
1000
0100
0010
0010
,
1000
0001
0020
0030
,
0100
1000
2000
3000
,
0010
0001
0002
0003
,
0100
0010
2000
3000
,
0002
0003
0200
0000
,
0000
0300
0010
0001
,
0110
0000
0100
0001
,
0100
0100
0010
0010
,
2000
3001
0002
0013
,
0200
0010
0010
0310
,
0002
0003
0100
0010
,
0100
1000
1000
0001
,
1000
0010
0100
0001
,
2000
3100
0020
0130
,
0002
0013
0200
0310
,
2000
0000
0000
0000
3002
0000
0000
0000
0023
0000
0000
0000
0230
0000
0000
0300
,
1000
0100
0110
0000
;

//---------------dance-single - ----------------
#NOTES:
     dance-single:
     :
     Beginner:
     3:
     0.151782,0.206034,0.067003,0.076575,0.000000,111.000000,104.000000,7.000000,8.000000,0.000000,0.000000,0.151782,0.206034,0.067003,0.076575,0.000000,111.000000,104.000000,7.000000,8.000000,0.000000,0.000000:
// measure 0
0000
0000
0000
0000
,  // measure 1
0000
0000
0000
0000
,  // measure 2
0000
0000
0000
0000
,  // measure 3
0000
0000
0000
0000
,  // measure 4
0100
0000
0000
0000
,  // measure 5
0100
0000
0000
0000
,  // measure 6
0001
0000
0000
0000
,  // measure 7
1001
0000
0000
0000
,  // measure 8
0020
0000
0030
0000
,  // measure 9
0100
0000
0100
0000
,  // measure 10
0200
0000
0300
0000
,  // measure 11
1000
0000
1000
0000
,  // measure 12
2000
0000
3000
0000
,  // measure 13
0001
0000
0001
0000
,  // measure 14
0002
0000
0003
0000
,  // measure 15
1000
0000
1001
0000
,  // measure 16
0200
0000
0300
0000
,  // measure 17
0001
0000
0001
0000
,  // measure 18
1000
0000
1000
0000
,  // measure 19
0010
0000
0010
0000
,  // measure 20
1000
0000
0001
0000
,  // measure 21
1000
0000
0001
0000
,  // measure 22
0100
0000
0010
0000
,  // measure 23
0100
0000
0010
0000
,  // measure 24
1000
0000
1000
0000
,  // measure 25
0001
0000
0001
0000
,  // measure 26
0010
0000
0010
0000
,  // measure 27
0100
0000
0100
0000
,  // measure 28
0001
0000
0001
0000
,  // measure 29
0010
0000
0010
0000
,  // measure 30
1000
0000
1000
0000
,  // measure 31
0100
0000
0100
0000
,  // measure 32
0200
0000
0300
0000
,  // measure 33
1000
0000
0010
0000
,  // measure 34
0000
0000
0010
0000
,  // measure 35
0000
0000
0100
0000
,  // measure 36
0000
0000
0100
0000
,  // measure 37
0000
0000
0001
0000
,  // measure 38
0001
0000
1000
0000
,  // measure 39
1000
0000
0010
0000
,  // measure 40
0010
0000
0100
0000
,  // measure 41
0100
0000
0000
1001
,  // measure 42
0000
1001
0000
0110
,  // measure 43
0000
0000
1000
0000
,  // measure 44
1000
0000
0100
0000
,  // measure 45
0010
0000
0100
0000
,  // measure 46
1000
1000
1000
0000
,  // measure 47
0001
0001
0001
0000
,  // measure 48
0010
0010
0010
0000
,  // measure 49
0100
0000
0020
0000
,  // measure 50
0030
0000
1000
0000
,  // measure 51
0100
0000
0100
0000
,  // measure 52
0001
0000
0001
0000
,  // measure 53
1000
1000
1000
0000
,  // measure 54
0010
0010
0010
0000
,  // measure 55
0002
0000
0003
0000
,  // measure 56
0100
0000
0100
0000
,  // measure 57
0001
0000
0001
0000
,  // measure 58
1000
0000
0001
0000
,  // measure 59
0100
0000
0010
0000
,  // measure 60
1000
0000
1001
0000
,  // measure 61
0100
0000
0110
0000
;
