#VERSION:0.83;
#TITLE:LAB;
#SUBTITLE:;
#ARTIST:RAM;
#TITLETRANSLIT:;
#SUBTITLETRANSLIT:;
#ARTISTTRANSLIT:;
#GENRE:;
#ORIGIN:;
#CREDIT:;
#BANNER:LAB.png;
#BACKGROUND:LAB-bg.png;
#PREVIEWVID:;
#JACKET:;
#CDIMAGE:;
#DISCIMAGE:;
#LYRICSPATH:;
#CDTITLE:;
#MUSIC:LAB.ogg;
#OFFSET:-1.961201;
#SAMPLESTART:13.970000;
#SAMPLELENGTH:15.000000;
#SELECTABLE:YES;
#BPMS:0.000=180.000;
#STOPS:;
#DELAYS:;
#WARPS:;
#TIMESIGNATURES:0.000=4=4;
#TICKCOUNTS:0.000=4;
#COMBOS:0.000=1;
#SPEEDS:0.000=1.000=0.000=0;
#SCROLLS:0.000=1.000;
#FAKES:;
#LABELS:0.000=Song Start;
#BGCHANGES:;
#KEYSOUNDS:;
#ATTACKS:
;

//---------------dance-single - ----------------
#NOTEDATA:;
#CHARTNAME:;
#STEPSTYPE:dance-single;
#DESCRIPTION:;
#CHARTSTYLE:;
#DIFFICULTY:Hard;
#METER:14;
#RADARVALUES:0.740950,0.828068,0.569375,0.515996,0.222412,583.000000,519.000000,64.000000,58.000000,0.000000,0.000000,0.000000,0.000000,0.000000,0.740950,0.828068,0.569375,0.515996,0.222412,583.000000,519.000000,64.000000,58.000000,0.000000,0.000000,0.000000,0.000000,0.000000;
#CREDIT:;
#NOTES:
// measure 0
0000
0000
0000
0000
,  // measure 1
1000
0002
0000
0003
0010
0000
0100
0001
,  // measure 2
0000
0001
0010
0000
0100
0000
1000
0100
,  // measure 3
0000
1000
0001
0000
0010
0000
0100
0001
,  // measure 4
0000
0010
0011
0000
0100
0001
0000
0001
,  // measure 5
0010
1000
0100
0000
0010
0000
0001
0100
,  // measure 6
0000
0010
0100
0000
1000
0100
1000
0000
,  // measure 7
0001
0001
0001
0001
,  // measure 8
0010
0000
0100
0000
0010
0000
1000
0000
0100
0000
1000
0000
0100
0001
0100
0001
,  // measure 9
0100
0020
0000
0030
1000
0000
0001
1000
,  // measure 10
0000
0010
0010
0000
0101
0000
0011
0000
,  // measure 11
1000
0000
0100
0000
1000
1000
0000
0110
,  // measure 12
0000
0000
0001
0000
1000
0000
0000
0000
0001
0000
0000
0000
1000
0000
0010
0100
,  // measure 13
0010
0000
0100
0000
0010
0001
0000
1000
,  // measure 14
0000
0100
1000
0000
0011
0000
0110
0000
,  // measure 15
1000
0000
0000
0000
1000
0000
0000
0000
0010
0000
0000
0001
0000
0000
0200
0000
,  // measure 16
0000
0001
0001
0300
0010
0000
1001
0000
,  // measure 17
0100
0010
2000
3000
0001
2000
3000
0010
,  // measure 18
0002
0103
0002
0003
0002
0013
0002
1003
,  // measure 19
1000
0000
0020
0130
0100
0020
0031
0000
,  // measure 20
0200
1300
0200
0300
0200
0310
0200
0301
,  // measure 21
0001
0010
0002
0003
0100
2000
3100
0002
,  // measure 22
0003
1000
2000
3000
0020
0031
0020
0031
,  // measure 23
1100
0101
1001
1001
,  // measure 24
0010
0000
0100
0000
0010
0000
0001
0000
1000
0000
1000
0000
0010
1000
0010
1000
,  // measure 25
0200
0000
0000
0000
0300
0010
0000
0001
,  // measure 26
0202
0000
0000
0000
0303
1000
0000
0010
,  // measure 27
0022
0000
0000
0000
0033
1000
0000
0010
,  // measure 28
0120
0000
0100
0000
1000
0000
0130
1000
,  // measure 29
2002
0000
0000
0000
3003
0100
0000
0100
,  // measure 30
0010
0010
1010
0011
,  // measure 31
1000
0100
0001
0100
0010
1000
0001
0100
,  // measure 32
1000
0000
0000
0001
0000
0000
1000
0000
1000
0000
0010
0000
0110
0000
0001
0000
,  // measure 33
0100
0000
0000
0000
1000
0000
0000
0000
0110
0000
0100
0001
0100
0001
0010
0000
,  // measure 34
1000
0000
0010
0000
0100
0000
0001
0000
1000
0000
0001
0100
0001
0000
0010
0000
,  // measure 35
0000
1010
0000
0000
0100
0000
0000
0000
1001
0000
1000
0010
1000
0010
0100
0000
,  // measure 36
0001
0100
0001
0001
1000
2200
0000
3300
,  // measure 37
0001
0000
0000
0000
0010
0000
0000
0000
0110
0000
0100
1000
0100
1000
0001
0000
,  // measure 38
0010
0000
1000
0000
0010
0000
0100
0000
0001
0000
0010
1000
0010
0000
1000
0000
,  // measure 39
0000
0101
0000
0000
0010
0000
0000
0000
1100
0000
0001
0010
0001
0010
0001
0000
,  // measure 40
1000
0010
0100
0010
0010
0010
0010
0010
,  // measure 41
2010
0000
0000
0000
0001
0000
3000
0000
0101
0000
0010
1000
0010
1000
0001
0000
,  // measure 42
0010
0000
0100
0000
1000
0000
0001
0000
1000
0000
0100
0010
0100
0000
0001
0000
,  // measure 43
0000
1010
0000
0000
1200
0000
0000
0000
0001
0000
0310
0001
0010
0001
0010
0000
,  // measure 44
1000
1002
0000
0100
0103
0020
1000
0001
,  // measure 45
0031
0000
0000
0000
1000
0000
0000
0000
1010
0000
1000
0100
1000
0100
1000
0000
,  // measure 46
0010
0000
0001
0000
0100
0000
0001
0000
1000
0000
0010
0001
0010
0001
0010
0000
,  // measure 47
0000
0110
0000
0000
2001
0000
0000
0000
0100
0000
0100
0000
3100
0010
0100
0000
,  // measure 48
0001
0000
0001
0000
0000
0000
0010
0100
0010
0000
1000
0000
1001
0000
0000
0000
,  // measure 49
2000
0000
0010
0001
0000
0001
3000
0100
,  // measure 50
1000
0000
1100
0010
1000
0010
1000
0001
,  // measure 51
1001
0000
1010
0100
1000
0100
1000
0010
,  // measure 52
1010
0000
1001
0100
1000
1100
0000
1010
,  // measure 53
1100
0000
0101
1000
0100
1000
0100
0010
,  // measure 54
0110
0000
1100
0010
0100
0010
0100
0001
,  // measure 55
0101
0000
0110
1000
0100
0001
0100
1000
,  // measure 56
0010
0000
0100
0000
0010
0000
0100
0000
0001
0100
0001
0000
1000
0100
0010
0100
,  // measure 57
0002
0000
0000
0100
0000
1000
0003
0010
,  // measure 58
0200
0000
0000
1000
0000
0001
0300
0010
,  // measure 59
0010
1000
0010
0001
0010
0100
0010
1000
,  // measure 60
1000
0100
1000
0001
1000
1000
0000
0001
,  // measure 61
0001
0100
0001
1000
0001
0010
0001
0100
,  // measure 62
0100
0010
0100
1000
0100
0001
0100
0010
,  // measure 63
0001
1000
0010
1000
0100
0001
1000
0100
,  // measure 64
0010
0000
0001
0000
0010
0000
0010
0000
1000
0001
1000
0000
0100
0010
0100
0001
,  // measure 65
0010
0200
0000
0300
0001
0000
0100
1000
,  // measure 66
0000
0100
0100
0000
0011
0000
1010
0000
,  // measure 67
1000
0000
0001
0000
1000
1000
0000
0011
,  // measure 68
0000
0000
0100
0000
0100
0000
0000
0000
1000
0000
0000
0000
0010
0000
0001
1000
,  // measure 69
0001
0000
0100
0000
0010
0100
0000
0010
,  // measure 70
0000
0010
0001
0000
1010
0000
0110
0000
,  // measure 71
0100
0100
1100
0101
,  // measure 72
0010
0000
1000
0000
0010
0000
0001
0000
0010
0000
0010
0000
0100
0010
0100
0001
,  // measure 73
1000
0000
0000
0010
0002
0000
0103
0000
0000
0000
1002
0000
0003
0000
0100
0000
,  // measure 74
0120
0000
0030
0001
0020
0000
0130
0000
0020
0000
1030
0000
0020
0000
0031
0000
,  // measure 75
0001
0000
0000
1000
0200
0000
0310
0000
0000
0000
1200
0000
0300
0000
0001
0000
,  // measure 76
2001
0000
3000
0010
2000
0000
3100
0000
2000
0000
3010
0000
2000
0000
3001
0000
,  // measure 77
0010
0000
0000
0001
0200
0000
1300
0000
0000
0000
2010
0000
3000
0000
0210
0000
,  // measure 78
0310
0000
0000
0100
0020
0000
1030
0000
0020
0000
0031
0000
0020
0000
0130
0000
,  // measure 79
1100
1000
1001
0001
0011
0010
0110
0100
,  // measure 80
1000
0000
0010
0000
0010
0000
1000
0000
0001
0000
0001
0100
0010
1000
0100
0010
;

//---------------dance-single - ----------------
#NOTEDATA:;
#CHARTNAME:;
#STEPSTYPE:dance-single;
#DESCRIPTION:;
#CHARTSTYLE:;
#DIFFICULTY:Medium;
#METER:10;
#RADARVALUES:0.508370,0.502874,0.275791,0.480410,0.017793,400.000000,369.000000,31.000000,54.000000,0.000000,0.000000,0.000000,0.000000,0.000000,0.508370,0.502874,0.275791,0.480410,0.017793,400.000000,369.000000,31.000000,54.000000,0.000000,0.000000,0.000000,0.000000,0.000000;
#CREDIT:;
#NOTES:
0000
0000
0000
0000
,
0000
1000
0000
0000
0100
0000
0000
0001
,
0000
0001
0000
0000
0011
0000
0000
1000
,
0000
1000
0000
0000
0100
0000
0000
0010
,
0000
0010
0000
0000
1010
0000
0000
0001
,
0000
1000
0000
0000
0010
0000
0000
1000
,
0000
0010
0000
0000
0110
0000
0000
0001
,
0000
0100
0000
0000
0010
0000
0000
1000
,
0000
0100
0010
0000
0100
0000
1100
0000
,
0020
0000
1030
0000
0100
0000
0001
0100
,
0000
0010
0001
0000
0100
0000
1000
0000
,
0010
0000
0011
0000
1000
1000
0000
0100
,
0000
0010
0100
0000
1000
0000
1010
0000
,
0002
0000
0013
0000
1000
0000
0100
1000
,
0000
0010
1000
0000
0010
0000
0001
0000
,
0100
0000
0101
0000
0001
1000
0001
0000
,
0100
0100
0100
1001
,
0100
0000
0020
0030
1000
0020
0030
1000
,
0200
0300
0200
0300
0200
0300
0200
0300
,
0010
0000
0002
0003
0100
0002
0003
0100
,
2000
3000
2000
3000
2000
3000
2002
3003
,
0100
0000
2000
3000
0010
2000
3000
2000
,
3000
0001
0002
0003
0200
0300
0200
0300
,
0010
0010
0010
0010
,
0001
0000
0001
1000
0100
1000
0100
0000
,
0012
0000
1003
1000
,
1020
0000
0130
0100
,
2100
0000
3001
0001
,
0021
0000
0000
0000
1030
0100
1000
0000
,
2001
0010
3001
0010
,
1200
0010
0001
1300
,
0021
0000
1000
0000
1000
0000
0130
0001
,
0100
1000
0010
0000
1000
0000
0011
0000
,
0010
0000
0001
0000
1000
0010
1000
0001
,
0000
0010
0100
0000
0001
1000
0001
0010
,
0000
1000
0000
0000
1001
0000
0000
0000
0010
0000
0100
0000
0010
0000
1000
0000
,
0000
0010
0001
0010
0000
0100
0100
0000
,
0001
0000
0010
0000
0100
0010
0100
0001
,
0000
1000
0010
0000
0010
0001
0100
0010
,
0000
1000
0000
0000
1100
0000
0000
0000
0001
0000
1000
0000
0010
0000
0001
0000
,
0000
0010
1000
0000
0001
0001
0001
0000
,
0020
0000
0100
0000
1030
0010
1000
0100
,
0000
0001
0100
0000
0010
1000
0010
0100
,
0000
0001
0000
0000
0012
0000
0000
0000
0013
0000
1000
0000
0100
0000
0010
0000
,
0000
0010
1000
0010
0000
0001
0001
0000
,
0100
0000
0010
0000
0001
0010
0100
0001
,
0000
0010
1000
0000
0100
0001
1000
0010
,
0000
0100
0000
0000
1020
0000
0000
0000
0130
0000
0001
0000
0100
0000
0010
0000
,
2000
3000
0001
1001
,
0020
0000
0000
0001
0000
0001
0030
0000
,
1000
0000
1000
0010
0000
0010
1000
0000
,
0010
0000
0010
0100
0000
0100
0010
0000
,
0001
0000
0001
1000
0000
1000
0001
0000
,
1000
0000
0100
0010
0000
0100
0010
0000
,
0001
0000
0010
1000
0000
0010
1000
0000
,
0100
0000
0001
1000
0000
0001
1000
0000
,
0010
0000
0100
1000
0100
1000
1000
0000
,
0001
0000
0001
0000
0100
0010
0000
0001
,
0000
0001
0000
1000
0001
0000
0101
0000
,
0100
0000
0100
0000
0010
0001
0000
0100
,
0000
0100
0000
0010
0100
0000
1100
0000
,
1000
0000
1000
0000
0001
0010
0000
1000
,
0000
1000
0000
0100
1000
0000
1010
0000
,
0010
0000
0010
0000
0100
1000
0000
0010
,
0000
0010
0001
1000
0010
0000
0110
0000
,
2000
0000
3001
0000
0100
0000
0001
0010
,
0000
0001
0100
0000
0001
0000
1000
0000
,
0010
0000
0110
0000
0100
0100
0000
1000
,
0000
0001
0010
0000
0100
0000
1001
0000
,
0020
0000
0031
0000
0100
0000
1000
0100
,
0000
0010
0100
0000
0001
0000
1000
0000
,
0010
0010
0010
0010
,
1000
0100
1000
0100
1000
0000
0110
0000
,
0100
0000
0002
0003
0010
0200
0300
0010
,
2000
3000
0002
0003
2000
3000
0020
0030
,
0001
0000
0020
0030
1000
0200
0300
1000
,
0020
0030
0002
0003
2000
3000
0220
0330
,
1000
0000
2000
3000
0001
0200
0300
0020
,
0030
0001
0002
0003
2000
3000
2000
3000
,
0001
0010
1000
0100
,
0010
0001
0100
0001
0010
0000
1001
0000
;

//---------------dance-single - ----------------
#NOTEDATA:;
#CHARTNAME:;
#STEPSTYPE:dance-single;
#DESCRIPTION:;
#CHARTSTYLE:;
#DIFFICULTY:Easy;
#METER:6;
#RADARVALUES:0.334253,0.360307,0.142344,0.542685,0.000000,263.000000,247.000000,16.000000,61.000000,0.000000,0.000000,0.000000,0.000000,0.000000,0.334253,0.360307,0.142344,0.542685,0.000000,263.000000,247.000000,16.000000,61.000000,0.000000,0.000000,0.000000,0.000000,0.000000;
#CREDIT:;
#NOTES:
0000
0000
0000
0000
,
1000
0000
0001
0000
,
0010
0010
0001
0000
,
0100
0010
0100
1000
,
1000
0000
1001
0000
,
0010
0001
0001
0000
,
0100
0010
0010
0000
,
1000
1000
1000
1000
,
0001
0000
0110
0000
,
0200
0300
0010
0001
,
0010
1000
1000
0000
,
0001
0100
1000
0010
,
1000
0001
0001
0000
,
0200
0300
1000
0010
,
1000
0010
0010
0000
,
0002
0003
0100
0010
,
0100
0000
0110
0000
,
0000
0000
0200
0300
0000
0200
0300
0000
,
0002
0003
0002
0003
0002
0003
0002
0003
,
0000
0000
2000
3000
0000
2000
3000
0000
,
0020
0030
0020
0030
0020
0030
0020
0030
,
0000
0000
0002
0003
0000
0002
0003
0002
,
0003
0000
0200
0300
0200
0300
0200
0300
,
0010
1000
0010
0001
,
0001
0000
0200
0300
,
2002
0000
3003
0000
,
0200
0000
0000
0300
,
0020
0000
0000
0030
,
1000
0001
1000
1000
,
0002
0000
0000
0003
,
0210
0010
0010
0310
,
2000
3000
0002
0003
,
0010
0100
0020
0030
,
1000
0000
0001
0010
,
0100
0010
1000
1000
,
0001
1001
0010
0100
,
0010
1000
0001
0001
,
0010
0000
0100
0010
,
0001
0100
0010
0010
,
0100
0110
0001
1000
,
0000
0100
0100
0100
,
0020
0030
0001
1000
,
0010
0010
0001
1000
,
0100
1100
1000
0010
,
0001
0010
0001
0001
,
2000
3000
0100
1000
,
0010
0001
0100
0001
,
0100
0011
1000
0001
,
2000
0000
0000
3000
,
0110
0000
0100
0100
,
0001
0010
0001
0001
,
1000
0100
1000
1000
,
0010
1000
0100
0001
,
0022
0033
1000
1000
,
0010
0001
0100
0100
,
0010
1000
0010
0100
,
0001
0100
0101
0000
,
0020
0000
0000
0030
,
1000
0001
0002
0003
,
0100
0001
0100
0010
,
1000
0001
0010
0010
,
1000
0100
1000
0100
,
0001
0100
0001
0100
,
0010
0001
0100
1000
,
0001
0000
0110
0000
,
0002
0003
1000
0010
,
0001
0010
0010
0000
,
0100
1000
0010
1000
,
0001
1000
1000
0000
,
0002
0003
0010
1000
,
0010
0100
0100
0000
,
0002
0003
0100
1000
,
0100
0000
1001
0000
,
0000
0000
0020
0030
0000
0002
0003
0000
,
2000
3000
0200
0300
2000
3000
0002
0003
,
0000
0000
0200
0300
0000
2000
3000
0000
,
0020
0030
0200
0300
0020
0030
0002
0003
,
0000
0000
2000
3000
0000
0002
0003
2000
,
3000
0000
0200
0300
0020
0030
0020
0030
,
1000
0100
0001
0010
,
0110
0000
2002
0000
,
3003
0000
0000
0000
;
