#VERSION:0.83;
#TITLE:Kurobeni sukui;
#SUBTITLE:;
#ARTIST:Nekomata Master feat. Haruka Shimotsuki;
#TITLETRANSLIT:;
#SUBTITLETRANSLIT:;
#ARTISTTRANSLIT:;
#GENRE:;
#ORIGIN:;
#CREDIT:;
#BANNER:Kurobeni sukui.png;
#BACKGROUND:Kurobeni sukui-bg.png;
#PREVIEWVID:;
#JACKET:Kurobeni sukui-jacket.png;
#CDIMAGE:;
#DISCIMAGE:;
#LYRICSPATH:;
#CDTITLE:;
#MUSIC:Kurobeni sukui.ogg;
#OFFSET:-0.290926;
#SAMPLESTART:71.196335;
#SAMPLELENGTH:15.000000;
#SELECTABLE:YES;
#BPMS:0.000=104.000,
185.500=102.000,
187.000=88.000,
188.500=80.000,
189.000=74.000,
189.500=68.000,
190.000=56.000;
#STOPS:116.000=3.462;
#DELAYS:;
#WARPS:;
#TIMESIGNATURES:0.000=4=4;
#TICKCOUNTS:0.000=4;
#COMBOS:0.000=1;
#SPEEDS:0.000=1.000=0.000=0;
#SCROLLS:0.000=1.000;
#FAKES:;
#LABELS:0.000=Song Start;
#BGCHANGES:;
#KEYSOUNDS:;
#ATTACKS:
;

//---------------dance-single - ----------------
#NOTEDATA:;
#CHARTNAME:;
#STEPSTYPE:dance-single;
#DESCRIPTION:;
#CHARTSTYLE:;
#DIFFICULTY:Hard;
#METER:12;
#RADARVALUES:0.387286,0.403398,0.285369,0.528772,0.092325,323.000000,289.000000,34.000000,63.000000,0.000000,0.000000,0.000000,0.000000,0.000000,0.387286,0.403398,0.285369,0.528772,0.092325,323.000000,289.000000,34.000000,63.000000,0.000000,0.000000,0.000000,0.000000,0.000000;
#CREDIT:;
#NOTES:
0000
0000
0000
0000
,
0000
0000
0000
0000
0000
0000
0000
0000
0000
0000
0000
0000
0000
0000
0001
1000
,
0002
0000
0023
0000
0230
0000
1000
0300
,
2010
0000
0000
0000
3001
0000
0010
0100
0010
0000
0001
0000
0100
0000
0010
0000
,
2000
0000
0000
0000
0000
0000
3001
0000
0010
0000
0001
0000
0100
0000
0000
1000
0000
0000
0100
0000
0000
0010
0000
0000
,
0002
0000
0000
0000
0013
0000
0000
0000
0010
0000
1000
0000
1001
0000
1000
0010
,
0200
0000
0310
0001
0020
0000
1030
0100
,
2000
0000
0000
0000
3001
0000
0100
0001
0100
0000
0010
0000
0001
0000
1000
0000
,
0020
0000
0000
0000
0000
0000
0130
0000
1000
0000
0100
0000
0001
0000
0000
0010
0000
0000
1000
0000
0000
0010
0000
0000
,
2000
0000
3100
0000
0100
0001
0011
0010
,
1000
0000
0100
0010
0001
0000
0010
1000
,
1000
0100
0001
0000
1000
0010
0100
0010
,
0002
0000
0000
0000
0013
0000
0100
0010
0100
0000
0001
0000
1000
0000
0010
0000
,
2000
0000
0000
0000
0100
0000
0000
0000
3100
0000
0001
0000
0011
0000
0100
1000
,
0200
0000
0000
0000
0310
0000
1000
0000
0002
0000
0000
0000
1003
0000
0010
1000
,
0010
0001
2100
0000
3001
0010
0100
0010
,
0002
0000
1003
0010
0100
1000
0100
0001
,
0220
0030
0001
1300
,
0101
0001
0021
0000
1000
0000
0130
0000
,
1100
0100
0210
0000
0302
0000
0103
0000
,
1001
1000
2010
0000
0100
0000
3001
0000
,
0101
0100
1100
0001
0021
0000
0100
0030
,
1000
0100
0101
0010
0001
1000
0100
1000
,
0002
0010
0013
0100
1200
0000
0310
0001
,
1000
0010
1010
0001
0100
0010
1000
0100
,
2000
0000
0000
0000
0000
0000
3010
0000
0100
0000
0001
0000
0020
0000
0000
0000
0000
0000
0001
0000
0000
0030
0000
0000
,
2002
3000
0020
0033
,
0220
0000
0330
0000
0100
0001
0010
1000
,
0200
0000
0000
0000
0300
0000
0000
0000
0010
0000
0001
0000
0100
0000
1000
0100
,
2000
3000
0000
0000
0000
0000
0000
0000
0000
0000
0000
0000
0000
0000
0000
0000
1001
0000
0000
0000
0000
0000
0000
0000
0100
0000
0000
0000
0000
0000
0000
0000
0210
0000
0000
0000
0000
0000
0000
0000
0000
0000
0000
0000
0000
0000
0000
0000
0301
0000
0000
0000
0000
0000
0000
0000
0010
0000
0000
0000
1000
0000
0000
0000
,
0020
0000
0100
0000
0230
0000
1000
0000
0300
0000
2001
0000
0000
0000
3010
0001
,
0010
0100
0001
0200
0000
0300
1000
0100
,
0001
0010
0100
0001
0001
0000
1010
0100
,
0102
0000
0000
0000
1003
0000
0010
0100
0010
0000
1000
0000
0001
0000
0100
0000
,
0000
0000
2010
0000
0000
0000
3100
0001
0100
0000
1000
0000
0001
0000
2000
0000
,
0000
3000
0001
0100
0010
0001
1000
0010
,
0200
0000
0001
0000
0310
0000
0010
1000
,
0210
0000
0000
0000
0301
0000
0010
1000
0020
0000
0001
0000
0032
0000
0100
0000
,
0003
0000
2000
0000
0001
0000
3001
0010
0001
0000
0100
0000
1000
0000
0020
0000
,
0000
0100
0130
0001
0010
1000
0010
1000
,
1000
0000
0000
0000
0101
0000
0010
0000
0012
0000
0000
0000
0103
0000
0100
1000
,
0100
0000
1000
0000
0100
0000
2000
0000
0000
0000
0001
0000
3001
0000
0100
0010
,
0100
1000
1001
0002
0000
0003
1000
0100
,
0010
0001
0100
0100
0202
0000
0300
0000
,
1000
1003
0020
0030
,
2020
3030
2200
3300
,
0002
0100
0013
1000
0200
0000
0300
0000
,
0010
0001
1000
0100
2002
0000
0000
0000
,
0000
3003
0000
0000
0000
0000
0000
0000
0000
0000
0000
0000
0000
0000
0000
0000
;

//---------------dance-single - ----------------
#NOTEDATA:;
#CHARTNAME:;
#STEPSTYPE:dance-single;
#DESCRIPTION:;
#CHARTSTYLE:;
#DIFFICULTY:Medium;
#METER:8;
#RADARVALUES:0.288966,0.299008,0.125898,0.327335,0.000000,241.000000,226.000000,15.000000,39.000000,0.000000,0.000000,0.000000,0.000000,0.000000,0.288966,0.299008,0.125898,0.327335,0.000000,241.000000,226.000000,15.000000,39.000000,0.000000,0.000000,0.000000,0.000000,0.000000;
#CREDIT:;
#NOTES:
0000
0000
0000
0000
,
0000
0000
0000
0000
0000
0000
0000
1000
,
2000
3100
0002
0103
,
0020
0000
0001
0000
0031
0100
0010
0000
,
0020
1030
0002
1003
,
0200
1000
1000
0310
,
0001
0000
1000
0010
1000
0000
0100
0001
,
0100
0010
1000
0000
0010
0100
0100
0000
,
0010
0110
0100
0101
,
2000
0010
0010
3001
,
0010
0000
1000
0100
1000
0000
0001
1000
,
0001
0000
0010
0000
0001
1000
1000
0000
,
0200
0000
0310
1000
0010
0000
0100
0010
,
0100
0001
0010
0000
1000
0010
0010
0000
,
0001
0000
1001
0000
1000
0010
1000
0000
,
0010
0001
0010
0000
0100
1000
1000
0100
,
0001
0000
0110
0000
1000
0001
0100
0001
,
0020
0000
1000
1030
,
0010
1000
0100
0000
0002
0000
0203
0000
,
0301
0010
1000
0000
0200
0000
2300
0000
,
3100
0010
0001
0000
0020
0000
0032
0000
,
0103
1000
0100
0010
0010
0000
1010
0000
,
0001
1000
0002
0100
0100
0000
0013
0000
,
0010
0100
2000
0010
0010
3000
1100
0000
,
0010
0001
0020
1000
1000
0000
0130
0001
,
0100
0000
0010
0001
0010
0000
0100
0010
,
0200
0000
0320
0000
,
0002
0000
0033
0000
1000
0000
1000
0001
,
0020
0000
0030
0000
0100
0000
0100
0010
,
0011
0000
2000
0000
3200
0000
0301
0010
,
0020
0000
0200
0000
0330
0002
0000
1000
,
1003
0010
1000
0020
0000
0030
0100
0000
,
0010
0000
1000
0100
1000
0000
0200
0000
,
0320
0000
1030
0001
0001
1000
0020
0001
,
0030
0200
0000
1000
1300
0001
0010
0002
,
0000
0003
1000
0000
0010
0000
1000
0100
,
0020
0000
0030
0000
1002
0000
0103
0010
,
0100
0000
0001
0000
0010
0100
0100
0000
,
1000
0100
0010
0001
1000
0000
1100
0000
,
0200
0000
0310
0000
1000
0000
0010
0001
,
0001
0110
2000
3010
,
0001
0100
1000
0020
0000
0100
0030
1000
,
0100
1000
0001
0000
0100
0000
0011
0000
,
0100
0000
1000
0010
2000
0000
0001
0000
,
0010
3010
0011
0000
,
1010
0000
1001
0000
,
0100
0000
0100
0010
0001
0000
0000
0000
,
0010
1000
0110
0000
;

//---------------dance-single - ----------------
#NOTEDATA:;
#CHARTNAME:;
#STEPSTYPE:dance-single;
#DESCRIPTION:;
#CHARTSTYLE:;
#DIFFICULTY:Easy;
#METER:5;
#RADARVALUES:0.226617,0.239206,0.092325,0.327335,0.000000,189.000000,178.000000,11.000000,39.000000,0.000000,0.000000,0.000000,0.000000,0.000000,0.226617,0.239206,0.092325,0.327335,0.000000,189.000000,178.000000,11.000000,39.000000,0.000000,0.000000,0.000000,0.000000,0.000000;
#CREDIT:;
#NOTES:
0000
0000
0000
0000
,
0000
0000
0000
0000
,
0100
0001
0200
0300
,
0010
1000
0020
0030
,
2000
3000
0002
0003
,
0100
0100
0220
0330
,
1000
0001
1000
1000
,
0010
0100
0010
0010
,
2000
3001
0020
0031
,
0200
0300
0220
0330
,
0001
1001
1000
0100
,
0010
0000
0100
0000
0010
0000
1000
0001
,
1000
0000
0010
0000
0001
0000
0100
1000
,
0200
0000
1000
0300
,
0010
0110
0100
0001
,
0010
1000
0010
0000
1000
0000
0001
0010
,
0002
0000
0003
0000
0010
0000
1000
0100
,
2000
0000
0100
3100
,
0020
0001
0031
0100
,
2000
0010
3010
0001
,
0200
1000
1300
0010
,
0020
0001
0031
1001
,
0200
0000
0302
0000
0103
0100
0100
0000
,
2000
0000
3002
0000
1003
1000
1000
0000
,
0020
0000
2030
0000
3010
0010
0010
0000
,
0002
1003
2000
3100
,
0200
0300
2000
3000
,
0002
0003
0010
0100
,
0110
0000
1000
0001
,
1001
0000
0200
0301
,
0020
1030
0200
2300
,
0001
3001
0010
0001
,
1000
0000
0010
0100
0100
0000
1001
0000
,
0020
0130
0200
0301
,
0020
0032
0100
0103
,
0010
0000
1000
0000
0010
0000
0001
0100
,
0002
0003
1000
1001
,
0100
0001
0100
0000
0010
0000
0010
0000
,
1000
0100
1000
0000
0001
0000
0001
0000
,
0010
0100
0010
0000
1000
0000
0100
0000
,
0110
0000
0100
0010
0100
0000
1000
0000
,
0001
0010
0001
0000
0100
0000
0010
0000
,
0100
1000
0100
0000
1000
0000
0001
0000
,
0010
0100
0010
0100
0002
0000
0000
0000
,
1000
0003
0100
0000
,
0010
0000
1001
0000
,
1000
0100
0010
0000
,
1000
0001
1000
0000
;

//---------------dance-single - ----------------
#NOTEDATA:;
#CHARTNAME:;
#STEPSTYPE:dance-single;
#DESCRIPTION:;
#CHARTSTYLE:;
#DIFFICULTY:Beginner;
#METER:2;
#RADARVALUES:0.109112,0.139537,0.025180,0.117505,0.000000,91.000000,88.000000,3.000000,14.000000,0.000000,0.000000,0.000000,0.000000,0.000000,0.109112,0.139537,0.025180,0.117505,0.000000,91.000000,88.000000,3.000000,14.000000,0.000000,0.000000,0.000000,0.000000,0.000000;
#CREDIT:;
#NOTES:
// measure 0
0000
0000
0000
0000
,  // measure 1
0000
0000
0000
0000
,  // measure 2
0010
0000
0010
0000
,  // measure 3
1000
0000
0001
0000
,  // measure 4
2000
3000
0200
0300
,  // measure 5
2000
0000
3000
0000
,  // measure 6
0001
0000
1000
0000
,  // measure 7
0100
0000
0100
0000
,  // measure 8
0002
0003
2000
3000
,  // measure 9
0020
0000
0030
0000
,  // measure 10
0010
0000
0001
0000
,  // measure 11
1000
1000
0000
0100
,  // measure 12
0100
0000
0001
0000
,  // measure 13
0010
0000
0010
0000
,  // measure 14
0001
0000
1000
0000
,  // measure 15
0100
0100
0000
0000
,  // measure 16
0001
0000
1000
0000
,  // measure 17
1000
0000
0000
0000
,  // measure 18
0010
0010
0000
0000
,  // measure 19
0001
0001
0000
0000
,  // measure 20
1000
1000
0000
0000
,  // measure 21
0100
0100
0000
0000
,  // measure 22
0010
0020
0000
0030
,  // measure 23
1000
2000
0000
3000
,  // measure 24
0001
0002
0000
0003
,  // measure 25
0100
0000
0010
0000
,  // measure 26
0110
0000
0000
0000
,  // measure 27
0000
0000
0000
0000
,  // measure 28
0000
0000
0000
0000
,  // measure 29
1001
0000
0020
0030
,  // measure 30
0100
0100
0000
0001
,  // measure 31
0000
0001
0000
1000
,  // measure 32
0000
0010
0010
0000
,  // measure 33
0100
0000
1000
1000
,  // measure 34
0000
0001
0000
0010
,  // measure 35
0000
0100
0000
0001
,  // measure 36
0001
0000
0110
0000
,  // measure 37
2000
3000
0100
0100
,  // measure 38
0000
0010
0000
0010
,  // measure 39
0000
0000
1000
0000
,  // measure 40
0001
0000
1000
0000
,  // measure 41
0010
0010
0000
0100
,  // measure 42
0000
0100
0000
0000
,  // measure 43
0001
0000
0010
0000
,  // measure 44
0010
0000
0002
0003
,  // measure 45
2000
3000
0020
0030
,  // measure 46
0100
0000
0100
0000
,  // measure 47
0001
0001
0001
0000
;
