#TITLE:Kodomo no rakugaki chou;
#SUBTITLE:;
#ARTIST:Hirofumi Sasaki;
#TITLETRANSLIT:;
#SUBTITLETRANSLIT:;
#ARTISTTRANSLIT:;
#GENRE:;
#CREDIT:;
#BANNER:Kodomo no rakugaki chou.png;
#BACKGROUND:Kodomo no rakugaki chou-bg.png;
#LYRICSPATH:;
#CDTITLE:;
#MUSIC:Kodomo no rakugaki chou.mp3;
#OFFSET:0.064526;
#SAMPLESTART:37.635700;
#SAMPLELENGTH:15.428574;
#SELECTABLE:YES;
#DISPLAYBPM:50.000000:280.000000;
#BPMS:0.000000=280.000000
,76.000000=278.500000
,124.000000=280.500000
,176.000000=282.000000
,238.000000=280.000000
,305.500000=278.000000
,376.000000=255.000000
,391.000000=245.000015
,398.000000=225.000000
,400.000000=200.000000
,401.000000=150.000000
,403.000000=100.000000
,404.000000=50.000000
;
#STOPS:
;
#BGCHANGES:;
#KEYSOUNDS:;
#ATTACKS:;

//---------------dance-single - ----------------
#NOTES:
     dance-single:
     :
     Hard:
     16:
     0.814534,0.918906,0.575503,0.447613,0.010657,535.000000,481.000000,54.000000,42.000000,0.000000,0.000000,0.814534,0.918906,0.575503,0.447613,0.010657,535.000000,481.000000,54.000000,42.000000,0.000000,0.000000:
0000
0000
0001
0100
,
1000
0010
0100
0100
,
1000
0001
0001
0010
,
0100
0010
1000
0001
,
0100
1000
0010
1000
,
0100
0010
1000
0001
,
0010
0100
1000
0100
,
0001
0100
0001
0010
,
0001
0100
0010
1000
,
0100
0010
0001
0100
,
0010
0001
1000
1000
,
0010
0100
0100
0001
,
1000
0001
1000
0001
,
0010
1000
0110
1000
,
1100
0001
1001
0010
,
0101
0010
0011
0100
,
2000
0000
0000
0000
,
0000
0000
0002
0000
,
0000
0000
0000
3003
,
1000
0000
0100
0010
0100
0000
0001
0000
,
1000
0001
1000
0000
0100
0000
0010
0001
,
0010
0000
1000
0000
1000
0100
1000
0000
,
0001
0000
0100
0010
0100
0000
0010
0000
,
0001
0010
0001
0000
1000
0000
1000
0010
,
1000
0000
0100
0000
0100
0010
0100
0000
,
0010
1000
0010
0100
0001
0000
0010
0100
,
0001
0100
0001
0000
0010
1000
0010
1000
,
0100
0000
0001
0010
0100
0001
0100
0000
,
0010
1000
0001
1000
0010
0000
0001
1000
,
0100
0010
0100
0000
0001
1000
0010
0100
,
0001
0100
0010
1000
0001
0100
0010
0000
,
0002
1000
1003
0200
,
0001
0301
0020
1000
,
0100
1000
0001
0031
,
0100
0010
0110
1000
,
0001
1001
0100
1010
,
0011
0000
0001
1000
0010
0100
0001
0000
,
0100
0001
0010
0100
0010
0000
0010
0100
,
0010
1000
0100
0000
0001
0100
0001
1000
,
0001
0000
1000
0100
0001
0100
1000
0000
,
0010
1000
0100
0010
0001
0010
0100
1000
,
0010
0001
0010
0000
0100
0010
0001
1000
,
0010
0100
1000
0001
0010
1000
0001
0010
,
0100
1001
1001
1010
,
0001
0100
0101
0010
,
0001
0011
1000
0010
,
1010
0100
0001
0101
,
0010
0100
0110
1000
,
0001
1001
0001
0010
,
1010
1000
0100
1100
,
0100
0010
0101
0100
,
1000
0011
0001
0100
,
1001
0010
0001
2100
,
0001
3010
1020
0100
,
0031
0012
0100
0013
,
1020
0100
1030
2001
,
0010
3100
1200
0001
,
0310
1002
0023
0032
,
0203
0320
2030
3020
,
0032
0013
0201
0010
,
0010
0010
1000
0310
,
0100
0001
1000
0100
,
0001
0010
1000
1000
,
0100
0010
0100
0001
0010
0000
1000
0000
,
0002
0000
0000
0000
0003
0000
0100
0001
,
0200
0000
0301
0010
,
2000
3200
0302
2003
,
3020
0230
0302
0000
,
1003
0000
0100
0000
0010
0000
0010
1000
,
0000
1000
0100
0000
0100
0010
0000
0010
,
0001
1100
0101
0010
,
1000
0100
0010
0000
0010
0100
0001
0100
,
1000
0000
0010
0100
0001
0100
0010
0000
,
1000
0001
0100
0010
0100
0000
1000
0000
,
1010
0000
0000
0110
0000
0000
0001
0000
1000
0000
0001
0000
,
0100
0000
0010
1000
0010
0000
1000
0000
,
0200
0000
0000
0301
0000
0001
0100
0000
,
0100
1000
0000
1000
0010
0000
0010
1000
,
0000
1000
0001
0000
1100
0000
1010
0000
,
0001
1000
0001
1000
0100
0000
0010
0001
,
1000
0010
0100
0000
0100
0010
0001
1000
,
0001
0010
0100
0000
0101
0000
1001
0000
,
1000
0100
0001
0010
0100
0000
0010
0100
,
1000
0100
1000
0000
0001
1000
0001
0010
,
0001
0010
0100
0000
0011
0000
0110
0000
,
0010
0001
0100
1000
0100
0000
1000
0100
,
0010
0100
0010
0000
0001
1000
0001
1000
,
0010
0001
1000
0000
0110
0000
1010
0000
,
0001
1000
0010
0100
1000
0000
1000
0010
,
0100
0001
0100
0000
0001
0010
0100
1000
,
0100
1000
0010
0000
0110
0000
1001
0000
,
0001
0100
0010
0100
0010
0001
1000
0001
,
1000
0010
0100
0001
0100
0000
1010
0000
,
0011
0220
0000
0000
,
0330
0100
0010
0101
,
1000
0010
1010
0001
,
0100
0110
1000
0010
,
1001
0001
1000
0101
,
0010
0001
0000
0012
,
2003
3200
0302
2003
,
3020
0230
2300
3020
,
2000
0000
0000
0000
0000
0000
0000
3030
0000
0000
0000
0000
0000
0000
0000
0000
;

//---------------dance-single - ----------------
#NOTES:
     dance-single:
     :
     Medium:
     11:
     0.537440,0.645842,0.223807,0.351696,0.000000,353.000000,332.000000,21.000000,33.000000,0.000000,0.000000,0.537440,0.645842,0.223807,0.351696,0.000000,353.000000,332.000000,21.000000,33.000000,0.000000,0.000000:
0000
0000
0010
0100
,
1000
0000
1000
0010
,
0000
0010
0001
0000
,
0001
0100
0000
0100
,
1000
0000
0010
0100
,
0000
0001
0100
0000
,
1000
0100
0000
0010
,
0100
0000
0100
0010
,
0000
0010
1000
0100
,
0010
0001
0000
1000
,
0001
0000
0010
0001
,
0000
0100
1000
0000
,
0010
0020
0000
1000
,
1000
0030
0101
0000
,
1100
0000
0011
0000
,
0110
0000
1010
0000
,
2002
0000
0000
0000
,
3000
0000
0020
0000
,
0000
0000
0000
0033
,
0001
0010
0100
0010
,
1000
0100
1000
0010
,
1000
0001
0100
0100
,
0010
0001
0010
0100
,
1000
0100
0010
0001
,
1000
0010
0001
0001
,
0100
0000
0010
0100
0000
0000
0001
0000
,
1000
0001
0000
0000
0010
0000
0001
0010
,
0000
1000
0001
0010
,
1000
0000
0100
0001
0000
0000
0100
0000
,
0010
1000
0000
0000
0010
0000
0001
1000
,
0000
0100
0001
0000
0001
0000
0001
0000
,
2001
0000
0010
0010
,
3000
0100
0001
0100
,
0010
0020
0000
0030
,
0002
1000
1003
0200
,
0001
0301
0100
0010
,
0010
0020
1000
1030
,
0100
0000
0000
0000
1000
0010
1000
0000
,
0000
0000
0001
0100
0001
0000
0000
0000
,
0010
0001
0010
0000
0100
0000
0001
0000
,
0100
0000
0010
0100
0000
1000
0100
0000
,
0001
0010
0000
0001
0100
0000
1000
0010
,
0000
0001
0100
0000
1000
0000
0001
0000
,
0010
0100
0100
1100
,
0010
0001
0200
1000
,
0310
0002
1000
0103
,
0020
0001
1030
0002
,
0100
0013
2000
0001
,
3100
0020
0100
0031
,
0200
1000
0301
2000
,
0100
3001
0002
0100
,
1003
0020
1000
0100
,
0001
0100
0130
1100
,
0000
0010
1010
0000
,
1000
1001
0000
0001
,
0101
0000
0100
0110
,
0000
0010
0011
0000
,
0001
1000
0010
1000
,
0100
0001
0010
1000
,
0100
0001
0220
0000
,
0030
0000
0010
0000
,
0001
0000
0001
0000
,
1000
0000
0010
0300
,
0001
1000
0100
0001
,
0010
0000
0000
1000
,
1000
0000
0010
0001
,
1000
0100
0010
0100
,
0001
0010
0010
0000
,
0110
0000
0000
0000
2000
0000
0000
3200
,
0000
0000
0302
0000
0000
0023
0000
0000
,
0032
1000
1003
0200
,
0000
0302
0000
0103
,
1000
0010
0000
0010
,
0001
1000
0010
0001
,
0000
1001
0000
0001
,
0010
0001
1000
0010
,
0001
0000
0000
1000
0000
0000
1100
0000
,
0000
0001
0000
0000
0101
0000
0000
1000
,
0000
0010
0010
0010
,
0100
0001
0100
0001
,
1000
0001
0010
0001
,
0001
1000
0002
0000
0000
0000
0003
0000
,
0010
1000
0100
0010
,
0001
1000
0010
0100
,
0100
1000
0200
0000
0000
0000
0300
0000
,
1000
0100
0010
0100
,
1000
0001
0010
0100
,
1000
0010
1000
1000
,
0001
0000
0100
0001
0000
0000
0010
0000
,
1000
0010
0000
0000
1000
0000
0001
1000
,
0000
0100
0002
0000
0000
0000
0003
0000
,
0100
0000
0010
0000
1000
0010
1000
0000
,
0001
0000
0100
0010
0100
0000
1000
0000
,
0001
2002
0000
0000
,
3003
0100
1000
1000
,
0000
0001
0001
0000
,
0100
0100
0000
0010
,
0010
0000
0010
0100
,
0001
1000
0000
0001
,
0000
0010
1000
0000
,
0100
0010
0100
0001
,
0110
0000
0000
0000
;

//---------------dance-single - ----------------
#NOTES:
     dance-single:
     :
     Easy:
     7:
     0.412596,0.484381,0.191834,0.618133,0.000000,271.000000,253.000000,18.000000,58.000000,0.000000,0.000000,0.412596,0.484381,0.191834,0.618133,0.000000,271.000000,253.000000,18.000000,58.000000,0.000000,0.000000:
// measure 0
0000
0000
0000
0000
,  // measure 1
2000
0000
3000
0200
,  // measure 2
0000
0300
0002
0000
,  // measure 3
0003
0020
0000
0030
,  // measure 4
0200
0000
0300
0001
,  // measure 5
0000
0010
0001
0000
,  // measure 6
0100
1000
0000
0010
,  // measure 7
0100
0000
0001
1000
,  // measure 8
0000
1000
0100
0000
,  // measure 9
0100
0020
0000
0031
,  // measure 10
0002
0000
0103
0200
,  // measure 11
0000
1300
2000
0000
,  // measure 12
3010
0220
0000
0000
,  // measure 13
0000
0330
0020
0000
,  // measure 14
2030
0000
3002
0000
,  // measure 15
0023
0000
2030
0000
,  // measure 16
3002
0000
0000
0020
,  // measure 17
0000
0033
0220
0000
,  // measure 18
0030
2000
0000
3300
,  // measure 19
0001
0000
1000
0100
,  // measure 20
0000
0100
0010
0000
,  // measure 21
0100
1000
0100
0100
,  // measure 22
0001
0000
0100
0010
,  // measure 23
0000
1000
0010
0000
,  // measure 24
0100
0010
0001
0001
,  // measure 25
0010
1000
0100
1000
,  // measure 26
0000
0001
0100
0000
,  // measure 27
0010
1000
0010
0010
,  // measure 28
0100
0001
0010
0100
,  // measure 29
0000
1000
0001
0000
,  // measure 30
0010
0100
0010
0001
,  // measure 31
2000
0000
3001
0002
,  // measure 32
0000
0103
0200
0000
,  // measure 33
0310
0020
0000
0030
,  // measure 34
0001
0010
0100
1000
,  // measure 35
0100
0010
0002
0003
,  // measure 36
1000
2002
0000
3003
,  // measure 37
0100
0010
0100
1000
,  // measure 38
0100
1000
0010
0100
,  // measure 39
0001
0002
0000
0003
,  // measure 40
0100
1000
0001
1000
,  // measure 41
0000
1000
0001
0100
,  // measure 42
0010
0100
0000
0100
,  // measure 43
1000
0000
0001
1001
,  // measure 44
1000
0100
0001
0000
,  // measure 45
0010
0100
0000
1000
,  // measure 46
0100
0000
1000
0001
,  // measure 47
0000
0100
0001
0000
,  // measure 48
0010
1000
0000
0100
,  // measure 49
0010
0000
0001
0100
,  // measure 50
0000
0100
0010
0000
,  // measure 51
0010
0001
0000
0001
,  // measure 52
1000
0010
0001
0200
,  // measure 53
0000
0300
2200
0000
,  // measure 54
3300
0020
0000
0030
,  // measure 55
2020
0000
3030
0002
,  // measure 56
0000
0003
0022
0000
,  // measure 57
0033
0220
0000
0330
,  // measure 58
2020
0000
3030
0202
,  // measure 59
0000
0303
2002
0000
,  // measure 60
3003
0000
0010
0000
,  // measure 61
0100
0000
1000
0000
,  // measure 62
0100
0000
0001
0000
,  // measure 63
1000
0100
0010
1000
,  // measure 64
1000
0000
0000
0010
,  // measure 65
0010
0000
0100
0001
,  // measure 66
1000
0000
0010
0100
,  // measure 67
1000
0000
1100
0000
,  // measure 68
0010
1000
0001
0000
,  // measure 69
0011
0000
0101
0000
,  // measure 70
0100
0010
0100
0001
,  // measure 71
0000
0110
0000
0010
,  // measure 72
0000
1000
0100
0100
,  // measure 73
0000
0010
1000
1000
,  // measure 74
0000
0100
0001
0010
,  // measure 75
1000
0100
0000
0010
,  // measure 76
0010
0000
0000
0001
0000
0000
1000
0000
,  // measure 77
0000
0010
0000
0000
0100
0000
0000
1000
,  // measure 78
0000
0202
0000
0303
,  // measure 79
0100
0000
0010
0100
,  // measure 80
0000
0001
0010
0000
,  // measure 81
1000
0001
1000
0010
,  // measure 82
0001
0000
1000
0100
,  // measure 83
0000
0001
1000
0000
,  // measure 84
0010
1000
0010
0010
,  // measure 85
0001
0010
0100
1000
,  // measure 86
0000
1000
0100
0000
,  // measure 87
0001
0002
0000
0003
,  // measure 88
0100
0010
1000
0001
,  // measure 89
0100
1000
0020
0030
,  // measure 90
1000
2000
0000
3000
,  // measure 91
0100
0010
0001
1000
,  // measure 92
0100
0010
0010
0000
,  // measure 93
0001
2002
0000
0000
,  // measure 94
3003
0000
0000
0200
,  // measure 95
0000
0000
2300
0000
,  // measure 96
0000
3200
0000
0000
,  // measure 97
0302
0000
0000
0023
,  // measure 98
0000
0000
0030
0100
,  // measure 99
0000
0001
1000
0000
,  // measure 100
0100
0010
0100
1000
,  // measure 101
1001
0000
0000
0000
;
