#TITLE:JUGGLE;
#SUBTITLE:;
#ARTIST:Ras;
#TITLETRANSLIT:;
#SUBTITLETRANSLIT:;
#ARTISTTRANSLIT:;
#GENRE:;
#CREDIT:;
#BANNER:JUGGLE.png;
#BACKGROUND:JUGGLE-bg.png;
#LYRICSPATH:;
#CDTITLE:;
#MUSIC:JUGGLE.ogg;
#OFFSET:-0.622478;
#SAMPLESTART:20.069897;
#SAMPLELENGTH:12.972973;
#SELECTABLE:YES;
#BPMS:0.000000=148.000000
;
#STOPS:
;
#BGCHANGES:;
#KEYSOUNDS:;
#ATTACKS:;

//---------------dance-single - ----------------
#NOTES:
     dance-single:
     :
     Hard:
     14:
     0.585852,0.730802,0.338923,0.296557,0.321977,484.000000,444.000000,40.000000,35.000000,0.000000,0.000000,0.585852,0.730802,0.338923,0.296557,0.321977,484.000000,444.000000,40.000000,35.000000,0.000000,0.000000:
0000
0000
0000
0000
,
0000
0000
0000
0000
,
0000
0000
0000
0000
,
0000
0000
0000
0000
,
1001
0000
0000
0000
0010
0000
0000
0000
0100
0000
0000
0001
0000
0000
0001
0000
,
0000
0000
0010
0000
0100
0000
0010
0000
1000
0000
0000
0100
0000
0000
0100
0000
,
1100
0000
0000
0000
0001
0000
0000
0000
0010
0000
0000
1000
0000
0000
1000
0000
,
0001
0000
0010
0000
0100
0000
0001
0000
0100
0000
0000
0010
0000
0000
0010
0000
,
1000
0000
0100
0000
0000
0001
0000
0000
0100
0000
0000
0010
0000
0000
0100
0000
,
0001
0000
1000
0000
0000
0010
0000
0000
1000
0000
0000
0001
0000
0000
0100
0000
,
0100
0000
0010
0000
0000
1000
0000
0000
0101
0000
0000
0011
0000
0000
0110
0000
,
0000
1100
0000
0000
1001
0000
0000
1100
0000
0000
0220
0000
0000
0000
0330
0000
,
1000
0000
0001
1000
0000
0001
0000
0010
0000
0010
0100
0000
0010
0000
1000
0000
,
0100
0000
1000
0001
0000
0010
0000
0100
0000
0100
0001
0000
0010
0000
0001
0000
,
0010
0000
1000
0010
0000
0100
0000
0001
0000
0001
1000
0000
0100
0000
0010
0000
,
0100
0000
0001
0100
0000
0010
0000
1000
0000
1000
0001
0000
1001
0000
0001
0000
,
0100
0000
1000
0100
0000
0010
0000
0100
0000
0010
0001
0000
1000
0000
1000
0000
,
0100
0000
0010
0001
0000
0010
0000
1000
0000
0100
1000
0000
0001
0000
0001
0000
,
0010
0000
0100
1000
0000
0100
0000
0001
0000
0010
1000
0000
0010
0000
0010
0000
,
0001
0000
1000
0010
0000
0100
1000
0100
0000
0010
0000
0002
0100
0000
0103
0000
,
1000
0010
0100
0010
0001
0100
1000
0000
,
0001
1000
0001
0010
0001
0100
0010
0000
,
0100
1000
0010
0100
0010
0001
1000
0000
,
0001
1000
0010
1000
0100
0010
0001
0000
,
0010
0100
0010
0100
0010
0001
1100
0000
,
0001
1000
0001
0010
0100
1000
0011
0000
,
0100
0001
0010
0001
0010
1000
0110
0000
,
2000
0000
0000
0001
0000
0001
0000
0001
3000
0010
0100
0000
0101
0000
0000
0000
,
2200
3000
0010
0001
,
1000
0000
1000
0300
0020
0000
0000
0000
,
0002
0030
0100
1000
,
0010
0000
0010
0000
1003
0010
0001
0100
,
2000
0001
0000
0010
,
0100
0000
0100
3000
0002
0000
0000
0200
,
0003
0010
1000
1000
,
0301
0010
0100
1001
,
0100
0001
0010
0000
1000
0100
1000
0001
,
0100
0010
0000
0100
0010
0000
0001
0000
0010
0000
0100
0000
1100
0000
1000
0000
,
0000
0001
0100
0100
0010
1000
0010
0100
,
0000
0010
0010
1000
0100
1000
1001
0001
,
0000
0000
0010
1000
0020
0000
0000
0000
0130
0000
1000
0000
0001
0000
0000
0000
,
0010
0000
1000
0001
0000
1000
0000
0100
1000
0000
0010
0000
0011
0000
0000
0000
,
0000
0000
0100
0001
0200
0000
0000
0000
1300
0000
0001
0000
0001
0000
0000
0000
,
0010
1000
0100
1000
0001
0010
1010
0000
,
0002
0203
0320
2030
,
3200
0000
0000
0000
2300
0000
0000
0000
3001
0000
0000
0011
0000
0000
1010
0000
,
0200
0320
0230
2300
,
3002
0000
0000
0000
0000
0000
0000
0000
0000
0000
0000
0000
0013
0000
0000
0000
0000
0000
0000
0000
0000
1001
0000
0000
0000
0000
0000
1000
0000
0000
0100
0000
0000
0000
0000
0000
0101
0000
0000
0000
0001
0000
0000
0000
0010
0000
0000
0000
,
1100
0000
0100
0000
1000
0000
0100
1000
0010
0000
0001
0000
0010
0000
1000
0001
,
0100
0000
0001
0000
0010
0000
1000
0100
0010
0000
0200
0000
1000
0000
1300
0000
,
0010
0001
0010
0000
1000
0010
1000
0000
0001
1000
0001
0000
0100
0001
0100
0000
,
1010
0010
0001
1000
0010
0100
0201
0000
,
1300
0000
0010
0000
0100
0001
0100
0010
,
0001
0000
1000
0000
0010
0100
1000
0100
,
0010
0000
0001
0000
1000
0001
1000
0010
,
0100
0000
0001
0000
1000
1000
0010
0100
,
0001
0000
1100
0000
0010
0001
0010
1000
,
0001
0000
1001
0000
0100
1000
0001
0010
,
0001
0000
0110
0000
0100
0001
1000
0010
,
0100
0000
0000
0000
0000
0000
0000
0000
0000
0000
0000
0000
0011
0000
0000
0000
0000
0000
0000
0000
0000
0000
0000
0000
1100
0000
0000
0000
0000
0000
0000
0000
0000
0101
0000
0000
0000
0000
0000
0000
0010
0000
0000
0000
0100
0000
0000
0000
,
1020
0000
0100
0000
0130
1000
0010
0100
,
0002
0000
1000
0000
1003
0010
0100
0010
,
0200
0000
0001
0000
0301
0010
1000
0100
,
2000
0000
0010
0000
3010
0100
0101
0001
,
0020
0000
0031
1000
0001
0100
0010
1000
,
0200
0000
0310
0001
0001
0010
1000
0100
,
2000
0000
3010
0100
0001
0010
1000
0100
,
0002
0000
0000
0000
1003
0000
0000
0101
0000
0000
0011
0000
0000
1000
0010
1000
,
0100
0000
0101
0000
1000
0000
0010
0100
,
0010
0000
1001
0000
0001
0000
0100
0100
,
1000
0001
1000
0001
0010
0001
0100
1000
,
0020
0000
0000
0000
0130
0000
0000
0100
0000
1000
0001
0000
1010
0000
0010
0000
;

//---------------dance-single - ----------------
#NOTES:
     dance-single:
     :
     Medium:
     9:
     0.415180,0.455957,0.127096,0.186407,0.038129,343.000000,328.000000,15.000000,22.000000,0.000000,0.000000,0.415180,0.455957,0.127096,0.186407,0.038129,343.000000,328.000000,15.000000,22.000000,0.000000,0.000000:
0000
0000
0000
0000
,
0000
0000
0000
0000
,
0000
0000
0000
0000
,
0000
0000
0000
0000
,
2000
0000
0001
0000
0100
0000
3010
0100
,
0020
0000
1000
0000
0001
0000
0130
1000
,
0200
0000
1000
0000
0010
0000
0301
1000
,
0002
0000
0000
0000
1000
0000
0000
0000
0010
0000
0000
0003
0100
0000
0100
0000
,
0020
0000
0130
0000
0001
0010
1000
0000
,
0002
0000
0013
0000
1000
0100
0010
0000
,
0100
0000
0001
0000
0000
1000
0000
0000
0001
0000
0000
1000
0000
0000
0001
0000
,
0000
0010
0000
0000
0100
0000
0000
0010
0000
0000
0220
0000
0000
0000
0330
0000
,
0001
0000
0100
0000
1000
0001
0100
0001
,
1000
0000
0010
0000
0100
1000
0001
1000
,
0100
0000
0001
0000
0100
0010
1000
0010
,
0100
0000
1000
0000
0001
0100
1000
0100
,
0010
0000
0001
0000
0010
0100
0001
0010
,
0100
0000
1000
0000
0001
1000
0100
0001
,
1000
0000
0010
0000
0100
0001
0010
0100
,
0001
0000
0100
1000
1000
0000
1001
0000
,
0010
0100
0010
0000
1000
0000
0100
0010
,
0100
1000
0001
0000
0100
0000
0001
0010
,
1000
0001
1000
0000
0010
0000
1000
0001
,
0100
1000
0100
0000
0001
0000
1000
0100
,
0010
0000
0001
1000
0100
0000
0001
0010
,
1000
0000
0100
0001
0010
0000
1000
0001
,
0001
1000
0010
0000
0001
0100
0010
0000
,
2100
0100
3100
1001
,
0020
0000
0100
0000
,
0001
0000
2000
0030
,
0200
3000
0001
0000
,
0010
0000
0000
0000
1300
0010
1000
0000
,
0002
0000
0100
0000
,
1000
0000
0003
0000
0200
0000
0000
0020
,
0000
0000
0000
0000
,
0330
0000
0000
1100
,
0010
0000
0010
0000
0100
1000
0010
0000
,
0001
0100
0100
0001
1000
0000
1000
0000
,
0010
0000
1000
0000
1000
0100
0001
0000
,
0100
1000
0100
0001
1000
0000
0110
0000
,
0001
0000
0001
0000
0100
0010
0100
0000
,
1000
0000
0010
0001
0010
0100
0001
0000
,
0100
0000
0100
0000
0001
0010
1000
0000
,
0200
0001
0301
0011
,
1000
0010
0001
0010
,
1000
0000
0000
0000
0100
0000
0000
0000
0001
0000
0000
0100
0000
0000
0001
0000
,
0010
1000
0100
0001
,
1000
0000
0000
0000
0010
0000
0000
1000
0000
0000
0010
0000
0100
0000
0100
0000
,
1000
0000
1010
0000
0010
0001
1000
0010
,
0100
0000
0110
0000
1000
1000
0002
0000
,
1003
0100
0100
0000
0001
0010
0010
0000
,
1010
0000
0000
0110
,
0001
0000
0100
0000
0001
0000
0100
0010
,
1000
0000
0010
0000
1000
0000
0010
1000
,
0001
0000
1000
0000
0001
0000
1000
0100
,
0010
0000
0100
0000
0010
0100
0110
0000
,
1000
0000
0001
0000
1000
0010
0100
0000
,
0100
0000
1000
0000
0010
0100
0001
0000
,
0100
0000
0001
0000
0010
0100
1000
0000
,
0001
0000
0000
0000
0000
0000
0000
0000
0000
0000
0000
0000
0100
0000
0000
0000
0000
0000
0000
0000
0000
0000
0000
0000
1000
0000
0000
0000
0000
0000
0000
0000
0000
0001
0000
0000
0000
0000
0000
0000
0010
0000
0000
0000
1000
0000
0000
0000
,
0020
1000
0001
1000
,
2030
0010
0001
0010
,
3002
1000
0100
1003
,
0200
0010
1000
0010
,
0301
0000
0001
0000
0100
1000
0001
0100
,
0010
0000
0010
0000
1000
0001
0010
1000
,
0100
0000
0100
0000
0010
0100
1000
0010
,
1000
0000
0001
0000
0110
0000
1001
0001
,
1000
0000
0010
0000
0001
0000
0010
0100
,
0010
0000
0100
0000
1000
0000
0001
1000
,
0001
0000
1000
0000
0100
0000
0010
0100
,
0020
1000
1030
0101
;

//---------------dance-single - ----------------
#NOTES:
     dance-single:
     :
     Easy:
     6:
     0.283243,0.334368,0.101677,0.330450,0.000000,234.000000,222.000000,12.000000,39.000000,0.000000,0.000000,0.283243,0.334368,0.101677,0.330450,0.000000,234.000000,222.000000,12.000000,39.000000,0.000000,0.000000:
0000
0000
0000
0000
,
0000
0000
0000
0000
,
0000
0000
0000
0000
,
0000
0000
0000
0000
,
0020
0000
1000
1030
,
0200
0000
0010
0310
,
0002
0000
0100
0103
,
2000
0000
0001
3001
,
0010
1000
0010
0010
,
0100
0010
1000
1000
,
0001
0100
1000
0100
,
0001
0100
2200
3300
,
0020
0030
1000
0010
,
2000
3000
0001
0010
,
0002
0003
0100
0010
,
0200
0300
2002
3003
,
0001
0010
1000
0001
,
0100
0010
1000
0010
,
1000
0100
1000
0010
,
0100
0100
0202
0303
,
0100
0010
0100
0010
,
0001
0100
0001
0100
,
1000
0001
1000
0001
,
0010
1000
0010
1000
,
0100
0100
1000
0001
,
1000
1000
0010
1000
,
0010
0010
0100
0001
,
1000
0000
0000
1010
,
0020
0000
0000
0000
,
0000
0030
2000
3000
,
0200
0000
0000
0000
,
0300
0000
0000
0001
,
0002
0000
0000
0000
,
0003
0000
0020
0030
,
2000
0000
0000
0000
,
3000
0000
0000
0110
,
1000
0100
0010
0010
,
0001
0100
0010
0010
,
0000
1000
0001
0001
,
0000
0100
1000
1001
,
0000
1000
0010
0100
,
1000
1000
0010
0100
,
0000
0001
1000
0010
,
0200
0000
0300
0011
,
0100
0100
1000
1000
,
0001
0001
0010
0100
,
0010
0010
0100
0100
,
0001
0001
1000
0100
,
2000
0010
0010
3100
,
0002
0000
1000
0000
1000
0003
0000
0000
,
0020
1000
0001
0100
,
1030
0000
0000
1001
,
0020
1000
0100
0100
,
0031
1000
0001
0010
,
2000
0010
0001
0001
,
3100
1000
0010
1000
,
0200
1000
0010
0010
,
0301
1000
0100
1000
,
0002
0010
0100
0100
,
1003
0001
0010
0011
,
0020
0130
1000
0100
,
2000
3010
1000
0010
,
0200
0301
1000
0001
,
0020
0130
0001
0100
,
2000
3001
0100
0010
,
0002
1003
0100
0010
,
0200
0301
1000
0010
,
0100
1100
1000
1001
,
0002
0003
1000
0010
,
0200
0300
0010
0001
,
2000
3000
0010
0100
,
0200
0300
0001
1001
;

//---------------dance-single - ----------------
#NOTES:
     dance-single:
     :
     Beginner:
     4:
     0.182776,0.243177,0.067785,0.076258,0.000000,151.000000,143.000000,8.000000,9.000000,0.000000,0.000000,0.182776,0.243177,0.067785,0.076258,0.000000,151.000000,143.000000,8.000000,9.000000,0.000000,0.000000:
// measure 0
0000
0000
0000
0000
,  // measure 1
0000
0000
0000
0000
,  // measure 2
0000
0000
0000
0000
,  // measure 3
0000
0000
0000
0000
,  // measure 4
0100
0000
0100
0000
,  // measure 5
1000
0000
1000
0000
,  // measure 6
0001
0000
0001
0000
,  // measure 7
0010
0000
0010
0000
,  // measure 8
0100
0100
0100
0000
,  // measure 9
0001
0001
0001
0000
,  // measure 10
1000
1000
1000
0000
,  // measure 11
0010
0000
0110
0000
,  // measure 12
2000
0000
3000
0001
,  // measure 13
0002
0000
0003
0100
,  // measure 14
0200
0000
0300
0010
,  // measure 15
0020
0000
0030
0001
,  // measure 16
0001
0000
1000
0000
,  // measure 17
0100
0000
1000
0000
,  // measure 18
0010
0000
0100
0000
,  // measure 19
0001
0000
1001
0000
,  // measure 20
0100
0100
0100
0000
,  // measure 21
1000
1000
1000
0000
,  // measure 22
0001
0001
0001
0000
,  // measure 23
0010
0010
0010
0000
,  // measure 24
0100
0000
0001
0001
,  // measure 25
0001
0000
1000
1000
,  // measure 26
1000
0000
0010
0010
,  // measure 27
0010
0000
0000
0100
,  // measure 28
0200
0000
0000
0000
,  // measure 29
0300
0000
0000
0000
,  // measure 30
2000
0000
0000
0000
,  // measure 31
3000
0000
0000
0000
,  // measure 32
0020
0000
0000
0000
,  // measure 33
0030
0000
0000
0000
,  // measure 34
0002
0000
0000
0000
,  // measure 35
0003
0000
0000
0000
,  // measure 36
1001
0000
0001
0000
,  // measure 37
0010
0010
0010
0000
,  // measure 38
0100
0000
1000
0000
,  // measure 39
0100
0100
0100
0000
,  // measure 40
0001
0000
0010
0000
,  // measure 41
1000
1000
1000
0000
,  // measure 42
0001
0000
0100
0000
,  // measure 43
0010
0000
0000
1001
,  // measure 44
0000
0100
0000
0010
,  // measure 45
0000
1000
1000
1000
,  // measure 46
0000
0001
0000
0010
,  // measure 47
0000
0100
0100
0100
,  // measure 48
0000
1000
0000
0001
,  // measure 49
0000
1000
0000
0010
,  // measure 50
0020
0000
0000
0000
,  // measure 51
0030
0000
0000
0110
,  // measure 52
0000
1000
0000
0001
,  // measure 53
0000
0010
0000
0001
,  // measure 54
0000
0100
0000
0010
,  // measure 55
0000
1000
0000
0001
,  // measure 56
0000
1000
1000
1000
,  // measure 57
0000
0001
0001
0001
,  // measure 58
0000
0010
0010
0010
,  // measure 59
0000
0100
0100
0000
,  // measure 60
1001
0000
0010
0000
,  // measure 61
1000
1000
1000
0000
,  // measure 62
0100
0000
0001
0000
,  // measure 63
0010
0010
0010
0000
,  // measure 64
1000
0000
0010
0000
,  // measure 65
0001
0001
0001
0000
,  // measure 66
0010
0000
0010
0000
,  // measure 67
1000
0000
0001
0000
,  // measure 68
1001
0000
0000
0100
,  // measure 69
0100
0000
0000
1000
,  // measure 70
1000
0000
0000
0001
,  // measure 71
0001
0000
0000
1001
;
