#TITLE:If;
#SUBTITLE:;
#ARTIST:Pa's Lam System;
#TITLETRANSLIT:;
#SUBTITLETRANSLIT:;
#ARTISTTRANSLIT:;
#GENRE:;
#CREDIT:;
#BANNER:If.png;
#BACKGROUND:If-bg.png;
#LYRICSPATH:;
#CDTITLE:;
#MUSIC:If.mp3;
#OFFSET:-1.420605;
#SAMPLESTART:36.714722;
#SAMPLELENGTH:11.294121;
#SELECTABLE:YES;
#BPMS:0.000000=170.000000
;
#STOPS:
;
#BGCHANGES:;
#KEYSOUNDS:;
#ATTACKS:;

//---------------dance-single - ----------------
#NOTES:
     dance-single:
     :
     Hard:
     14:
     0.642158,0.807379,0.508375,0.231890,0.356754,421.000000,57.000000,26.000000,0.000000,0.000000,0.000000,0.642158,0.807379,0.508375,0.231890,0.356754,421.000000,57.000000,26.000000,0.000000,0.000000,0.000000:
0000
0000
0000
0000
,
0000
0000
0000
0000
,
0000
0000
0000
0000
,
0000
0000
0000
0000
,
0000
0000
0000
0000
,
0000
0000
0000
0000
,
0000
0000
0000
0000
,
0000
0000
0000
0000
,
0000
0000
0000
0000
,
1010
1000
1000
1000
,
0011
0010
0110
0100
,
0101
0001
0001
0001
,
1001
1000
1100
0100
,
0110
1000
0100
0010
,
0101
0001
0011
0001
,
1100
0001
0100
0010
,
0001
0001
0010
0010
0100
1000
0100
0010
,
0100
0000
0000
0000
0100
0000
0000
0000
0100
0000
0000
1000
0000
0000
0010
0000
,
0001
0000
0000
0000
0001
0000
0000
0000
0001
0000
0000
0010
0000
0000
0001
0000
,
0010
0000
0000
0000
0010
0000
0000
0000
0010
0000
0000
1000
0000
0000
0100
0000
,
1000
0000
0000
0000
1000
0000
0000
0000
1000
0000
0000
0100
0000
0000
0010
0000
,
0001
0100
1000
0100
0010
0001
0010
1000
,
0100
0010
1000
0001
1000
0100
0010
0001
,
1000
0100
1000
0100
1000
0100
1000
0100
1000
0010
1000
0010
1000
0001
1000
0001
,
2000
0001
0002
3003
,
0110
0000
0000
0000
0010
1000
0010
1000
0010
0000
0100
0000
0000
0000
0101
0000
,
0000
0000
0001
0100
0001
0100
0001
0000
0010
0000
0000
0000
1000
0000
0000
0000
,
0101
0000
0000
0000
0100
0010
0100
0010
0100
0000
0000
1000
0000
0000
0011
0000
,
0000
0000
1000
0001
1000
0001
1000
0000
0110
0000
0000
0000
0110
0000
0000
0000
,
1000
0000
0000
0000
0100
1000
0100
0010
0100
0000
0010
0001
0010
0000
1100
0000
,
0000
0100
0010
0000
0010
0100
0010
0000
0001
0000
0000
0000
1000
0000
0000
0000
,
1001
0000
0000
1000
0010
0000
1010
0000
0000
0001
0100
0000
0101
0000
0000
0100
,
0010
0000
0110
0000
0000
0001
1000
0000
1001
0000
0000
0000
0011
0000
0000
0000
,
2000
0000
0000
0000
3010
0001
0010
0001
1000
0000
0100
0000
0000
0000
1100
0000
,
0000
0000
0001
0000
0100
0001
0100
0001
0020
0000
0000
0000
0130
0000
0000
0000
,
0011
0000
0000
0000
1000
0001
1000
0001
0010
0000
0010
0100
0000
0100
1000
0000
,
0000
0000
0100
0000
0100
0010
0001
0010
0100
0000
0000
0000
0010
0000
0000
0000
,
1001
0000
0000
0000
1000
0100
1000
0100
1000
0000
0000
0001
0000
0000
0011
0000
,
0000
0000
0010
0100
0010
0100
1000
0000
0010
0000
0000
0000
0100
0000
0000
0000
,
1010
0000
1000
0011
0000
0010
0101
0000
,
0001
1100
0000
0100
1001
0000
0200
0000
,
0300
0000
0010
0000
0010
0100
0010
0001
,
0000
1000
0001
1000
0010
0000
0100
0000
,
0011
0000
0100
0010
0100
0001
0000
0010
,
0000
0100
0000
0100
0001
0010
0001
0000
,
1001
0000
0100
1000
0010
0100
0000
0001
,
0000
0010
0100
0010
1000
0000
0011
0000
,
0100
0010
0100
0001
0000
0010
0000
1000
,
0000
1000
0001
0000
0010
0100
0001
1000
,
0020
0000
0000
0000
1000
0000
0000
0000
0100
0000
0000
0000
1030
0000
1000
0001
,
2000
0000
0000
0000
3010
0000
0000
0000
0200
0000
0000
0000
0301
0000
0010
1000
,
0020
0000
0030
0000
0020
0000
0030
0000
0020
0000
0000
0000
0130
0000
0001
0100
,
0002
1003
2000
3100
,
0010
1000
0010
1000
0100
1000
0100
1000
,
0010
0001
0100
0010
0001
1000
0100
0010
,
2200
0000
3300
0220
0000
0330
0022
0000
,
0033
2020
0000
3030
0200
0000
0002
0000
,
0303
0000
0000
0000
0010
0000
0100
0001
0100
0000
0001
0000
0010
0000
1000
0000
,
0000
0000
0010
0000
0100
0000
0001
0100
0010
0000
0000
0000
0001
0000
0000
0000
,
0010
0000
0000
0000
1000
0100
1000
0100
0010
0000
0001
0000
0000
0000
0110
0000
,
0000
0000
0001
0010
1000
0010
0001
0000
1001
0000
0000
0000
0110
0000
0000
0000
,
0101
0000
0000
0000
0010
0001
0010
0000
0001
0000
0100
1000
0100
0000
0110
0000
,
0000
0000
1000
0000
1000
0010
0100
0010
0100
0000
0000
0000
1100
0000
0000
0000
,
0100
0000
0010
1000
0010
0000
0100
0000
0001
0010
0001
0000
0100
0000
0010
0001
,
0010
0000
1000
0000
0001
0100
0001
0000
0110
0000
0000
0000
0110
0000
0000
0000
,
0002
0000
0000
0000
0013
0100
0010
0100
0010
0000
1000
0000
0001
0000
1010
0000
,
0000
0000
0100
0001
1000
0001
0100
0001
0020
0000
0000
0000
1030
0000
1000
0010
,
1000
0000
0000
0000
0001
1000
0001
1000
0010
0000
0000
0100
0000
0000
1010
0000
,
0000
0000
0100
0001
1000
0001
0100
0000
1010
0000
0000
0000
0101
0000
0000
0000
,
0011
0000
0000
0000
0100
0010
0100
0000
0101
0000
0000
1010
0000
0000
0101
0000
,
0000
0000
0001
0010
0001
0010
0001
0000
0100
0000
0000
0000
0100
0000
0000
0000
,
0010
0000
0000
0100
0000
0000
0011
0000
0000
0100
0000
0000
1100
0000
0000
0001
,
0000
1000
0010
0100
1000
0001
0001
0100
,
2000
0000
0000
0000
,
0000
0000
0000
0000
,
0000
0000
0000
0000
0000
0000
0000
3000
0000
0000
0000
0000
0000
0000
0000
0000
;

//---------------dance-single - ----------------
#NOTES:
     dance-single:
     :
     Medium:
     10:
     0.479070,0.470971,0.338917,0.294322,0.013378,305.000000,38.000000,33.000000,0.000000,0.000000,0.000000,0.479070,0.470971,0.338917,0.294322,0.013378,305.000000,38.000000,33.000000,0.000000,0.000000,0.000000:
0000
0000
0000
0000
,
0000
0000
0000
0000
,
0000
0000
0000
0000
,
0000
0000
0000
0000
,
0000
0000
0000
0000
,
0000
0000
0000
0000
,
0000
0000
0000
0000
,
0000
0000
0000
0000
,
0000
0000
0000
0000
,
0010
1000
0100
1000
,
0001
0010
0100
0001
,
1000
0100
0010
0100
,
0001
0100
1000
0100
,
1000
0100
0001
0100
,
1000
0010
0001
0100
,
0010
0001
0100
0100
,
0020
0000
2000
3030
,
0200
0010
0010
0310
,
0002
1000
1000
1003
,
2000
0100
0100
3100
,
0020
0001
0001
0031
,
2000
3010
0200
1300
,
0002
1003
0020
0031
,
0010
0001
1000
0100
1000
0001
0100
0000
,
2002
0000
0000
3003
,
1100
0000
0100
0010
0100
1000
0000
0101
,
0000
1000
0010
0100
0001
0000
0001
0000
,
1001
0000
0000
0000
0010
0000
0001
0000
1000
0000
0000
0001
0000
0000
0100
0000
,
0000
1000
0010
0001
0010
0000
0100
0000
,
0011
0000
1000
0100
0100
1000
0010
0001
,
0000
0100
0010
0001
0100
0000
1000
0000
,
0101
0000
0000
0011
0000
0000
1010
0000
,
0000
0110
0000
0000
1010
0000
1001
0000
,
0020
0000
0031
0100
0001
0010
0000
1000
,
0000
1000
0100
1000
0002
0000
1003
0000
,
1001
0000
0010
0001
1000
0010
0000
1000
,
0000
1000
0010
0001
0100
0000
0001
0000
,
0110
0000
0000
0000
0001
0000
0010
0000
0100
0000
0000
1000
0000
0000
0010
0000
,
0000
0001
1000
0010
1000
0000
0100
0000
,
1001
0000
0000
0011
0000
0000
1010
0000
,
0000
1100
0000
0000
0101
0000
0100
0000
,
2002
0000
0000
0000
3000
0100
1003
0200
,
0000
0000
0010
1000
0320
0000
0032
0000
,
2003
0000
0100
0100
0000
0010
3001
0020
,
0000
0100
1000
0000
0031
0000
1000
0000
,
1200
0000
0010
0000
0301
1000
0010
0002
,
0000
0000
0100
0010
0203
0000
0320
0000
,
0032
0000
0100
1000
0000
1000
0003
1000
,
2000
3020
0200
0330
,
0011
0010
0010
0010
,
1100
1000
1000
1000
,
0101
0100
0100
0100
,
1001
0001
0001
0001
,
0100
0010
0100
0000
1000
0100
1000
0000
,
0100
1000
0100
0010
0001
0010
1000
0000
,
1010
0000
0000
0110
0000
0000
0011
0000
,
0000
0101
0000
0000
0010
0000
1010
0000
,
0000
0000
0001
0010
0100
0010
1000
0010
,
0000
1000
0001
0100
0010
0000
1000
0000
,
0011
0000
0010
0100
1000
0010
0100
0010
,
0000
0100
1000
0100
0010
0000
0010
0000
,
1001
0000
0100
0100
1000
0001
0100
1000
,
0000
0010
0001
1000
0001
0000
1000
0000
,
0110
0000
1000
0100
0001
0100
0001
0010
,
0000
0010
1000
0010
1000
0000
0022
0000
,
0033
0000
0010
0010
0010
0100
1000
0010
,
0000
0100
0010
0001
2000
0000
3100
0010
,
0100
0000
0100
0001
0010
0001
1000
0010
,
0000
0100
1000
0100
0001
0000
0100
0000
,
0101
0000
0000
0000
1000
0000
0100
0000
0001
0000
0000
1000
0000
0000
0110
0000
,
0000
1000
0001
1000
0001
0000
0100
0000
,
1100
0000
0000
1001
0000
0000
0101
0000
,
0000
1000
0001
0100
0001
1000
0100
1000
,
0020
0000
0000
0000
,
0000
0000
0000
0000
,
0000
0000
0000
0000
0000
0000
0000
0030
0000
0000
0000
0000
0000
0000
0000
0000
;

//---------------dance-single - ----------------
#NOTES:
     dance-single:
     :
     Easy:
     7:
     0.307063,0.390646,0.160539,0.338917,0.000000,185.000000,18.000000,38.000000,0.000000,0.000000,0.000000,0.307063,0.390646,0.160539,0.338917,0.000000,185.000000,18.000000,38.000000,0.000000,0.000000,0.000000:
// measure 0
0000
0000
0000
0000
,  // measure 1
0000
0000
0000
0000
,  // measure 2
0000
0000
0000
0000
,  // measure 3
0000
0000
0000
0000
,  // measure 4
0000
0000
0000
0000
,  // measure 5
0000
0000
0000
0000
,  // measure 6
0000
0000
0000
0000
,  // measure 7
0000
0000
0000
0000
,  // measure 8
0000
0000
0000
0000
,  // measure 9
0010
0010
0010
0000
,  // measure 10
0100
0100
0100
0000
,  // measure 11
0001
1000
0001
0000
,  // measure 12
0010
0100
0010
0000
,  // measure 13
1000
1000
0001
0001
,  // measure 14
0010
0010
0100
0100
,  // measure 15
1000
0100
0001
0100
,  // measure 16
0010
0000
1001
0000
,  // measure 17
0100
1000
0100
0000
,  // measure 18
0010
0001
0010
0000
,  // measure 19
0100
0010
1000
0000
,  // measure 20
0100
0001
0010
0000
,  // measure 21
1000
0100
0010
0001
,  // measure 22
0010
0100
1000
0001
,  // measure 23
1000
0010
0100
0000
,  // measure 24
2002
0000
0000
3003
,  // measure 25
0020
0000
0130
0010
,  // measure 26
0200
0300
1000
1000
,  // measure 27
0002
1003
0001
0010
,  // measure 28
0020
0030
0100
0100
,  // measure 29
2000
3000
0001
0100
,  // measure 30
0020
0030
0001
0001
,  // measure 31
0010
0000
0000
1000
0000
0000
0100
0000
,  // measure 32
0000
0001
0000
0000
0010
0000
0010
0000
,  // measure 33
0220
0330
0010
1000
,  // measure 34
0002
0003
1001
0000
,  // measure 35
0020
0130
1000
0001
,  // measure 36
2000
3000
1000
1000
,  // measure 37
0200
0300
0010
0010
,  // measure 38
1001
0000
0100
0100
,  // measure 39
0010
0000
0000
0001
0000
0000
1000
0000
,  // measure 40
0000
0100
0000
0000
0010
0000
0000
0000
,  // measure 41
2000
0000
3000
0010
,  // measure 42
0002
0000
0023
0000
,  // measure 43
0230
0000
0300
1000
,  // measure 44
0200
0000
0320
0000
,  // measure 45
2030
0000
3000
0001
,  // measure 46
0002
0000
0023
0000
,  // measure 47
0032
0000
0003
0100
,  // measure 48
0200
0000
2300
3000
,  // measure 49
1000
0001
1000
0000
,  // measure 50
0100
0010
0100
0000
,  // measure 51
0001
0010
1000
0000
,  // measure 52
1000
0010
0001
0000
,  // measure 53
1001
0000
0100
0000
,  // measure 54
0110
0000
0001
0000
,  // measure 55
1000
0000
0000
0001
0000
0000
0010
0000
,  // measure 56
0000
0100
0000
0000
0001
0000
0001
0000
,  // measure 57
0000
0010
1001
0100
,  // measure 58
0000
0001
1001
0010
,  // measure 59
0000
0010
0110
1000
,  // measure 60
0000
0100
1001
0010
,  // measure 61
0000
1000
0100
1000
,  // measure 62
0001
0100
0001
0010
,  // measure 63
2000
3001
0002
0013
,  // measure 64
0020
2030
3002
0023
,  // measure 65
0030
1001
0000
0110
,  // measure 66
0000
1100
0000
0011
,  // measure 67
0000
0010
0001
1000
,  // measure 68
0100
1000
0010
0000
,  // measure 69
2002
3003
0010
0001
,  // measure 70
0220
0330
2002
3003
,  // measure 71
1000
0000
0000
0100
0000
0000
0010
0000
,  // measure 72
0000
0001
0000
0000
0010
0000
1000
0000
,  // measure 73
0001
0000
0000
0000
;
