#VERSION:0.83;
#TITLE:I REALLY WANT TO HURT YOU;
#SUBTITLE:;
#ARTIST:SUGI & REO;
#TITLETRANSLIT:;
#SUBTITLETRANSLIT:;
#ARTISTTRANSLIT:;
#GENRE:;
#ORIGIN:;
#CREDIT:;
#BANNER:I REALLY WANT TO HURT YOU.png;
#BACKGROUND:I REALLY WANT TO HURT YOU-bg.png;
#PREVIEWVID:;
#JACKET:;
#CDIMAGE:;
#DISCIMAGE:;
#LYRICSPATH:;
#CDTITLE:;
#MUSIC:I REALLY WANT TO HURT YOU.ogg;
#OFFSET:-1.037000;
#SAMPLESTART:14.500000;
#SAMPLELENGTH:13.527000;
#SELECTABLE:YES;
#BPMS:0.000=142.000;
#STOPS:;
#DELAYS:;
#WARPS:;
#TIMESIGNATURES:0.000=4=4;
#TICKCOUNTS:0.000=4;
#COMBOS:0.000=1;
#SPEEDS:0.000=1.000=0.000=0;
#SCROLLS:0.000=1.000;
#FAKES:;
#LABELS:0.000=Song Start;
#BGCHANGES:;
#KEYSOUNDS:;
#ATTACKS:
;

//---------------dance-single - ----------------
#NOTEDATA:;
#CHARTNAME:;
#STEPSTYPE:dance-single;
#DESCRIPTION:;
#CHARTSTYLE:;
#DIFFICULTY:Beginner;
#METER:1;
#RADARVALUES:0.082015,0.112988,0.061075,0.036645,0.000000,47.000000,42.000000,5.000000,3.000000,0.000000,0.000000,0.000000,0.000000,0.000000,0.082015,0.112988,0.061075,0.036645,0.000000,47.000000,42.000000,5.000000,3.000000,0.000000,0.000000,0.000000,0.000000,0.000000;
#CREDIT:;
#NOTES:
// measure 0
0000
0000
0000
0000
,  // measure 1
0000
0000
0000
0000
,  // measure 2
0000
0000
0000
0000
,  // measure 3
0000
0000
0000
0000
,  // measure 4
0001
0000
0000
0000
,  // measure 5
0001
0000
0000
0000
,  // measure 6
1000
0000
0000
0000
,  // measure 7
1000
0000
0000
0000
,  // measure 8
1001
0000
0000
0000
,  // measure 9
0100
0000
0000
0000
,  // measure 10
0010
0000
0000
0000
,  // measure 11
0100
0000
0000
0000
,  // measure 12
0001
0000
0000
0000
,  // measure 13
1000
0000
0000
0000
,  // measure 14
0001
0000
0000
0000
,  // measure 15
1000
0000
0000
0000
,  // measure 16
0100
0000
0000
0000
,  // measure 17
0010
0000
0000
0000
,  // measure 18
0100
0000
0000
0000
,  // measure 19
0010
0000
0000
0000
,  // measure 20
1000
0000
0000
0000
,  // measure 21
0001
0000
0000
0000
,  // measure 22
1000
0000
0000
0000
,  // measure 23
0001
0000
0000
0000
,  // measure 24
1001
0000
0000
0000
,  // measure 25
1000
0000
0000
0000
,  // measure 26
0001
0000
0000
0000
,  // measure 27
0001
0000
0000
0000
,  // measure 28
0110
0000
0000
0000
,  // measure 29
0010
0000
0000
0000
,  // measure 30
0100
0000
0000
0000
,  // measure 31
0100
0000
0000
0000
,  // measure 32
2000
0000
0000
0000
,  // measure 33
3000
0000
0000
0000
,  // measure 34
0001
0000
0001
0000
,  // measure 35
0002
0000
0000
0000
,  // measure 36
0003
0000
0110
0000
,  // measure 37
0000
0000
0100
0000
,  // measure 38
0000
0000
0010
0000
,  // measure 39
0000
0000
0100
0000
,  // measure 40
0000
0000
1000
0000
,  // measure 41
0000
0000
0001
0000
,  // measure 42
0000
0000
1000
0000
,  // measure 43
0000
0000
0001
0000
,  // measure 44
0000
0000
0200
0000
,  // measure 45
0000
0000
0300
0000
,  // measure 46
0000
1001
0000
0000
;

//---------------dance-single - ----------------
#NOTEDATA:;
#CHARTNAME:;
#STEPSTYPE:dance-single;
#DESCRIPTION:;
#CHARTSTYLE:;
#DIFFICULTY:Easy;
#METER:4;
#RADARVALUES:0.225104,0.254223,0.073290,0.293158,0.000000,129.000000,123.000000,6.000000,24.000000,0.000000,0.000000,0.000000,0.000000,0.000000,0.225104,0.254223,0.073290,0.293158,0.000000,129.000000,123.000000,6.000000,24.000000,0.000000,0.000000,0.000000,0.000000,0.000000;
#CREDIT:;
#NOTES:
0000
0000
0000
0000
,
0000
0000
0000
0000
,
0000
0000
0000
0000
,
0000
0000
0000
0000
,
0010
1000
0000
0001
,
0000
0100
0000
0001
,
0010
0010
0100
0100
,
1000
0100
0001
0000
,
1001
0000
0010
0100
,
0020
0000
0030
1000
,
0001
0001
1000
0100
,
0200
0000
0300
0010
,
1000
1000
0001
1000
,
0002
0003
0200
0300
,
0010
0100
0010
1000
,
0100
0100
0200
0300
,
0010
0001
1000
0001
,
0002
0000
0003
0010
,
0100
0100
0010
1000
,
0200
0000
0300
0001
,
0010
0010
0100
0010
,
0002
0003
0200
0300
,
0010
0001
0010
0100
,
0001
1000
0010
0000
,
0110
0000
0100
1000
,
0010
1000
0001
0010
,
2000
3000
0002
0003
,
0010
1000
0100
0000
,
1001
0000
0100
0000
,
0010
0010
1000
0100
,
0200
0300
0020
0030
,
0002
0003
2000
3000
,
0001
0001
0010
0000
,
0100
0100
0010
0000
,
1000
0100
0001
0010
,
0100
0000
0010
0000
,
0110
0000
0001
0100
,
1000
0100
0002
0000
,
0003
0010
1000
1000
,
0100
0001
0020
0000
,
0030
0100
0001
0001
,
1000
0001
0020
0030
,
2000
3000
0100
1000
,
0200
0300
0010
1000
,
0020
0030
2002
0000
,
3003
0000
2000
0000
,
3000
0110
0000
0000
;

//---------------dance-single - ----------------
#NOTEDATA:;
#CHARTNAME:;
#STEPSTYPE:dance-single;
#DESCRIPTION:;
#CHARTSTYLE:;
#DIFFICULTY:Medium;
#METER:7;
#RADARVALUES:0.322823,0.396527,0.134364,0.451953,0.000000,185.000000,174.000000,11.000000,37.000000,0.000000,0.000000,0.000000,0.000000,0.000000,0.322823,0.396527,0.134364,0.451953,0.000000,185.000000,174.000000,11.000000,37.000000,0.000000,0.000000,0.000000,0.000000,0.000000;
#CREDIT:;
#NOTES:
0000
0000
0000
0000
,
0000
0000
0000
0000
,
0000
0000
0000
0000
,
0000
0000
0000
0000
,
0010
0000
1000
0000
0010
0000
0100
0001
,
0000
1000
0000
0100
0000
1000
0001
0000
,
0100
0000
0010
0100
0000
0001
0000
0210
,
0000
1000
0000
0010
0000
1000
0300
0000
,
0002
0000
0023
0000
0031
0000
0010
0100
,
0000
0100
0001
0000
0010
0000
0100
1000
,
0200
0000
0302
0000
0103
0000
0010
1000
,
0000
0000
0100
0000
0100
0000
1000
0100
,
0020
0000
0230
0000
0310
0000
1000
0010
,
0000
0100
0001
1000
,
0020
0031
0200
0301
,
0010
0000
0001
0010
0000
1001
0000
0000
,
0020
0000
2030
0000
3010
0000
1000
0001
,
0000
0010
1000
1000
,
0002
0000
0203
0000
0301
0000
0010
0100
,
0000
0000
0001
0010
0100
0000
1000
0000
,
0002
0000
2003
0000
3001
0000
0001
0010
,
0000
0100
0000
0100
0010
0000
1000
0000
,
0200
0310
2000
3010
,
0100
0001
0010
0110
,
0200
0000
0310
1000
,
0100
1000
0001
0001
,
2000
3010
0010
1000
,
0100
1000
0010
0001
,
0002
0000
1003
0010
,
0001
0100
0001
1000
,
0200
0301
2000
3001
,
0010
0001
1000
0010
,
2002
3000
0010
0100
,
0010
0010
0200
0303
,
1000
0100
0010
1000
,
0110
0110
1010
0011
,
2002
3003
0200
2300
,
3010
0000
1000
0100
0000
0100
0010
0000
,
1000
0001
1000
0000
0020
0000
0032
0000
,
1003
0000
0100
1000
0000
0010
0001
0000
,
1000
0010
0100
0000
2000
0000
3020
0000
,
0031
0000
0100
0001
0000
0010
0000
1000
,
0000
0100
0100
0000
0002
0000
0013
0000
,
0002
0000
1003
0000
0010
0000
0010
0100
,
0000
0010
0000
0000
2002
0000
0000
0000
,
3003
0000
0100
0000
0010
0000
0000
1010
,
0000
0000
1000
1000
0000
0000
0000
0000
;

//---------------dance-single - ----------------
#NOTEDATA:;
#CHARTNAME:;
#STEPSTYPE:dance-single;
#DESCRIPTION:;
#CHARTSTYLE:;
#DIFFICULTY:Hard;
#METER:10;
#RADARVALUES:0.378663,0.481497,0.329803,0.464168,0.030537,217.000000,190.000000,27.000000,38.000000,0.000000,0.000000,0.000000,0.000000,0.000000,0.378663,0.481497,0.329803,0.464168,0.030537,217.000000,190.000000,27.000000,38.000000,0.000000,0.000000,0.000000,0.000000,0.000000;
#CREDIT:;
#NOTES:
0000
0000
0000
0000
,
0000
0000
0000
0000
,
0000
0000
0000
0000
,
0000
0000
0000
0000
,
0100
0000
0010
0000
0001
0010
0001
0100
,
0000
0010
0001
1000
0000
1000
0100
0000
,
0010
0000
0001
0010
0001
1000
0000
1010
,
0000
0101
0000
0010
0100
0001
0100
0000
,
1001
0000
1100
0000
0100
0010
0100
0002
,
0000
1000
1003
0010
,
0110
0000
0110
0000
1000
0001
1000
0200
,
0000
0000
0010
0000
0301
0000
0100
0010
,
1010
0000
0110
0000
0001
0010
0100
2000
,
0000
0000
3000
0002
0000
0000
0013
0200
,
0000
2000
0000
0000
3300
0000
0010
2000
,
0000
0000
3010
0020
0000
0002
0000
0033
,
1100
0000
0011
0000
0100
0010
0001
0002
,
0000
0100
0103
0010
,
1010
0000
0110
0000
0100
0010
0001
0200
,
0000
0000
1000
0000
1300
0000
0010
1000
,
0011
0000
1001
0000
0010
0001
0100
0002
,
0000
0000
0003
0020
0000
0000
0130
0200
,
0000
0002
0000
0000
0303
0000
1000
0200
,
0000
0000
1300
0020
0000
2000
0000
3030
,
0001
0000
0100
0000
0010
0001
0010
0000
,
1000
0000
0100
0000
0100
1000
0010
0000
,
0001
0000
0001
0000
0001
0100
0010
0100
,
2000
0010
3000
0002
0000
0023
0000
0032
,
0000
0000
1003
0000
0100
0010
0100
0000
,
0010
0000
0100
0000
0001
0100
1000
0000
,
0102
0003
0210
0300
,
1100
0100
0000
0002
0000
2000
0000
3003
,
0020
0000
0130
0200
0000
0000
0000
0000
,
1000
0000
0001
0000
1300
0010
1000
0100
,
0010
0000
0001
0010
0000
0100
0001
0000
,
1000
0010
0000
0000
0010
1000
0000
0000
0100
0001
0000
0000
0001
0100
0000
0000
,
0100
0010
0000
0000
0110
0000
0000
0000
1001
0000
0000
0000
1100
0000
0000
0000
,
0100
0010
1000
0002
0000
0000
1000
0000
,
0103
0010
0011
0011
,
0001
0100
0001
2000
0000
0000
0010
0000
,
3010
0000
0100
0010
1100
0000
0101
0000
,
0100
0010
0001
0020
0000
0000
0030
0200
,
0000
0000
0301
2000
0000
0200
0000
0000
,
3300
0000
0100
0101
0000
0000
0010
0002
,
0000
2000
0000
0000
0000
0000
0000
0000
,
3003
0000
0100
0000
0020
0000
0000
0200
,
0000
0330
1001
1001
0000
0000
0000
0000
;
