#TITLE:Hunny Bunny;
#SUBTITLE:;
#ARTIST:U1 overground;
#TITLETRANSLIT:;
#SUBTITLETRANSLIT:;
#ARTISTTRANSLIT:;
#GENRE:;
#CREDIT:;
#BANNER:Hunny Bunny.png;
#BACKGROUND:Hunny Bunny-bg.png;
#LYRICSPATH:;
#CDTITLE:;
#MUSIC:Hunny Bunny.ogg;
#OFFSET:-1.974445;
#SAMPLESTART:25.974445;
#SAMPLELENGTH:12.000000;
#SELECTABLE:YES;
#BPMS:0.000000=80.000000
,16.000000=160.000000
,168.000000=80.000000
,184.000000=160.000000
;
#STOPS:43.750000=1.500000,
167.750000=1.500000
;
#BGCHANGES:;
#KEYSOUNDS:;
#ATTACKS:;

//---------------dance-single - ----------------
#NOTES:
     dance-single:
     :
     Hard:
     12:
     0.486912,0.721081,0.285431,0.268641,0.062963,406.000000,372.000000,34.000000,32.000000,0.000000,0.000000,0.486912,0.721081,0.285431,0.268641,0.062963,406.000000,372.000000,34.000000,32.000000,0.000000,0.000000:
0000
0000
0000
0000
,
0000
0000
0000
0000
,
0000
0000
0000
0000
,
0000
0000
0000
0000
0200
0000
0000
0300
,
1100
0000
0101
0000
0010
0001
0100
0000
,
2002
0003
0001
3010
,
0011
0000
1010
0000
0100
1000
0010
0000
,
0200
0320
2000
3030
,
1100
0000
0110
0000
1000
0001
1000
0000
,
0202
0003
0010
0301
,
1000
0100
1000
0010
0001
0010
0100
1000
,
0010
0100
0001
0000
1001
0000
0101
0000
,
0100
0010
0000
0001
1000
0010
0010
0000
,
0100
0001
1000
0000
1010
0000
0110
0000
,
1000
0000
0001
0100
1000
0100
0010
0000
,
1000
0010
0100
0000
1100
0000
0010
0001
,
0010
0000
0101
0000
0010
0001
1001
0000
,
0010
0100
1000
0100
0110
0000
0001
0010
,
0100
0001
0110
0000
1100
0000
0011
0000
,
0200
0010
1000
0301
,
0001
0100
0010
0001
0020
0000
0032
0000
,
0023
0100
1000
0130
,
1000
1000
0100
0000
0010
0001
0010
1000
,
2000
0010
0001
3010
,
0002
0100
0100
0013
,
0001
1000
0010
0100
0001
1000
0010
0100
,
0200
1000
1000
1000
0010
0010
0301
0000
,
1000
0100
0010
0000
0001
0000
1000
0000
,
0100
1000
0000
0010
0100
0001
0010
0000
,
1000
0100
1000
0000
0010
0000
0001
0000
,
0100
0100
0000
0001
0000
0010
1000
0000
,
0001
0100
0100
0000
1000
0000
0010
1000
,
0100
0000
0001
0010
0000
0001
0010
0000
,
0100
0001
1000
0000
0010
0000
0100
0000
,
0001
1000
0000
0010
0100
0001
1010
0000
,
0000
0100
0000
0010
0000
1000
0001
1000
,
0000
0010
0000
0010
0100
0001
1000
0010
,
0000
0001
0000
1000
0000
1000
0010
0100
,
0000
0001
1000
0010
0100
0010
1000
0000
,
0200
0010
0310
0020
1000
1030
2000
0100
,
3100
0200
0001
0301
0002
0010
0013
0010
,
0001
0010
0001
0010
0100
0010
0100
1000
,
2000
0000
0020
0000
3030
0000
0200
0000
0002
0000
0303
0000
0010
0001
0010
0000
,
0002
0000
2000
0000
3003
0000
0020
0000
0230
0000
2300
0000
3100
0001
0100
0000
,
1000
0000
0000
0100
0000
0000
0010
0000
0101
0000
0000
0000
0001
0000
0000
0000
0010
0000
0000
0001
0000
0000
0010
0000
1100
0000
0000
0000
0010
0000
0000
0000
,
1000
0100
0010
0100
0001
0100
0010
0001
2100
0000
0100
0000
0100
0000
3100
0000
,
0001
0100
0010
0001
0100
1000
0100
0001
,
0010
0001
1000
0100
0001
0010
0001
0000
,
1000
0010
1000
0010
0100
0001
0010
0100
,
0001
0010
0100
0010
0001
1000
0100
0000
,
0010
0010
0100
0100
0001
0001
1000
1000
,
0010
0001
0100
0001
0010
1000
0100
0001
,
1100
0100
0110
0010
0011
0001
1001
1000
,
0100
0001
0100
0000
1000
0100
1000
0000
0001
0010
0001
0100
0001
0010
0001
0000
,
1001
0000
0110
0000
1000
0000
0001
0010
,
0100
0001
1000
0001
0100
0000
0100
0001
,
1000
0100
0010
0001
1000
0000
0010
0010
,
0001
1000
0001
0100
0010
0100
1000
0000
,
0001
1000
0010
1000
0100
0010
0001
1000
,
0001
1000
0010
0100
0010
0001
1000
0100
,
0010
0001
0010
0100
1000
0001
0100
0001
,
1100
0000
0011
0000
0101
0100
1010
0010
,
2002
0000
0000
0000
,
0000
0000
0000
0000
0000
3003
0000
0000
;

//---------------dance-single - ----------------
#NOTES:
     dance-single:
     :
     Medium:
     10:
     0.430545,0.534134,0.209876,0.100740,0.008395,359.000000,334.000000,25.000000,12.000000,0.000000,0.000000,0.430545,0.534134,0.209876,0.100740,0.008395,359.000000,334.000000,25.000000,12.000000,0.000000,0.000000:
0000
0000
0000
0000
,
0000
0000
0000
0000
,
0000
0000
0000
0000
,
0000
0000
0000
0000
,
0100
0000
1000
0000
0100
1000
0100
0000
,
0010
0001
1000
0110
,
1000
0000
0001
0000
0100
0010
0001
0000
,
1000
0001
0010
1010
,
0010
0000
1000
0000
0001
1000
0001
0000
,
1000
0100
1000
0110
,
1000
0100
1000
0000
0001
0010
0100
0001
,
0010
0100
0010
0001
,
1000
0000
1000
0000
0010
0100
0010
0000
,
0100
1000
0010
0000
1000
0100
0001
0000
,
1000
0100
1000
0010
0100
0000
0101
0000
,
1000
0100
0001
0000
0001
0010
1000
0000
,
0100
0001
1000
0000
0001
0000
1000
0000
,
0010
0100
0010
0100
0001
1000
0100
0000
,
1000
0100
0010
0001
0010
0000
1001
0000
,
0200
0000
0301
0000
0010
0100
0010
0000
,
2000
0000
3010
0000
0001
0010
0001
0000
,
0020
0000
1030
0000
0100
0001
1000
0000
,
0002
0000
0103
0000
0010
1000
0100
0000
,
0010
1000
0010
0000
0100
1000
0100
0000
,
0100
0010
1000
0010
1000
0001
0100
0000
,
0001
0100
0010
0000
0010
1000
0100
0000
,
0001
0100
0010
0001
0100
0000
0011
0000
,
1000
0100
1000
0000
0010
0000
1000
0000
,
0100
0000
0100
0001
0000
0001
0100
0000
,
0010
0001
0010
0000
1000
0000
0001
0000
,
1000
0000
0010
1000
0100
0000
0110
0000
,
0100
0001
0010
0000
0001
0000
0100
0000
,
1000
0010
0001
1000
0010
0000
1000
0000
,
0100
0010
0001
0000
0100
0010
1000
0000
,
0100
1000
0100
0010
0100
0000
1010
0000
,
0001
0000
1000
0000
0001
1000
0001
0000
,
0010
0000
1000
0000
0010
1000
0010
0000
,
0100
0000
0010
0000
0100
0010
0100
0000
,
1000
0000
0100
0000
1000
0100
1000
0000
,
1010
0000
0011
0000
0010
1000
0010
0000
,
1001
0000
1010
0000
0100
0001
0100
0000
,
0110
0000
0101
0000
1000
0010
1000
0100
,
0002
0000
0010
0000
0100
0000
0103
1000
,
0200
0000
0010
0000
1000
0000
0310
1000
,
0010
0001
0110
0000
0001
1000
0011
0000
,
0100
0000
0001
0000
0100
0000
1000
0000
0100
1000
0100
1000
0010
0000
0110
0000
,
1000
0100
1000
0000
0100
1000
0010
1000
,
0100
0010
0001
0000
0001
0100
1000
0010
,
0100
0001
0010
0000
1000
0001
0100
0010
,
0100
0001
1000
0000
1000
0001
0010
0001
,
0100
0010
1000
0000
0100
0010
0100
0010
,
0001
0010
0100
0000
0010
0001
1000
0100
,
1000
0100
1100
0000
0010
1000
1010
0000
,
0001
0100
1000
0100
0010
1000
1001
0000
,
1200
0000
0001
0000
1300
0001
1000
0000
,
0010
0100
0010
0100
0001
1000
0010
0000
,
0120
0000
1000
0000
0130
0001
1000
0000
,
1000
0001
0100
1000
0001
0010
0100
0000
,
1002
0000
0010
0000
1003
0001
1000
0010
,
0021
0000
1000
0000
0031
0100
1000
0100
,
0001
0010
0001
0000
0010
0100
0010
0000
,
0100
0010
0100
1000
0010
0100
0001
0000
,
0220
0000
0000
0000
,
0000
0000
0000
0000
0000
0330
0000
0000
;

//---------------dance-single - ----------------
#NOTES:
     dance-single:
     :
     Easy:
     5:
     0.226666,0.364345,0.067160,0.125926,0.000000,189.000000,181.000000,8.000000,15.000000,0.000000,0.000000,0.226666,0.364345,0.067160,0.125926,0.000000,189.000000,181.000000,8.000000,15.000000,0.000000,0.000000:
0000
0000
0000
0000
,
0000
0000
0000
0000
,
0000
0000
0000
0000
,
0000
0000
0000
0000
,
0010
0000
0100
0000
,
0010
0100
0010
0000
,
0001
0000
0010
0000
,
0001
0010
0001
0000
,
1000
0100
1000
0000
,
0010
0001
0010
0000
,
1000
1000
0001
0001
,
1000
0100
0010
0000
,
0010
0001
0010
0001
,
0001
0010
0100
0000
,
1000
0001
1000
1000
,
0100
0010
1000
0000
,
1000
0100
0001
0000
,
0010
1000
0100
0010
,
1000
0000
1001
0000
,
0020
0000
0130
0000
,
0100
1000
0001
0000
,
2000
0000
3010
0000
,
0100
0100
0010
0000
,
0002
0000
0103
0000
,
1000
0010
0001
0000
,
2000
0000
3001
0000
,
0010
0100
0001
0000
,
0001
1000
0010
0000
,
0100
0001
0010
0100
,
0001
0100
0010
0000
,
1000
0010
0100
0100
,
0010
0100
0001
0000
,
0010
1000
0100
1000
,
0100
1000
0010
0000
,
0100
0010
0001
0010
,
1000
0000
1001
0000
,
0010
0010
0100
0000
,
0010
0000
0110
0000
,
0001
1000
0001
0000
,
2000
3000
0002
0003
,
0010
0100
0020
0030
,
2000
3000
0200
0300
,
1000
0010
0100
1001
,
0100
1000
0100
0110
,
1000
0010
1000
0000
0001
0100
0001
0000
,
0010
1000
0100
1000
0020
0000
0030
0000
,
1000
0100
1000
0000
,
0010
0100
0001
0010
,
0100
1000
0001
0000
,
0001
1000
0100
0001
,
0010
0001
1000
0000
,
0100
0100
0010
0100
,
0010
1000
0001
0000
,
1000
0100
0010
0000
,
1001
0000
0010
0010
,
0100
0010
0001
0000
,
0110
0000
0100
0010
,
1000
1000
0001
0000
,
2000
0000
3001
0001
,
0020
0000
0031
0001
,
0200
0000
0302
0000
,
0013
1000
0200
0300
,
1001
0000
0000
0000
;

//---------------dance-single - ----------------
#NOTES:
     dance-single:
     :
     Challenge:
     15:
     0.585254,0.806763,0.663208,0.369382,0.272839,488.000000,409.000000,79.000000,44.000000,64.000000,0.000000,0.585254,0.806763,0.663208,0.369382,0.272839,488.000000,409.000000,79.000000,44.000000,64.000000,0.000000:
// measure 0
0000
0000
0000
0000
,  // measure 1
0000
0000
0000
0000
,  // measure 2
0000
0000
0000
0000
,  // measure 3
0000
0000
0000
0000
2002
0000
0000
3003
,  // measure 4
0011
0000
1001
0000
0120
0000
0130
1000
,  // measure 5
0002
0000
0010
0100
0013
0000
MMMM
0000
,  // measure 6
1010
0000
1100
0000
2001
0000
3100
0001
,  // measure 7
0020
0000
0000
0000
0130
0000
0001
0000
1000
0010
1000
0000
MMMM
0000
0000
0000
,  // measure 8
0101
0000
1100
0000
0120
0000
0031
1000
,  // measure 9
0100
1000
0010
0100
0100
0000
MMMM
0000
,  // measure 10
0010
0001
0010
0000
0100
0001
0100
0000
1000
0100
0010
0100
0001
1000
0010
0000
,  // measure 11
0101
0010
1000
0000
1010
0000
0110
0000
,  // measure 12
1000
1000
0000
0011
1000
0001
0002
0000
,  // measure 13
0013
1000
0100
0000
2010
0000
3001
0000
,  // measure 14
0201
0000
0310
1000
0001
0001
0010
0000
,  // measure 15
0100
1000
0200
0010
0010
1000
0001
1300
,  // measure 16
0000
0000
1002
0000
0013
1000
0100
0000
,  // measure 17
0010
0000
0000
0100
0000
0000
0011
0000
0000
1000
0000
0000
1100
0000
0000
0010
,  // measure 18
0000
0000
0110
0000
0000
0001
0000
0000
1000
0000
0001
0000
MMMM
0000
0000
0000
,  // measure 19
2010
0100
0001
0010
,  // measure 20
0001
0000
3001
0000
0110
0010
0011
0010
,  // measure 21
1020
0100
1000
0001
,  // measure 22
0100
0000
0130
1000
1100
0001
MMMM
0000
,  // measure 23
0020
1000
0130
0000
0200
1000
0301
0000
,  // measure 24
0002
0010
0100
1000
0100
0100
0013
0000
,  // measure 25
1000
0000
0010
0000
1000
0001
0000
1000
0010
0000
0100
1000
0100
0000
0100
0000
,  // measure 26
0001
0010
0001
0000
0100
0010
0100
0000
1000
0000
0010
0000
MMMM
0000
0000
0000
,  // measure 27
0100
0010
0001
0000
1100
0000
1001
0000
,  // measure 28
0010
0010
0000
0110
1000
0100
2000
0000
,  // measure 29
3010
0100
0001
0000
0011
0000
1001
0000
,  // measure 30
1100
0000
1000
0100
1010
0010
0002
0000
,  // measure 31
0103
1000
0100
0120
0000
0001
0031
0000
,  // measure 32
1001
0000
1010
0010
0100
1000
0200
0000
,  // measure 33
0301
0000
0000
0010
0000
0000
1010
0000
0000
1000
0000
0000
1100
0000
0000
0100
,  // measure 34
0000
0000
0101
0000
0000
1010
0000
0000
0110
0000
0000
0000
1001
0000
0000
0000
,  // measure 35
MMMM
0020
0000
2030
0000
0100
3100
0001
,  // measure 36
MMMM
0000
0100
0000
0001
0100
0000
0001
0010
0000
1000
0000
1100
0000
0010
0000
,  // measure 37
MMMM
0200
0000
2300
0000
0001
3010
0001
,  // measure 38
MMMM
0000
1000
0000
0010
1000
0000
0010
0100
0000
0000
0000
0101
0000
0001
0000
,  // measure 39
2000
0010
3100
0020
1000
0031
2000
0001
,  // measure 40
3100
0002
0010
1000
0103
1000
0101
0001
,  // measure 41
1100
0100
0001
0011
0001
1000
1001
0100
,  // measure 42
0002
0000
0000
0000
0020
0000
0000
0000
0033
0000
0000
0000
0100
0000
0000
0000
0202
0000
0000
0000
0303
0000
0000
0000
1000
0010
0000
0000
0110
0000
1000
0010
,  // measure 43
2000
0000
0000
0000
0200
0000
0000
0000
3300
0000
0000
0000
0001
0000
0000
0000
1001
0000
0000
0000
1000
0000
0000
0000
0010
1000
0100
1000
0010
0000
0000
0000
,  // measure 44
0200
0000
0000
0010
0000
0000
0301
0000
MMMM
0000
0000
0000
1001
0000
0000
0000
0020
0000
0000
1000
0000
0000
0130
0000
MMMM
0000
0000
0000
0011
0000
0000
0000
,  // measure 45
0010
0000
0010
0000
1000
0000
1000
0000
0100
0001
0100
0000
0010
0001
0010
0000
2200
0000
0000
0000
0300
0000
0000
0000
0002
0000
0000
0000
3003
0000
0000
0000
,  // measure 46
0010
0000
0100
0000
0010
0000
1000
0000
1000
0000
0010
0001
0100
0001
0010
0000
,  // measure 47
0100
0000
1000
0000
0001
0000
0010
0000
0010
0000
0100
1000
0001
1000
0001
0000
,  // measure 48
1000
0000
0010
0000
1010
0000
0100
0000
0100
0000
0001
0100
0010
0100
0001
0000
,  // measure 49
0001
0010
0001
0000
1001
0000
0010
0000
0010
0000
0100
1000
0010
1000
0001
0000
,  // measure 50
1000
0010
1010
0010
0100
0010
0110
0001
,  // measure 51
1000
0001
1001
0001
0100
0001
0101
0010
,  // measure 52
1010
1010
0011
0011
0110
1010
1001
0101
,  // measure 53
0010
0100
0010
0100
0010
1000
0010
1000
0001
0010
0100
0010
MMMM
0000
0000
0000
,  // measure 54
1001
0000
1020
0000
0031
0000
0101
0001
,  // measure 55
0210
0000
0000
0000
0301
0000
0001
0000
1000
0010
1000
0000
MMMM
0000
0000
0000
,  // measure 56
0011
0000
2010
0000
3001
0000
1001
0001
,  // measure 57
2100
0000
0000
0000
3001
0000
0000
0000
0010
0100
0010
0000
MMMM
0000
0000
0000
,  // measure 58
0001
0000
1000
0000
1010
0000
0010
0000
1000
0001
1000
0000
0010
0100
0010
0000
,  // measure 59
0100
0000
1000
0000
1010
0000
0010
0001
0100
0000
1000
0001
0100
0010
0100
0000
,  // measure 60
1000
0010
0100
0001
0100
0001
1000
0010
,  // measure 61
1001
0000
1000
0000
1100
0000
0100
0000
0010
0100
0010
1000
0001
0100
0010
0100
,  // measure 62
MMMM
0000
0000
0000
;
