#TITLE:Hoshiyume;
#SUBTITLE:;
#ARTIST:Dormir;
#TITLETRANSLIT:;
#SUBTITLETRANSLIT:;
#ARTISTTRANSLIT:;
#GENRE:;
#CREDIT:;
#BANNER:Hoshiyume.png;
#BACKGROUND:Hoshiyume-bg.png;
#LYRICSPATH:;
#CDTITLE:;
#MUSIC:Hoshiyume.ogg;
#OFFSET:-0.640210;
#SAMPLESTART:67.957001;
#SAMPLELENGTH:16.842102;
#SELECTABLE:YES;
#BPMS:0.000000=114.000000
;
#STOPS:
;
#BGCHANGES:;
#KEYSOUNDS:;
#ATTACKS:;

//---------------dance-single - ----------------
#NOTES:
     dance-single:
     :
     Hard:
     10:
     0.349380,0.396339,0.110094,0.251644,0.000000,311.000000,297.000000,14.000000,32.000000,0.000000,0.000000,0.349380,0.396339,0.110094,0.251644,0.000000,311.000000,297.000000,14.000000,32.000000,0.000000,0.000000:
0000
0000
0000
0000
,
0000
0000
0000
0000
,
0000
0000
0000
0000
,
0000
0000
0000
0000
,
0000
0000
0000
0000
,
0000
0000
0000
0000
,
0000
0000
0000
0000
,
0000
0000
0000
0000
,
1000
0001
1000
0001
1000
0001
1000
0001
,
0010
0100
0010
0100
0010
0100
0010
0100
,
0001
0010
0001
0010
0001
0010
0001
0010
,
0100
0001
0100
0001
0100
0001
0100
0001
,
0010
0001
0010
0001
0010
1000
0010
1000
,
0100
0010
0100
0010
0100
0001
0100
0001
,
0010
0001
0100
0001
0100
1000
0100
0010
,
1000
0100
0010
0100
0001
1000
1001
0000
,
1000
0000
1000
0000
1000
0010
0001
0000
,
0010
0100
0010
0001
0010
0100
1000
0000
,
0100
0000
0010
0000
0100
0010
1000
0000
,
0001
0010
0001
0100
0010
1000
0100
0000
,
0001
0000
1000
0000
0100
1000
0010
0000
,
1000
0001
0010
0100
0010
0001
1000
0000
,
0001
0000
0100
0000
0001
1000
0010
0000
,
0100
0010
0001
0100
0010
0000
0110
0000
,
2000
0000
3010
0000
2000
0100
3001
0000
,
0002
0010
0103
0010
1000
0100
1000
0000
,
0020
0000
0031
0000
0020
0001
1030
0000
,
0200
1000
0310
1000
0100
0001
0010
0000
,
0200
0000
1300
0000
0200
1000
0301
0000
,
2000
0100
3010
0100
0001
0010
0100
0000
,
0002
1003
0200
1300
,
2000
0100
0010
0100
0010
0001
3010
0000
,
0120
0130
2010
3010
,
0201
0310
0012
1003
,
0001
1000
0010
0000
0100
0010
1000
0000
,
0100
0010
1000
0100
0010
0001
1001
0000
,
2000
0010
3100
0000
0002
0010
0103
0000
,
0200
0010
1300
0000
0020
0001
0130
0000
,
0100
1000
0100
0000
0010
0100
0010
0000
,
1000
1000
0001
0001
0010
0010
0110
0000
,
0201
0301
1002
1003
,
2010
3100
0120
0031
,
1000
0001
0100
0000
0010
1000
0100
0000
,
0100
1000
0100
1000
0001
0010
1010
0000
,
0020
0100
1030
0000
0002
1000
0103
0000
,
0200
0001
0310
0000
2000
0010
3001
0000
,
0010
0100
0010
0001
1000
0100
0001
0010
,
0200
0320
2030
3002
,
1003
0100
1000
0000
0010
0001
0000
0010
,
0100
0000
0010
1000
0000
0100
1000
0001
,
0010
0001
0010
0000
0100
0001
0000
0010
,
0100
0000
0100
1000
0000
0010
1000
0100
,
1000
0100
0001
0000
0001
0010
0000
0010
,
1000
0000
1000
0100
0000
0010
0001
0010
,
0100
0001
1000
0000
0100
0010
0000
0001
,
0010
0000
0100
1000
0000
0010
0100
0001
,
1001
0000
0000
0000
;

//---------------dance-single - ----------------
#NOTES:
     dance-single:
     :
     Medium:
     7:
     0.272988,0.308263,0.078639,0.180869,0.000000,243.000000,233.000000,10.000000,23.000000,0.000000,0.000000,0.272988,0.308263,0.078639,0.180869,0.000000,243.000000,233.000000,10.000000,23.000000,0.000000,0.000000:
0000
0000
0000
0000
,
0000
0000
0000
0000
,
0000
0000
0000
0000
,
0000
0000
0000
0000
,
0000
0000
0000
0000
,
0000
0000
0000
0000
,
0000
0000
0000
0000
,
0000
0000
0000
0000
,
0001
1000
0010
1000
,
0100
0001
1000
0001
,
0010
0010
0100
0100
,
0001
0100
1000
0100
,
1000
0000
0010
0100
0010
0000
0001
0010
,
0001
0000
0010
0001
0010
0001
1000
0000
,
1000
0010
0001
0010
,
0001
0100
1000
0100
0001
0000
1001
0000
,
2000
0001
0001
3010
,
0100
0000
0010
0100
0000
0010
1000
0000
,
0200
1000
1000
0310
,
0010
0000
0001
0010
0000
0100
0001
0000
,
0002
1000
1000
0103
,
0001
0000
0100
0001
0000
1000
0001
0010
,
0000
2000
3001
0002
,
0103
0200
0310
0120
,
1030
0000
0001
0000
0100
0000
0001
0010
,
1000
0000
0010
0100
0001
0010
0001
0000
,
0001
0000
1000
0000
0001
0000
1000
0100
,
0010
0000
0001
1000
0100
0001
0100
0000
,
0010
0000
1000
0000
0010
0000
1000
0001
,
0100
1000
0010
0000
1000
0010
1000
0000
,
0100
0110
0010
0011
,
0100
0001
0010
1000
0010
0000
1001
0000
,
0002
0013
0020
1030
,
2000
3001
0200
0301
,
0010
0000
0100
0000
1000
0000
0100
1000
,
0001
0010
1000
0000
0110
0000
1000
0001
,
0100
0000
0001
0010
1000
0000
0001
0100
,
0010
0000
0001
1000
0001
0010
0001
0000
,
2000
3001
2000
3100
,
0100
0001
0010
0000
1000
0000
1100
0000
,
0020
1030
2000
3100
,
0200
0310
0002
0013
,
1000
0000
0001
0000
0010
0000
0001
0100
,
1000
0100
0010
0000
1001
0000
0100
1000
,
0001
0000
0010
0100
1000
0000
0001
0100
,
0010
0000
0001
0010
0100
0001
1000
0000
,
0020
1030
0020
0130
,
0100
0010
0001
0000
0100
0000
0101
0000
,
0002
0010
1000
0103
,
0200
0010
0001
0310
,
0020
1000
0100
1030
,
2000
0001
0100
3010
,
0100
0000
0001
0000
0100
0000
0001
1000
,
0010
0000
0100
0000
0010
0000
0100
1000
,
0001
0000
1000
0000
0010
0000
0100
0001
,
0010
0000
0100
1000
0010
0000
1000
0000
,
0110
0000
0000
0000
;

//---------------dance-single - ----------------
#NOTES:
     dance-single:
     :
     Easy:
     3:
     0.162894,0.198169,0.047183,0.314554,0.000000,145.000000,139.000000,6.000000,40.000000,0.000000,0.000000,0.162894,0.198169,0.047183,0.314554,0.000000,145.000000,139.000000,6.000000,40.000000,0.000000,0.000000:
0000
0000
0000
0000
,
0000
0000
0000
0000
,
0000
0000
0000
0000
,
0000
0000
0000
0000
,
0000
0000
0000
0000
,
0000
0000
0000
0000
,
0000
0000
0000
0000
,
0000
0000
0000
0000
,
1000
0000
0010
0000
,
0001
0100
0001
0000
,
0010
0000
0001
0000
,
0100
0010
0100
0000
,
1000
1000
0100
0000
,
0010
0010
0100
0000
,
0001
0010
1000
0010
,
0001
0000
1001
0000
,
0200
0300
0020
0030
,
1000
0001
2000
3000
,
0020
0030
2000
3000
,
0100
0001
0200
0300
,
0002
0003
0020
0030
,
1000
0001
0020
0030
,
0200
0300
0020
0030
,
1000
0001
2000
3000
,
2002
3003
0010
0100
,
0001
0001
0010
0000
,
0220
0330
0100
0001
,
1000
1000
0001
0000
,
2002
3003
0010
0100
,
0010
0010
0001
0000
,
0220
0330
0100
1000
,
0001
1000
0010
0100
,
0020
0030
0200
0300
,
2000
3000
0002
0003
,
0010
1000
0100
0100
,
1000
0010
0001
0100
,
0002
0003
2000
3000
,
0020
0030
2000
3000
,
0100
1000
0100
0010
,
1000
1000
0100
0100
,
0020
0030
2000
3000
,
0200
0300
0002
0003
,
0010
0001
0100
0100
,
1000
0010
1000
1000
,
0020
0030
0002
0003
,
2000
3000
0020
0030
,
0100
0001
0100
1000
,
0010
0001
1000
0000
,
0002
0003
0010
0100
,
0010
1000
0001
0000
,
0200
0300
0001
1000
,
0010
0001
0100
0000
,
2000
3000
0100
0010
,
0100
0001
0010
0000
,
0002
0003
0010
0100
,
0010
1000
0100
0000
,
1001
0000
0000
0000
;

//---------------dance-single - ----------------
#NOTES:
     dance-single:
     :
     Beginner:
     1:
     0.094366,0.130933,0.031455,0.062911,0.000000,84.000000,80.000000,4.000000,8.000000,0.000000,0.000000,0.094366,0.130933,0.031455,0.062911,0.000000,84.000000,80.000000,4.000000,8.000000,0.000000,0.000000:
// measure 0
0000
0000
0000
0000
,  // measure 1
0000
0000
0000
0000
,  // measure 2
0000
0000
0000
0000
,  // measure 3
0000
0000
0000
0000
,  // measure 4
0000
0000
0000
0000
,  // measure 5
0000
0000
0000
0000
,  // measure 6
0000
0000
0000
0000
,  // measure 7
0000
0000
0000
0000
,  // measure 8
0010
0000
1000
0000
,  // measure 9
0010
0000
0000
0000
,  // measure 10
0100
0000
0010
0000
,  // measure 11
0100
0000
0000
0000
,  // measure 12
0001
0000
0100
0000
,  // measure 13
0001
0000
0000
0000
,  // measure 14
1000
0000
0001
0000
,  // measure 15
1000
0000
0000
0000
,  // measure 16
0000
0100
0000
1000
,  // measure 17
0000
0100
0000
0100
,  // measure 18
0000
0001
0000
0010
,  // measure 19
0000
0001
0000
0001
,  // measure 20
0000
0010
0000
0100
,  // measure 21
0000
0010
0000
0010
,  // measure 22
0000
1000
0000
0001
,  // measure 23
0000
1000
0000
0110
,  // measure 24
0000
0100
0000
0100
,  // measure 25
0000
1000
0000
1000
,  // measure 26
0000
0001
0000
0001
,  // measure 27
0000
0010
0000
0010
,  // measure 28
0000
0001
0000
0100
,  // measure 29
0000
1000
1000
0000
,  // measure 30
0010
0000
0100
0000
,  // measure 31
0100
0000
0110
0000
,  // measure 32
2000
0000
3000
0000
,  // measure 33
0002
0000
0003
0000
,  // measure 34
0200
0000
0300
0000
,  // measure 35
0020
0000
0030
0000
,  // measure 36
0100
0000
0100
0000
,  // measure 37
1000
0000
1000
0000
,  // measure 38
0001
0000
0010
0000
,  // measure 39
1000
0000
0010
0000
,  // measure 40
0200
0000
0300
0000
,  // measure 41
0002
0000
0003
0000
,  // measure 42
0020
0000
0030
0000
,  // measure 43
2000
0000
3000
0000
,  // measure 44
0001
0000
0100
0000
,  // measure 45
0001
0000
0100
0000
,  // measure 46
0010
0000
1000
0000
,  // measure 47
0010
0000
1000
0000
,  // measure 48
0110
0000
0000
0000
,  // measure 49
0100
0000
0001
0000
,  // measure 50
0100
0000
0000
0000
,  // measure 51
0001
0000
1000
0000
,  // measure 52
0001
0000
0000
0000
,  // measure 53
0010
0000
0100
0000
,  // measure 54
0010
0000
0000
0000
,  // measure 55
1000
0000
1001
0000
;
