#TITLE:Hollywood Galaxy;
#SUBTITLE:(DJ NAGAI Remix);
#ARTIST:Remixed by DJ NAGAI;
#TITLETRANSLIT:;
#SUBTITLETRANSLIT:;
#ARTISTTRANSLIT:;
#GENRE:;
#CREDIT:;
#BANNER:Hollywood Galaxy (DJ NAGAI Remix).png;
#BACKGROUND:Hollywood Galaxy (DJ NAGAI Remix)-bg.png;
#LYRICSPATH:;
#CDTITLE:;
#MUSIC:Hollywood Galaxy (DJ NAGAI Remix).mp3;
#OFFSET:-0.644000;
#SAMPLESTART:31.540001;
#SAMPLELENGTH:15.000000;
#SELECTABLE:YES;
#BPMS:0.000000=185.983994
;
#STOPS:
;
#BGCHANGES:;
#KEYSOUNDS:;
#ATTACKS:;

//---------------dance-single - ----------------
#NOTES:
     dance-single:
     :
     Beginner:
     4:
     0.171339,0.251581,0.057504,0.041075,0.000000,146.000000,139.000000,7.000000,5.000000,0.000000,0.000000,0.171339,0.251581,0.057504,0.041075,0.000000,146.000000,139.000000,7.000000,5.000000,0.000000,0.000000:
// measure 0
0000
0000
0000
0000
,  // measure 1
0000
0000
0000
0000
,  // measure 2
0000
0000
0000
0000
,  // measure 3
0000
0000
0000
0000
,  // measure 4
0000
0000
0000
0000
,  // measure 5
0000
0000
0000
0000
,  // measure 6
0000
0000
0000
0000
,  // measure 7
0000
0000
0000
0000
,  // measure 8
0010
0000
0010
0000
,  // measure 9
0010
0000
0010
0000
,  // measure 10
0100
0000
0100
0000
,  // measure 11
0100
0000
0100
0000
,  // measure 12
0001
0000
0001
0000
,  // measure 13
0001
0000
0001
0000
,  // measure 14
1000
0000
1000
0000
,  // measure 15
1000
1000
1000
0000
,  // measure 16
1001
0000
0000
0000
,  // measure 17
0001
0000
0000
0000
,  // measure 18
0001
0000
0000
0000
,  // measure 19
1000
0000
0001
0000
,  // measure 20
0100
0000
0000
0000
,  // measure 21
0100
0000
0000
0000
,  // measure 22
0010
0000
0000
0000
,  // measure 23
0020
0000
0030
0000
,  // measure 24
0001
0001
0001
0000
,  // measure 25
1000
1000
1000
0000
,  // measure 26
0001
0001
0001
0000
,  // measure 27
0010
0000
0100
0000
,  // measure 28
0010
0010
0010
0000
,  // measure 29
0100
0100
0100
0000
,  // measure 30
0010
0000
0100
0000
,  // measure 31
0000
0001
0001
0000
,  // measure 32
1000
0000
1000
0000
,  // measure 33
0001
0000
0001
0000
,  // measure 34
1000
0000
1000
0000
,  // measure 35
0001
0001
0001
0000
,  // measure 36
1001
0000
0000
0000
,  // measure 37
0110
0000
0000
0000
,  // measure 38
0100
0000
0010
0000
,  // measure 39
0100
0100
0100
0000
,  // measure 40
2000
0000
0000
0000
,  // measure 41
3000
0000
0000
0000
,  // measure 42
0002
0000
0000
0000
,  // measure 43
0003
0000
0000
0000
,  // measure 44
0020
0000
0000
0000
,  // measure 45
0030
0000
0000
0000
,  // measure 46
0200
0000
0000
0000
,  // measure 47
0300
0000
0000
0000
,  // measure 48
0001
0000
0000
0000
,  // measure 49
0001
0000
0000
0000
,  // measure 50
1000
0000
0010
0000
,  // measure 51
1000
0000
0000
0000
,  // measure 52
0100
0000
0000
0000
,  // measure 53
0100
0000
0000
0000
,  // measure 54
0001
0000
1000
0000
,  // measure 55
0001
0000
0001
0000
,  // measure 56
0110
0000
0000
0000
,  // measure 57
0100
0000
0000
0000
,  // measure 58
0010
0000
0000
0000
,  // measure 59
0010
0000
0000
0000
,  // measure 60
1000
0000
0000
0000
,  // measure 61
0001
0000
0000
0000
,  // measure 62
1000
0000
0000
0000
,  // measure 63
1000
0000
0000
0000
,  // measure 64
0100
0000
0100
0000
,  // measure 65
0010
0000
0010
0000
,  // measure 66
0100
0000
0001
0000
,  // measure 67
0100
0000
1000
0000
,  // measure 68
0001
0000
0001
0000
,  // measure 69
1000
0000
1000
0000
,  // measure 70
0001
0000
0010
0000
,  // measure 71
1001
0000
0000
0000
,  // measure 72
0100
0100
0100
0000
,  // measure 73
0010
0000
0100
0000
,  // measure 74
1000
0000
0001
0000
,  // measure 75
1000
0000
1000
0000
,  // measure 76
0001
0001
0001
0000
,  // measure 77
1000
0000
0001
0000
,  // measure 78
0010
0000
0100
0000
,  // measure 79
0110
0000
0000
0000
,  // measure 80
1000
1000
1000
0000
,  // measure 81
0001
0001
0001
0000
,  // measure 82
1000
1000
1000
0000
,  // measure 83
0100
0000
0010
0000
,  // measure 84
0100
0100
0100
0000
,  // measure 85
0010
0010
0010
0000
,  // measure 86
0001
0000
1000
0000
,  // measure 87
0001
0000
1001
0000
;

//---------------dance-single - ----------------
#NOTES:
     dance-single:
     :
     Easy:
     5:
     0.222976,0.324386,0.065719,0.271092,0.000000,190.000000,182.000000,8.000000,33.000000,0.000000,0.000000,0.222976,0.324386,0.065719,0.271092,0.000000,190.000000,182.000000,8.000000,33.000000,0.000000,0.000000:
0000
0000
0000
0000
,
0000
0000
0000
0000
,
0000
0000
0000
0000
,
0000
0000
0000
0000
,
0000
0000
0000
0000
,
0000
0000
0000
0000
,
0000
0000
0000
0000
,
0002
0000
0000
0003
,
1000
0010
1000
0000
,
0100
0010
0100
0000
,
0001
1000
0001
0000
,
0100
1000
0100
0000
,
0001
0100
0001
0000
,
0010
0100
0010
0000
,
1000
0010
1000
0000
,
0100
0100
0100
0000
,
2000
0000
3000
0000
,
0002
0000
0003
0000
,
0200
0000
0300
0000
,
0020
0030
0200
0300
,
0002
0000
0003
0000
,
0020
0000
0030
0000
,
2000
0000
3000
0000
,
0200
0000
0300
0000
,
0010
1000
0010
0000
,
0100
0001
0100
0000
,
0001
1000
0001
0000
,
0010
0100
0010
0010
,
1000
0010
1000
0000
,
0001
0100
0001
0000
,
0010
1000
0100
1000
,
0000
0001
0001
0001
,
1000
0010
0100
0000
,
0001
0010
0100
0000
,
0001
1000
0010
0000
,
1000
0001
0100
0001
,
1001
0000
0000
0000
,
0110
0000
0100
0000
,
0001
1000
0010
0100
,
0001
0000
1001
0000
,
0020
0000
0030
0000
,
0200
0000
0300
0000
,
0002
0003
2000
3000
,
0020
0000
0030
0000
,
0002
0000
0003
0000
,
0200
0000
0300
0000
,
0020
0030
2000
3000
,
0001
0010
0001
1000
,
0200
0000
0300
0000
,
0020
0000
0030
0000
,
0002
0003
2000
3000
,
0020
0000
0030
1000
,
2000
0000
3000
0000
,
0200
0000
0300
0000
,
0020
0030
0002
0003
,
1000
0001
0100
0010
,
0110
0000
0000
0000
,
1000
0000
1000
0000
,
0001
0000
0100
0000
,
0010
0000
0000
0000
,
1001
0000
0000
0000
,
0001
0000
0001
0000
,
0100
0000
0001
0000
,
0200
0000
0300
0000
,
0010
0000
1000
0000
,
0100
0010
0100
0001
,
1000
0000
0001
0000
,
1000
0100
1000
0000
,
0010
0000
0001
0000
,
0010
0001
0100
0010
,
1000
0000
0001
0000
,
0110
0000
0000
0000
,
0001
1000
0001
0000
,
0100
0001
0100
0000
,
1000
0000
0001
0000
,
0100
0010
0100
0000
,
0010
1000
0010
0000
,
0100
1000
0100
0000
,
0001
0000
0100
0000
,
0110
0000
0000
0000
,
1000
1000
0100
0000
,
0001
0001
0010
0000
,
0100
0100
0001
0000
,
0010
0010
1000
0100
,
2000
0000
3000
0000
,
0002
0000
0003
0000
,
0020
0030
0200
0300
,
1000
0001
0100
0110
;

//---------------dance-single - ----------------
#NOTES:
     dance-single:
     :
     Medium:
     10:
     0.377885,0.469225,0.221802,0.303951,0.008215,322.000000,295.000000,27.000000,37.000000,0.000000,0.000000,0.377885,0.469225,0.221802,0.303951,0.008215,322.000000,295.000000,27.000000,37.000000,0.000000,0.000000:
0000
0000
0000
0000
,
0000
0000
0000
0000
,
0000
0000
0000
0000
,
0000
0000
0000
0000
,
0000
0000
0000
0000
,
0000
0000
0000
0000
,
0000
0000
0000
0000
,
0200
0000
0301
1001
,
1000
0010
0100
0010
,
1000
0000
0100
0000
0010
0000
0001
0010
,
0001
1000
0010
0100
,
0001
0000
0010
0000
1000
0000
0010
0100
,
0010
0001
0100
1000
,
0001
0000
0100
0000
0010
0000
1000
0001
,
1000
0010
0100
0001
,
0010
0010
0010
1001
,
2000
0001
0000
3001
,
0020
0100
0000
0130
,
0002
0010
0000
0013
,
2000
3001
0200
0310
,
2000
0010
0000
3010
,
0200
1000
0000
1300
,
0020
0031
0200
0310
,
2002
0000
0000
3003
,
0010
0000
0100
0000
0001
0100
0001
0000
,
1000
0000
0001
0000
0010
0001
0010
0000
,
0100
0000
0010
0000
0001
0100
0001
0000
,
1000
0000
0001
0000
0010
0100
1000
0100
,
0010
0000
0001
0000
0010
1000
0010
0000
,
1000
0000
0001
0000
0100
0010
0100
0000
,
0001
0000
1000
0000
0010
0000
1000
0100
,
0000
0000
0001
0000
0000
0100
0000
0000
0010
0000
0000
1000
0000
0000
0001
0000
,
0110
0000
0010
0000
1000
0010
1000
0000
,
0001
0000
1000
0000
0010
1000
0010
0000
,
0100
0000
1000
0000
0001
0010
0001
0000
,
0010
0000
1000
0000
0010
0100
0010
1000
,
1001
0000
0000
0000
,
0110
0100
0010
0001
,
0101
0000
1100
0000
,
0110
1010
0011
1001
,
0200
0000
0000
0300
,
0002
0000
0000
0000
0000
0000
0000
0003
,
0020
0030
2000
3000
,
0200
0000
0000
0000
0300
0000
0001
1000
,
0002
0000
0000
0003
,
0020
0000
0000
0030
,
2000
3000
0200
0300
,
0001
0010
1000
0100
,
0020
0000
1030
0000
,
2000
0000
3001
0000
,
0002
0000
0203
0000
,
0320
0000
0031
1000
,
0002
0100
0100
0003
,
0020
0001
0001
0030
,
0200
0310
2000
3010
,
0002
2003
3020
0130
,
1001
0000
0000
0000
,
0010
0000
0100
0010
,
1000
0000
0001
0000
,
0100
0000
0100
0000
,
0010
0001
0010
0100
,
0001
0100
0010
1000
,
1010
0000
0000
0101
0000
0000
1001
0000
,
0220
0000
0330
0000
,
0100
0001
1000
0010
,
0100
0000
0001
0000
0100
0000
0010
0001
,
0100
0010
1000
0001
,
0100
0000
0010
0000
0001
1000
0010
1000
,
0100
0010
1000
0001
,
0100
0000
0010
0000
0001
0000
1000
0001
,
0101
0000
0000
0110
0000
0000
1100
0000
,
1001
0000
0000
0000
0000
0010
0010
0000
,
0100
0010
1000
0010
,
0100
0000
0001
0000
0100
0001
0010
0001
,
0100
1000
0001
1000
,
0010
0000
0100
0000
0001
0010
1000
0010
,
0100
0010
1000
0001
,
0010
0000
0100
0000
0010
0001
0100
0001
,
1000
0000
0000
0001
0000
0000
1000
0000
,
2020
3030
0000
0000
,
0100
0000
1000
0000
0001
0000
1000
0100
,
1000
0000
0010
0000
0100
0000
0010
0001
,
0010
0000
1000
0000
0001
0000
0100
0001
,
0100
0000
0010
0000
0001
1000
0001
0000
,
0110
0000
0010
0100
,
1100
0000
0100
0001
,
0011
0000
1010
0000
,
0010
0000
0100
0000
0010
1000
0001
1001
;

//---------------dance-single - ----------------
#NOTES:
     dance-single:
     :
     Hard:
     14:
     0.570349,0.757979,0.328596,0.394315,0.135546,486.000000,446.000000,40.000000,48.000000,0.000000,0.000000,0.570349,0.757979,0.328596,0.394315,0.135546,486.000000,446.000000,40.000000,48.000000,0.000000,0.000000:
0000
0000
0000
0000
,
0000
0000
0000
0000
,
0000
0000
0000
0000
,
0000
0000
0000
0000
,
0000
0000
0000
0000
,
0000
0000
0000
0000
,
0000
0000
0000
0000
,
0020
0000
0000
0000
0030
0000
1000
0001
1000
0000
0000
0000
0011
0000
0000
0000
,
0100
0000
0000
0001
0000
0000
0001
0000
0000
0000
1000
0000
0001
0000
1000
0000
,
0010
0000
0000
0100
0000
0000
0100
0000
0000
0000
0001
0000
0100
0000
0001
0000
,
1000
0000
0000
0010
0000
0000
0010
0000
0000
0000
1000
0000
0100
0000
1000
0000
,
0001
0000
0000
1000
0000
0000
1000
0000
0000
0000
0010
0000
0100
0000
0010
0000
,
0100
0000
0000
0001
0000
0000
0001
0000
0000
0000
0100
0000
0010
0000
1000
0000
,
0010
0000
0000
0100
0000
0000
0100
0000
0000
0000
1000
0000
0001
0000
0100
0000
,
0001
0000
0000
1000
0000
0000
1000
0000
0000
0000
0010
0000
1000
0000
0010
0000
,
0200
0300
0200
0300
0200
0300
0220
0330
,
0010
0100
0001
0010
0000
0100
1000
0100
,
1000
0010
0100
0001
0000
1000
0001
1000
,
0001
0100
0010
1000
0000
0010
0100
0010
,
0100
0001
1000
0010
1000
0100
0010
0001
,
1000
0010
1000
0001
0000
0100
0001
0100
,
0001
0010
0100
1000
0000
0010
1000
0010
,
1000
0001
0010
0100
0000
1000
0001
1000
,
0002
0000
0003
0110
,
1000
0010
0100
0010
1000
0000
0001
0000
0100
0000
0020
0000
0000
0000
0030
0000
,
0100
0001
0010
0001
0100
0000
0010
0000
1000
0000
0002
0000
0000
0000
0003
0000
,
0010
0100
1000
0100
0010
0000
0001
0000
1000
0000
0200
0000
0000
0000
0300
0000
,
1000
0001
0010
0001
1000
0000
0000
0000
0100
0000
1000
0000
0010
0000
0100
0000
,
0001
0010
0100
0010
0001
0000
0000
0000
1000
0000
0010
0000
0100
0000
0010
1000
,
0010
0100
0001
0010
0100
0010
0001
1000
,
0001
1000
0100
1000
0001
0000
0100
0000
0010
0000
1000
0000
0001
0000
1000
0000
,
0000
0000
0101
0000
0000
0011
0000
0000
0110
0000
0000
1100
0000
0000
1000
0000
,
2001
0000
3010
0000
0001
0100
0001
0000
,
0200
0000
0310
0000
1000
0100
1000
0000
,
0020
0000
0130
0000
0001
0100
0001
0000
,
1000
0001
1000
0000
0010
1000
0100
0010
,
0110
0000
0000
0000
0000
0000
0000
1000
,
1001
0001
1000
0010
0100
0001
0010
0100
,
1100
0000
0000
0000
1000
0000
0000
0000
0010
0000
0000
0000
0100
0001
0100
0001
,
0010
0001
1000
0010
1010
0100
0001
0010
,
0002
0000
0000
0000
,
2003
0000
0000
0000
,
3200
0000
0320
0000
,
0032
0000
0000
0000
0003
0010
0001
0100
,
0020
0000
0000
0000
,
2030
0000
0000
0000
,
3002
0000
0203
0000
,
0320
2030
3002
0203
,
0310
0000
1010
0000
,
1000
0100
1100
0000
,
0001
0000
1001
0000
,
0010
0100
0110
0000
,
0100
0001
0101
0000
,
0010
0001
0011
0000
,
0010
0010
0100
0100
,
1000
0000
0001
0000
1000
0010
0100
0001
,
2002
0000
0000
3003
0000
0010
0001
0010
,
0001
0100
1000
0100
0010
1000
0001
0100
,
0020
0000
0000
2030
0000
0000
3002
0000
,
2000
3003
0000
0000
,
0220
0000
0000
0000
0000
0330
0000
0000
0000
0000
0100
0000
0010
0000
0100
0000
,
0001
1000
0010
1000
0001
0100
0010
1000
,
0002
0000
0000
0203
0000
0000
0320
0000
,
2000
0000
3030
0000
0000
0010
0100
0001
,
1002
0000
0013
0000
0100
1000
0001
0100
,
0010
0100
0001
0010
0100
1000
0001
0010
,
0001
0000
0001
1000
0000
1000
0010
0000
,
2000
0000
3010
0000
0100
0100
0100
0000
,
0120
0000
1030
0000
0100
1000
0001
1000
,
0100
0010
0001
0100
0010
1000
0010
1000
,
1100
0000
0001
0101
0000
0100
0110
0000
,
0011
0022
0000
0033
0000
0001
0100
0010
,
0120
0000
1030
0000
0010
1000
0001
0010
,
0100
1000
0100
1000
0001
0100
0010
1000
,
0001
0000
0001
0010
0000
0010
0100
0000
,
2000
0000
3001
0000
0010
0010
0010
0000
,
2100
0000
3010
0100
0010
1000
0001
0100
,
0001
0010
0100
0010
0001
1000
0100
0010
,
0001
1000
0001
0010
0001
0010
0100
1000
,
2020
0000
3030
0000
,
0010
1000
0001
0100
0010
0000
0100
0000
0010
0000
1000
0000
0000
0000
0000
0000
,
0001
0100
0010
1000
0100
0000
0010
0000
0001
0000
1000
0000
0000
0000
0000
0000
,
0100
1000
0001
0100
0010
0000
1000
0000
0001
0000
0100
0000
0000
0000
0000
0000
,
0010
0100
0001
0010
0100
0000
0000
0000
1000
0000
0010
0000
0100
0000
0001
0000
,
0101
0101
0000
0000
0010
0001
1000
0010
,
1010
1010
0000
0000
0100
0001
1000
0100
,
1100
1100
0000
0000
1001
1001
0000
0000
,
0011
0001
0100
0010
1000
0100
0010
1001
;
