#VERSION:0.83;
#TITLE:Hata;
#SUBTITLE:;
#ARTIST:Akino;
#TITLETRANSLIT:;
#SUBTITLETRANSLIT:;
#ARTISTTRANSLIT:;
#GENRE:;
#ORIGIN:;
#CREDIT:;
#BANNER:Hata.png;
#BACKGROUND:Hata-bg.png;
#PREVIEWVID:;
#JACKET:;
#CDIMAGE:;
#DISCIMAGE:;
#LYRICSPATH:;
#CDTITLE:;
#MUSIC:Hata.ogg;
#OFFSET:-0.548013;
#SAMPLESTART:24.100000;
#SAMPLELENGTH:15.454544;
#SELECTABLE:YES;
#BPMS:0.000=132.000;
#STOPS:;
#DELAYS:;
#WARPS:;
#TIMESIGNATURES:0.000=4=4;
#TICKCOUNTS:0.000=4;
#COMBOS:0.000=1;
#SPEEDS:0.000=1.000=0.000=0;
#SCROLLS:0.000=1.000;
#FAKES:;
#LABELS:0.000=Song Start;
#BGCHANGES:;
#KEYSOUNDS:;
#ATTACKS:
;

//---------------dance-single - ----------------
#NOTEDATA:;
#CHARTNAME:;
#STEPSTYPE:dance-single;
#DESCRIPTION:;
#CHARTSTYLE:;
#DIFFICULTY:Hard;
#METER:11;
#RADARVALUES:0.432520,0.451428,0.292728,0.451637,0.000000,362.000000,327.000000,35.000000,54.000000,0.000000,0.000000,0.000000,0.000000,0.000000,0.432520,0.451428,0.292728,0.451637,0.000000,362.000000,327.000000,35.000000,54.000000,0.000000,0.000000,0.000000,0.000000,0.000000;
#CREDIT:;
#NOTES:
0000
0000
0000
0000
,
0000
0000
0000
0000
,
0000
0000
0000
0000
,
0000
0000
0000
0000
,
0000
0000
0000
0000
,
0010
1000
0010
0100
0010
1000
0000
0002
,
0000
0000
0013
0200
0000
2000
0000
3300
,
1000
0100
0001
0100
1000
0001
0000
2000
,
0000
0000
3001
0200
0000
0002
0000
0303
,
0010
0010
1000
0100
0001
0010
0000
0200
,
0000
0000
0301
0002
0000
2000
0000
3003
,
0100
0100
0001
0100
1000
0001
0000
0020
,
0000
0000
0130
2000
0000
0020
0000
3030
,
1001
0010
1000
0000
0100
0010
0100
0000
,
0001
0010
0001
0100
0010
1000
1001
0000
,
1010
1000
0100
0000
0001
1000
0001
0000
,
0100
0010
1000
0100
0010
0001
1100
0000
,
0011
0010
0100
0000
1000
1000
0001
0000
,
0010
0100
0010
0010
1000
0100
0101
0000
,
0110
0001
0010
0000
0100
1000
0100
0000
,
1000
0100
1000
0001
0010
0100
0010
2010
,
0000
0010
0002
3000
0100
0000
0100
1000
,
1003
0010
0100
0012
0000
2003
0000
3020
,
0000
0001
0031
0000
0100
1000
0010
0000
,
0001
1000
0001
0010
1000
0100
0000
1200
,
0000
0010
0310
0010
2001
0000
3010
0000
,
0210
1300
1020
0031
,
0102
0013
0021
1030
,
1100
1001
0210
0301
,
2010
3001
0010
1010
,
0100
1100
1000
1001
,
0002
0203
0320
0230
,
2300
3002
0023
0100
,
1000
0000
1030
0000
0100
0001
0100
0000
,
0010
0000
1000
0001
1000
0000
0100
0010
,
0001
0100
0010
0000
0001
1000
0001
0010
,
0100
0000
0100
0001
1000
0000
1000
0001
,
0100
1000
0001
0000
0010
0001
0001
0010
,
1000
0100
0000
0002
0000
2003
0000
3020
,
0000
0100
1030
0100
1000
0010
0010
1000
,
0001
0100
0010
0200
0000
0302
0000
2003
,
0000
0010
3001
0120
0000
0000
1000
0000
,
0001
0000
0031
1000
0010
0000
0010
0001
,
0101
1000
1000
0200
0000
0000
0301
0010
,
0002
0000
1000
0010
1003
0100
0010
0001
,
0000
0101
0000
1200
0000
0000
0310
0000
,
0102
0013
1020
0130
,
0100
1000
0100
0001
0000
0010
0010
0000
,
1000
0001
0100
0000
0010
0001
0100
1000
,
0010
2020
0000
3030
0100
0010
0100
0000
,
0001
0010
0100
0010
1000
0100
1000
0100
,
0000
0010
0001
0010
0100
0001
0100
0001
,
0000
0010
1000
0100
0000
1000
0010
0100
,
0010
0001
1000
0000
0200
0000
0310
0001
,
0020
0000
1030
0001
2000
0000
0001
0010
,
0001
0100
3010
0000
0001
0100
0001
0010
,
0100
1000
0100
0100
0000
0010
1000
0100
,
0001
0010
1000
1000
0010
0000
0110
0000
,
1000
0000
1100
0000
0001
0010
0100
0010
,
1000
0000
1010
0000
0200
0000
0301
0001
,
0020
0000
1030
1000
0002
0000
0013
1000
,
0100
0010
1000
0000
1001
0000
0011
0100
,
0010
1000
0100
0000
2002
0000
0000
0000
,
0000
3000
0013
0000
;

//---------------dance-single - ----------------
#NOTEDATA:;
#CHARTNAME:;
#STEPSTYPE:dance-single;
#DESCRIPTION:;
#CHARTSTYLE:;
#DIFFICULTY:Medium;
#METER:7;
#RADARVALUES:0.338130,0.371764,0.184000,0.510183,0.000000,283.000000,261.000000,22.000000,61.000000,0.000000,0.000000,0.000000,0.000000,0.000000,0.338130,0.371764,0.184000,0.510183,0.000000,283.000000,261.000000,22.000000,61.000000,0.000000,0.000000,0.000000,0.000000,0.000000;
#CREDIT:;
#NOTES:
0000
0000
0000
0000
,
0000
0000
0000
0000
,
0000
0000
0000
0000
,
0000
0000
0000
0000
,
0000
0000
0000
0000
,
1000
0100
0001
0100
,
0010
0000
1000
0100
0000
1000
0001
0000
,
0100
0010
0001
0010
,
0100
0000
0010
0100
0000
0010
1000
0000
,
0001
1000
0010
0010
,
0001
0000
0100
0001
0000
0100
0010
0000
,
0100
0010
1000
1000
,
0100
0000
0001
0010
0000
0100
0100
0000
,
0002
0000
0103
2000
0000
0100
3010
0000
,
0200
0000
1300
0020
0000
1000
0130
0000
,
0002
0000
0013
2000
0000
0010
3100
0000
,
0020
0000
0031
2000
0000
0100
3100
0000
,
0002
0000
1003
0020
0000
0100
0031
0100
,
2000
0000
3010
0200
0000
0001
0310
0001
,
0020
0000
1030
0002
0000
0100
0013
0100
,
1000
0000
0100
0001
0100
0010
0010
0000
,
2020
0030
3001
0010
,
1000
0001
0002
0003
,
0010
0100
0010
0000
0100
0000
0100
1000
,
0001
0000
0001
1000
0010
0000
0110
0000
,
1000
0010
0010
0000
2200
0000
3300
0000
,
0220
0330
2002
3003
,
0202
0303
0020
1000
,
0032
0023
0230
1000
,
0302
0000
0013
0000
1000
0001
2000
0000
,
3010
0001
0020
0000
0130
1000
0200
0000
,
0001
0000
0301
1000
0100
0000
0101
0000
,
0001
0011
0020
0100
,
1030
1001
2000
0010
,
0100
3002
0203
0010
,
1300
0011
0020
0100
,
0100
0000
1030
0100
2000
0000
0100
0000
,
3001
0000
0101
0000
0010
0000
0001
0010
,
0000
0001
0000
1010
0000
0100
0000
0100
,
0000
0010
1000
0000
0001
1000
0001
0000
,
0010
1000
0000
0110
0000
0001
0000
0001
,
0000
0100
0010
0000
2200
0000
3000
0000
,
0301
0001
0020
1030
,
2000
3100
0200
0001
,
0301
0000
0010
1000
0010
0000
0001
1000
,
0000
0100
1000
0000
2020
0000
3030
0000
,
0022
0033
0220
0330
,
0202
0303
1000
0010
,
0001
0000
0001
0000
0100
1000
0100
0000
,
1000
1001
0010
1000
,
0010
0000
0100
0000
1000
0000
0001
1000
,
0000
0001
0010
0000
0100
0000
1000
0100
,
0000
1000
0001
0000
0010
0100
0100
0000
,
0001
1001
0100
0100
,
1000
1000
0010
0100
,
0001
0001
0020
1000
,
0100
0000
0130
0000
0001
0000
1000
0010
,
0010
0011
2000
3002
,
0100
0000
0103
0010
1000
0000
0001
1000
,
0001
0100
0020
0031
,
2000
0000
0100
0000
3100
0000
0001
1000
,
0010
1000
0100
0000
0002
0000
2003
0000
,
3100
0010
0200
0000
0002
0000
0000
0000
,
0000
0303
1001
0000
;

//---------------dance-single - ----------------
#NOTEDATA:;
#CHARTNAME:;
#STEPSTYPE:dance-single;
#DESCRIPTION:;
#CHARTSTYLE:;
#DIFFICULTY:Easy;
#METER:3;
#RADARVALUES:0.201922,0.238991,0.092000,0.225819,0.000000,169.000000,158.000000,11.000000,27.000000,0.000000,0.000000,0.000000,0.000000,0.000000,0.201922,0.238991,0.092000,0.225819,0.000000,169.000000,158.000000,11.000000,27.000000,0.000000,0.000000,0.000000,0.000000,0.000000;
#CREDIT:;
#NOTES:
0000
0000
0000
0000
,
0000
0000
0000
0000
,
0000
0000
0000
0000
,
0000
0000
0000
0000
,
0000
0000
0000
0000
,
0010
0000
1000
0000
,
0001
0001
0001
0000
,
0100
0000
1000
0000
,
0010
0010
0010
0000
,
0001
0001
0100
0000
,
0010
0010
1000
0000
,
0100
0100
1000
0001
,
1000
0000
0110
0000
,
0100
0001
0100
0000
,
0010
0100
0010
0000
,
1000
0001
1000
0000
,
0100
1000
0100
0000
,
0010
0001
0100
0000
,
1000
0001
0010
0000
,
0100
1000
0010
0000
,
0001
0100
1000
0000
,
0002
0000
0000
0003
,
0200
0300
0200
0300
,
1000
0001
0002
0003
,
1000
0001
2000
3000
,
0020
0030
1000
0000
,
1001
0000
0100
0000
,
0110
0000
0010
0000
,
0001
1000
0001
0000
,
0110
0000
0100
0100
,
0001
0000
0010
0010
,
0100
0000
0001
0100
,
1000
0100
0001
0000
,
1001
0000
2000
3000
,
2000
3000
0100
0001
,
0200
0300
0010
1000
,
0001
1000
1000
0000
,
0110
0000
0200
0300
,
1000
0001
1000
0010
,
0010
0000
0002
0003
,
0100
0001
0100
1000
,
1000
0000
0020
0000
,
0030
0001
0002
0003
,
0200
0300
0001
1000
,
2000
3000
0100
0010
,
0020
0030
0100
0000
,
1001
0000
0001
0000
,
0110
0000
0100
0001
,
1000
0100
0001
0000
,
1001
0000
0010
0100
,
0001
0000
0200
0300
,
0010
0010
2000
3000
,
0001
0010
0020
0030
,
0200
0300
1000
0010
,
1000
0000
0100
0010
,
0100
0000
1000
0001
,
1000
0100
0010
0000
,
1001
0000
2000
3000
,
0100
0010
0020
0030
,
1000
0001
0002
0003
,
0200
0300
0001
1000
,
2000
3000
0100
1000
,
0001
0000
0220
0000
,
0000
0000
0330
0000
;

//---------------dance-single - ----------------
#NOTEDATA:;
#CHARTNAME:;
#STEPSTYPE:dance-single;
#DESCRIPTION:;
#CHARTSTYLE:;
#DIFFICULTY:Beginner;
#METER:2;
#RADARVALUES:0.127844,0.182955,0.041818,0.083637,0.000000,107.000000,102.000000,5.000000,10.000000,0.000000,0.000000,0.000000,0.000000,0.000000,0.127844,0.182955,0.041818,0.083637,0.000000,107.000000,102.000000,5.000000,10.000000,0.000000,0.000000,0.000000,0.000000,0.000000;
#CREDIT:;
#NOTES:
// measure 0
0000
0000
0000
0000
,  // measure 1
0000
0000
0000
0000
,  // measure 2
0000
0000
0000
0000
,  // measure 3
0000
0000
0000
0000
,  // measure 4
0000
0000
0000
0000
,  // measure 5
0200
0000
0300
0000
,  // measure 6
0001
0000
0001
0000
,  // measure 7
0002
0000
0003
0000
,  // measure 8
0010
0000
0010
0000
,  // measure 9
0020
0000
0030
0000
,  // measure 10
1000
0000
1000
0000
,  // measure 11
2000
0000
3000
0000
,  // measure 12
0100
0000
0100
0000
,  // measure 13
0001
0001
0001
0000
,  // measure 14
1000
0000
0001
0000
,  // measure 15
1000
1000
1000
0000
,  // measure 16
0010
0000
1000
0000
,  // measure 17
0010
0010
0010
0000
,  // measure 18
0100
0000
0010
0000
,  // measure 19
0100
0100
0100
0000
,  // measure 20
0001
0000
0001
0000
,  // measure 21
1001
0000
0000
0000
,  // measure 22
0000
0000
0010
0000
,  // measure 23
0010
0000
0000
0000
,  // measure 24
1000
0000
0100
0000
,  // measure 25
0100
0000
0110
0000
,  // measure 26
0000
0000
1000
0000
,  // measure 27
0000
0000
0001
0000
,  // measure 28
0000
0000
1000
0000
,  // measure 29
0000
0000
0010
0000
,  // measure 30
0010
0000
0001
0000
,  // measure 31
0010
0000
0100
0000
,  // measure 32
0010
0000
1000
0000
,  // measure 33
0000
0000
0110
0000
,  // measure 34
0000
0000
0100
0000
,  // measure 35
0000
0000
0010
0000
,  // measure 36
0100
0000
0020
0000
,  // measure 37
0030
0000
1000
0000
,  // measure 38
1000
0000
0001
0000
,  // measure 39
1000
0000
0100
0000
,  // measure 40
0100
0000
0001
0000
,  // measure 41
0100
0000
2000
0000
,  // measure 42
3000
0000
0001
0000
,  // measure 43
0001
0000
0002
0000
,  // measure 44
0003
0000
0100
0000
,  // measure 45
0100
0000
0200
0000
,  // measure 46
0300
0000
0010
0000
,  // measure 47
0010
0000
0020
0000
,  // measure 48
0030
0000
1000
0000
,  // measure 49
1000
0000
1001
0000
,  // measure 50
0000
0010
0010
0000
,  // measure 51
0000
1000
1000
0000
,  // measure 52
0000
0001
0001
0000
,  // measure 53
0100
0000
0200
0000
,  // measure 54
0300
0000
0010
0000
,  // measure 55
0001
0000
1000
0000
,  // measure 56
1000
0000
0100
0000
,  // measure 57
0010
0000
1000
1000
,  // measure 58
1000
0000
0100
0000
,  // measure 59
1000
0000
0010
0000
,  // measure 60
0100
0000
0010
0010
,  // measure 61
0010
0000
1000
0000
,  // measure 62
0001
0000
1001
0000
;
