#TITLE:Haisui no jin;
#SUBTITLE:;
#ARTIST:Hideo Suwa;
#TITLETRANSLIT:;
#SUBTITLETRANSLIT:;
#ARTISTTRANSLIT:;
#GENRE:;
#CREDIT:;
#BANNER:Haisui no jin.png;
#BACKGROUND:Haisui no jin-bg.png;
#LYRICSPATH:;
#CDTITLE:;
#MUSIC:Haisui no jin.ogg;
#OFFSET:-0.405178;
#SAMPLESTART:101.275002;
#SAMPLELENGTH:13.170738;
#SELECTABLE:YES;
#BPMS:0.000000=164.000000
;
#STOPS:
;
#BGCHANGES:;
#KEYSOUNDS:;
#ATTACKS:;

//---------------dance-single - ----------------
#NOTES:
     dance-single:
     :
     Hard:
     13:
     0.578645,0.724029,0.428878,0.349456,0.210468,510.000000,456.000000,54.000000,44.000000,0.000000,0.000000,0.578645,0.724029,0.428878,0.349456,0.210468,510.000000,456.000000,54.000000,44.000000,0.000000,0.000000:
0000
0000
0000
0000
,
0000
0000
0000
0000
,
0000
0000
0000
0000
,
0000
0000
0000
0000
,
0000
0000
0000
0000
,
2001
0000
0000
0010
0000
0000
0100
0000
0000
0001
0000
0000
0100
0000
0010
0000
,
0100
0000
0000
0001
0000
0000
0010
0000
0000
0100
0000
0000
0001
0000
0010
0000
,
0001
0000
0000
0100
0000
0000
0010
0000
0000
0100
0000
0000
0010
0000
0001
0000
,
0100
0000
0000
0010
0000
0000
3001
0000
0001
0000
0010
0000
0110
0000
0000
0000
,
0200
0000
0000
0000
,
0000
0000
0000
0300
,
0000
0010
0001
0010
0000
0100
0010
0100
,
0000
1000
0100
0001
0010
0001
0100
0010
,
0000
0000
1000
0100
1000
0000
0010
0000
0001
0000
0010
0000
0100
0000
0100
0000
,
0000
0000
0010
1000
0010
0000
0001
0000
0100
0000
1000
0000
0001
0000
0001
0000
,
0000
0000
1000
0001
1000
0000
0100
0000
0010
0000
0001
0000
0010
0000
0010
0000
,
0001
0010
0001
0000
0100
0010
0100
0000
0100
0001
0100
0000
0010
1000
0010
0000
,
2002
0000
0000
0000
0000
3000
0000
0000
,
0013
1000
1100
1100
1100
1100
1100
1001
,
0000
0010
1000
0010
0100
0001
0010
0000
,
0000
0100
1000
0001
0010
0001
0100
0000
,
0000
0010
0100
0010
1000
0100
0001
0000
,
0001
0001
1000
0100
1000
0000
1010
0000
,
0100
0000
0001
0000
0100
0000
1000
0000
0010
0000
1000
0020
0000
0000
0000
0000
,
0031
0000
1000
0000
0100
0000
1000
0000
0001
0000
0100
0002
0000
0000
0000
0000
,
1003
0010
0100
0001
0010
0001
2000
0000
,
3100
0001
0010
1000
0100
0000
0110
0000
,
0100
1000
0200
0000
0301
1000
0002
0000
,
0013
0100
0020
0000
1030
0001
0011
0000
,
0100
0001
0200
0000
1300
0001
2000
0000
,
3001
0100
0102
0000
0013
1000
1001
0001
,
0010
0000
1000
0000
0010
0100
0000
0000
1000
0000
0001
0000
1000
0010
0000
0000
,
0001
0000
0100
0000
0001
1000
0000
0000
0010
0000
1000
0000
1100
0000
0001
0000
,
0010
0000
1000
0000
0010
0001
0000
0000
1000
0000
0001
0000
1000
0010
0000
0000
,
0100
0001
0010
1000
0100
0000
1001
0000
,
0100
0000
0001
0000
0100
0000
1000
0000
0100
0000
0000
0010
0000
0000
0001
0000
,
1000
0000
0100
0000
1000
0000
0010
0000
1000
0000
0000
0001
0000
0000
0010
0000
,
0001
0000
1000
0000
0001
0000
0010
0000
0001
0000
0000
1000
0000
0000
0100
0000
,
0100
0010
0001
0010
1000
0100
1200
0000
,
0310
0000
0001
0000
0100
0000
0001
0000
0010
0000
0000
1000
0000
0000
0001
0000
,
0100
0000
0010
0000
1000
0000
0010
0000
0100
0000
0000
0001
0000
0000
0010
0000
,
0001
0000
1000
0000
0010
0000
1000
0000
0001
0000
0000
0100
0000
0000
1000
0000
,
2000
0000
3002
0000
0203
0000
0310
0220
,
0000
0000
0000
0000
,
0000
0000
0000
0330
,
1002
1000
0010
0100
,
0010
0000
1000
0000
0100
0000
0103
0100
,
2100
0001
0010
0100
,
3020
0001
1000
0100
,
0032
1003
2000
3100
,
0010
0001
1000
0001
0200
0010
0310
0000
,
0001
0000
0011
0000
0010
0000
0000
1000
0000
0010
0000
0000
1000
0000
0010
0000
,
0100
0000
0101
0000
0001
0000
0000
0010
0000
0100
0000
0000
0010
0000
0100
0000
,
0001
0000
1001
0000
1000
0000
0000
0001
0000
0000
0100
0000
0001
0000
0100
0000
,
0001
0001
1000
1000
0100
0010
0200
0000
,
0310
0000
1000
0000
0010
0000
1000
0001
0000
0001
0000
0010
0001
0000
0100
0000
,
1000
0000
0010
0000
0001
0000
0010
0100
0000
0100
0000
0001
0100
0000
0010
0000
,
2002
3000
0200
0003
,
0020
0000
0300
0000
0100
0100
0130
0000
,
1000
1001
0010
0011
,
0100
0001
0110
0110
0110
0110
1000
1010
,
0000
0000
0010
0000
0100
0000
0010
0000
0001
0000
0000
0010
0000
0000
1000
0000
,
0000
0000
0001
0000
1000
0000
0001
0000
0100
0000
0000
1000
0000
0000
0010
0000
,
0000
0000
0100
0000
1000
0000
0100
0000
0010
0000
0000
0001
0000
0000
1000
0000
,
0001
1000
0100
0110
,
1000
0000
0100
0000
0010
0000
0100
0000
0001
0000
0000
1000
0000
0000
1001
0000
,
0001
0000
0010
0000
0100
0000
0010
0000
1000
0000
0000
0100
0000
0000
0110
0000
,
0100
0010
1000
0010
0000
0100
0001
1000
,
1100
0101
0022
0033
,
1000
0000
0000
1000
0000
0000
2000
0000
0000
0000
0100
0000
3010
0000
0100
0000
,
0010
0000
0000
0010
0000
0000
0020
0000
0000
0000
0001
0000
1030
0000
0001
0000
,
0100
0000
0000
0100
0000
0000
0200
0000
0000
0000
0010
0000
1300
0000
0010
0000
,
0110
0000
0011
0000
2000
0200
0000
3300
,
0010
0000
0000
1000
0000
0000
0210
0000
0000
0000
0001
0000
0301
0000
0010
0000
,
0100
0000
0000
0001
0000
0000
1020
0000
0000
0000
1000
0000
1030
0000
0001
0000
,
1000
0000
0000
0010
0000
0000
1002
0000
0000
0000
0010
0000
0103
0000
0010
0000
,
1100
0000
0101
0000
0010
0001
1001
0000
,
2020
0000
0000
0000
,
0000
0000
0000
0000
0000
3030
0110
0000
,
0000
0100
0001
0100
0010
0001
1000
0100
,
1000
0010
1000
0000
0100
0001
0100
0000
0010
1000
0010
0000
0001
0100
0001
0000
,
0022
0000
0000
0000
0000
0003
0000
0000
,
0130
0001
0101
0101
0101
0101
0101
0110
;

//---------------dance-single - ----------------
#NOTES:
     dance-single:
     :
     Medium:
     10:
     0.439089,0.493656,0.238265,0.262092,0.000000,387.000000,357.000000,30.000000,33.000000,0.000000,0.000000,0.439089,0.493656,0.238265,0.262092,0.000000,387.000000,357.000000,30.000000,33.000000,0.000000,0.000000:
0000
0000
0000
0000
,
0000
0000
0000
0000
,
0000
0000
0000
0000
,
0000
0000
0000
0000
,
0000
0000
0000
0000
,
0110
0000
0010
0000
1000
0100
0010
0100
,
0001
0000
1000
0000
0010
0100
0001
0100
,
1000
0000
0001
0000
1000
0100
0001
0100
,
0010
0000
0001
0000
1000
0001
0001
0000
,
1100
0000
0000
0000
,
0000
0000
0000
0200
,
0310
0000
0001
0000
0100
1000
0100
0000
,
0010
0000
1000
0000
0001
0100
0001
0000
,
1000
0000
0001
0000
0010
0100
0001
0100
,
0001
0000
0010
0000
1000
0001
1000
0100
,
0001
0000
1000
0000
0100
1000
0010
1000
,
0200
0302
0023
2030
,
0002
0000
0000
3003
,
0100
0010
0100
0010
0100
0010
0110
0000
,
0000
0001
0100
0000
0010
0000
1000
0010
,
1000
0000
0100
0000
0001
0100
0001
0000
,
0010
0000
0001
0000
1000
0001
1000
0000
,
0010
0001
0100
0001
0100
0000
1000
0000
,
0101
0000
1000
0000
0010
0100
0010
0000
,
0001
0000
0100
0000
1000
0001
1000
0000
,
0010
0000
0001
0000
0100
0010
0100
0000
,
0010
1000
0010
0100
1000
0000
0011
0000
,
0001
1000
0001
0000
0100
0001
0100
0000
,
0010
0001
0010
0000
1100
0000
1010
0000
,
0100
1000
0100
0000
0001
0010
0001
0000
,
0010
1000
0010
0000
0101
0000
1001
0000
,
0010
1000
1000
0000
0100
0010
0010
0000
,
1000
0001
0001
0000
0100
0100
0100
0000
,
1000
0100
0010
0000
0100
0010
0001
0000
,
0010
1000
0110
1100
,
0020
0000
0001
0000
0130
1000
0100
0000
,
0002
0000
1000
0000
0013
0100
0010
0000
,
1001
0000
1000
0000
0001
0010
0100
0000
,
1000
0001
1000
0100
0001
0000
0101
0000
,
2000
0000
0001
0000
3010
0001
0010
0000
,
0200
0000
0010
0000
1300
0001
1000
0000
,
0010
0100
1000
0000
0001
0010
0100
0000
,
0001
1001
0010
0110
,
0202
0000
0000
0000
,
0000
0000
0000
0000
0303
0000
0010
1000
,
2020
0000
0000
0000
,
0000
0000
0000
0000
0000
0000
3030
0100
,
0200
0000
0000
0000
0000
0000
0300
0001
,
0002
0000
0000
0000
0000
0000
0003
1000
,
2000
0000
3000
0010
0020
0000
0030
0100
,
0100
0001
1000
0011
,
0001
0002
1000
0000
0010
0000
1003
0000
,
0100
0200
0010
0000
0001
0000
0310
0000
,
1000
2000
0001
0000
0100
0000
3001
0000
,
1000
0000
0010
1000
0001
0000
1100
0000
,
0000
0100
0001
0000
0100
1000
0100
0010
,
0000
0100
1000
0000
0010
1000
0010
0001
,
2002
0000
0000
0000
,
0000
0003
0100
3100
,
0001
1001
0010
0110
,
0001
0100
0001
0100
0001
0100
0101
0000
,
1000
0000
0010
0000
0001
0010
0001
0000
,
0100
0000
0010
0000
1000
0001
1000
0000
,
0001
0000
0100
0010
0001
0000
1000
0001
,
0100
0010
0100
0000
0010
0000
1001
0000
,
0001
1000
0010
0000
0001
0000
0100
0010
,
1000
0100
1000
0000
0001
0000
0010
1000
,
0010
0001
0100
0000
0001
0000
0010
0100
,
0020
0032
0200
0303
,
0001
0000
1000
0000
0010
1000
0010
0000
,
0100
0000
1000
0000
0100
0010
0100
0000
,
1000
0000
0010
0000
0001
0010
0001
0000
,
0100
0000
0001
0000
1000
0100
0100
0000
,
0001
0000
0011
0000
0100
1000
0100
0000
,
0010
0000
1010
0000
0001
1000
0001
0000
,
0100
0000
0101
0000
1000
0010
1000
0000
,
0020
2030
3002
0203
,
0020
0000
0000
0000
,
0000
0000
0000
0330
,
1000
0000
0100
0000
0001
0100
0010
0000
,
0100
0001
0100
0001
0010
0000
0110
0000
,
2002
0000
0000
3003
,
1000
0010
1000
0010
1000
1000
1000
1010
;

//---------------dance-single - ----------------
#NOTES:
     dance-single:
     :
     Easy:
     6:
     0.302937,0.394329,0.198555,0.277976,0.000000,267.000000,242.000000,25.000000,35.000000,0.000000,0.000000,0.302937,0.394329,0.198555,0.277976,0.000000,267.000000,242.000000,25.000000,35.000000,0.000000,0.000000:
0000
0000
0000
0000
,
0000
0000
0000
0000
,
0000
0000
0000
0000
,
0000
0000
0000
0000
,
0000
0000
0000
0000
,
1100
0000
0100
0010
,
0001
0000
0001
1000
,
0100
0000
0010
1000
,
0010
0100
0001
0000
,
0110
0000
0000
0000
,
0000
0000
0000
0000
,
0000
1000
0001
1000
,
0000
0010
1000
0010
,
0000
0001
0100
0001
,
1000
0010
0100
0100
,
0000
0010
1000
0010
,
1000
1000
0001
0001
,
2002
0000
0000
3003
,
0010
0010
0010
0110
,
0100
0000
0001
1000
,
0010
0000
0001
0100
,
0010
0000
1000
0010
,
0100
0000
1001
0000
,
0100
0001
0100
0100
,
0010
0001
0010
0010
,
0001
0100
1000
0100
,
1000
0001
0011
0000
,
0100
0010
0100
0010
,
0100
1000
0001
0010
,
1000
0100
1000
0100
,
0001
0001
1000
1010
,
0100
0001
0010
0001
,
0010
0100
1000
1000
,
0001
1000
0100
1000
,
0001
0001
0110
0000
,
0200
0301
0010
0001
,
2000
3010
0100
0010
,
0002
1003
0100
1000
,
0100
0010
0100
0001
,
2000
3010
0001
0100
,
0002
1003
0010
0100
,
0020
1030
0001
0100
,
1000
1000
0001
0100
,
2020
0000
0000
0000
,
0000
0000
0000
3030
,
0100
0000
0100
0000
,
0001
0001
1000
0000
,
0110
0000
0010
0001
,
0011
0000
0100
1000
,
1100
0000
0101
0000
,
0100
0100
0110
0000
,
0002
0003
1000
0010
,
2000
3000
0100
0010
,
0200
0300
0010
0001
,
0010
0000
1001
0000
,
0010
0100
0010
0100
,
1000
0001
1000
0001
,
0220
0000
0000
0000
,
0000
0000
0000
0330
,
2000
3000
0002
0003
,
1000
1000
1000
1001
,
0020
1030
0001
0010
,
0002
0103
0010
0100
,
2000
3010
0100
0001
,
0010
0100
1000
1000
,
0002
0013
0100
0001
,
0020
0031
1000
0100
,
2000
3001
0100
0010
,
1000
0001
2002
3003
,
0010
0100
0020
0030
,
1000
0001
2000
3000
,
0001
0010
0002
0003
,
0220
0330
2020
3030
,
1000
0001
1001
1000
,
0010
0100
0110
0010
,
1000
0010
1010
1000
,
0001
0100
1000
0010
,
0200
0000
0000
0000
,
0000
0000
0000
0300
,
1000
0100
0010
0100
,
0010
0010
0100
1000
,
0022
0000
0000
0033
,
0010
0010
0010
1001
;

//---------------dance-single - ----------------
#NOTES:
     dance-single:
     :
     Beginner:
     4:
     0.197420,0.262886,0.087364,0.015884,0.000000,174.000000,163.000000,11.000000,2.000000,0.000000,0.000000,0.197420,0.262886,0.087364,0.015884,0.000000,174.000000,163.000000,11.000000,2.000000,0.000000,0.000000:
// measure 0
0000
0000
0000
0000
,  // measure 1
0000
0000
0000
0000
,  // measure 2
0000
0000
0000
0000
,  // measure 3
0000
0000
0000
0000
,  // measure 4
0000
0000
0000
0000
,  // measure 5
0010
0000
0010
0000
,  // measure 6
0100
0000
0100
0000
,  // measure 7
0001
0000
0001
0000
,  // measure 8
1000
0000
1000
0000
,  // measure 9
1001
0000
0000
0000
,  // measure 10
0000
0000
0000
0000
,  // measure 11
0000
0100
0000
0100
,  // measure 12
0000
0100
0000
0100
,  // measure 13
0000
0001
0001
0001
,  // measure 14
0000
1000
1000
1000
,  // measure 15
0000
0010
0010
0010
,  // measure 16
0010
0000
0100
0000
,  // measure 17
0110
0000
0000
0000
,  // measure 18
1000
1000
1000
0000
,  // measure 19
0001
0000
0001
0000
,  // measure 20
1000
0000
1000
0000
,  // measure 21
0010
0000
0010
0000
,  // measure 22
0100
0000
0100
0000
,  // measure 23
0001
0001
0001
0000
,  // measure 24
0100
0100
0100
0000
,  // measure 25
0010
0010
0010
0000
,  // measure 26
1000
1000
1000
0000
,  // measure 27
0001
0000
1000
0000
,  // measure 28
0001
0000
1000
0000
,  // measure 29
0100
0000
0010
0000
,  // measure 30
0100
0000
0010
0000
,  // measure 31
1000
0000
0100
0000
,  // measure 32
1000
0000
0100
0000
,  // measure 33
0001
0000
0010
0000
,  // measure 34
0001
0000
0010
0000
,  // measure 35
0110
0000
0100
0100
,  // measure 36
0100
0000
1000
1000
,  // measure 37
1000
0000
0010
0010
,  // measure 38
0010
0000
1000
0000
,  // measure 39
1001
0000
0001
0001
,  // measure 40
0001
0000
0010
0010
,  // measure 41
0010
0000
1000
1000
,  // measure 42
1000
0000
0001
0000
,  // measure 43
1001
0000
0000
0000
,  // measure 44
0000
0000
0000
0000
,  // measure 45
0110
0000
0000
0000
,  // measure 46
0000
0000
0000
0000
,  // measure 47
0010
0000
0000
0000
,  // measure 48
0100
0000
0000
0000
,  // measure 49
0001
0000
1000
0000
,  // measure 50
0001
0000
1001
0000
,  // measure 51
0010
0000
0010
0000
,  // measure 52
0100
0000
0100
0000
,  // measure 53
0010
0000
0100
0000
,  // measure 54
1000
0000
0001
0000
,  // measure 55
1000
1000
1000
0000
,  // measure 56
0001
0001
0001
0000
,  // measure 57
2002
0000
0000
0000
,  // measure 58
3003
0000
0000
0000
,  // measure 59
0100
0000
0010
0000
,  // measure 60
0100
0100
0100
0000
,  // measure 61
0010
0000
0010
0000
,  // measure 62
0100
0000
0100
0000
,  // measure 63
0001
0000
1000
0000
,  // measure 64
0001
0000
1000
0000
,  // measure 65
0001
0000
0001
0000
,  // measure 66
1000
0000
1000
0000
,  // measure 67
0100
0000
0010
0000
,  // measure 68
0100
0000
0010
0000
,  // measure 69
1000
1000
1000
0000
,  // measure 70
0001
0001
0001
0000
,  // measure 71
1000
1000
1000
0000
,  // measure 72
0100
0000
0110
0000
,  // measure 73
0010
0010
0010
0000
,  // measure 74
0100
0100
0100
0000
,  // measure 75
0010
0010
0010
0000
,  // measure 76
0001
0000
1000
0000
,  // measure 77
1001
0000
0000
0000
,  // measure 78
0000
0000
0000
0000
,  // measure 79
0010
0000
0100
0000
,  // measure 80
0010
0010
0010
0000
,  // measure 81
0110
0000
0000
0000
,  // measure 82
0100
0100
0100
0100
;
