#TITLE:Goodbye-bye Planet;
#SUBTITLE:;
#ARTIST:Chroma;
#TITLETRANSLIT:;
#SUBTITLETRANSLIT:;
#ARTISTTRANSLIT:;
#GENRE:;
#CREDIT:;
#BANNER:Goodbye-bye Planet.png;
#BACKGROUND:Goodbye-bye Planet-bg.png;
#LYRICSPATH:;
#CDTITLE:;
#MUSIC:Goodbye-bye Planet.ogg;
#OFFSET:-0.183000;
#SAMPLESTART:58.560001;
#SAMPLELENGTH:15.568000;
#SELECTABLE:YES;
#DISPLAYBPM:93.000000:185.000000;
#BPMS:0.000000=185.000000
,85.500000=290.000000
,86.000000=185.000000
,145.000000=92.500000
,158.750000=185.000000
,289.000000=370.000000
,292.000000=185.000000
;
#STOPS:75.500000=0.649000,
85.500000=0.414000,
158.750000=0.243000,
159.000000=0.243000,
159.250000=0.243000,
245.000000=1.297000,
289.000000=0.270000,
289.333344=0.190000,
289.666656=0.190000,
290.000000=0.190000,
290.333344=0.190000,
290.666656=0.190000,
291.000000=0.190000,
291.333344=0.190000,
291.666656=0.190000
;
#BGCHANGES:;
#KEYSOUNDS:;
#ATTACKS:;

//---------------dance-single - ----------------
#NOTES:
     dance-single:
     :
     Hard:
     16:
     0.660018,1.125941,0.539014,0.256674,0.312286,540.000000,477.000000,63.000000,30.000000,4.000000,0.000000,0.660018,1.125941,0.539014,0.256674,0.312286,540.000000,477.000000,63.000000,30.000000,4.000000,0.000000:
// measure 0
0000
0000
0000
0000
,  // measure 1
0000
0000
0000
0000
,  // measure 2
0000
0000
0000
0000
,  // measure 3
0000
0000
0000
0000
,  // measure 4
0000
0000
0000
0000
,  // measure 5
0000
0000
0000
0000
,  // measure 6
0000
0000
0000
0000
,  // measure 7
0000
0000
0000
0000
,  // measure 8
0001
0100
0001
0100
0001
0010
1000
0010
,  // measure 9
0000
0100
0010
0100
0000
1000
0100
0010
,  // measure 10
0001
0000
1000
0010
0000
1000
0000
0001
,  // measure 11
0000
0000
0000
0000
0000
1000
0001
0100
,  // measure 12
0010
1000
0010
1000
0010
0100
0001
0010
,  // measure 13
0000
0001
0100
0001
0000
1000
0100
1000
,  // measure 14
0001
0000
1000
0000
0100
0010
0001
1000
,  // measure 15
0000
0001
0000
1000
0010
0100
0001
0010
,  // measure 16
1001
0000
1001
0000
1010
1010
0000
0110
,  // measure 17
0000
0110
0000
0101
0101
0000
0101
0000
,  // measure 18
0011
0011
0000
1100
0000
0101
0000
1001
,  // measure 19
1000
0001
1000
0001
0100
0010
0100
0010
0000
0000
0100
0000
0001
0000
1000
0000
,  // measure 20
0010
0000
2000
0000
3000
0001
0100
0010
,  // measure 21
1000
0010
0100
0001
1100
1000
0010
0100
,  // measure 22
0000
0001
0000
0010
0001
0100
0010
1000
,  // measure 23
0100
0010
0001
0000
0101
0000
0010
1000
,  // measure 24
0000
1010
0000
0000
0100
0001
0000
0010
,  // measure 25
0000
0100
1000
0020
0000
0000
0000
0000
,  // measure 26
0030
1100
1010
0011
,  // measure 27
0202
0000
0303
0000
1001
1000
1001
0001
,  // measure 28
0000
0000
0110
0000
0000
0000
0120
0000
0000
0000
1030
0000
0001
0000
0100
0001
,  // measure 29
0010
0100
1000
0200
0000
0300
1000
1000
,  // measure 30
1000
1100
0000
0101
0000
0021
0000
0130
,  // measure 31
1000
0000
0100
1000
0001
0000
0100
0001
0100
0000
0020
0000
0000
0000
0030
0000
,  // measure 32
0000
0000
0100
0010
1000
0000
0001
0000
0010
0000
0100
0000
0000
0000
1000
0000
,  // measure 33
0010
1000
0100
0000
0110
0000
0001
0000
,  // measure 34
0101
0000
0020
0000
1030
0200
0000
0000
,  // measure 35
1300
2020
0000
0000
0000
0030
0000
3100
,  // measure 36
0010
0000
0001
0000
0100
0010
0100
0010
0100
0010
1000
0100
0000
0010
0001
0010
,  // measure 37
0000
0100
1000
0001
0010
0000
0100
1000
0000
0010
0000
0200
0000
0000
0001
0000
,  // measure 38
0301
0010
0100
1000
0010
1000
0010
1000
0010
0100
0001
1000
0000
0100
0010
0100
,  // measure 39
0000
0010
0001
1000
0010
0000
0100
0001
0000
0010
0100
1100
1010
0110
0001
0000
,  // measure 40
1001
0000
0000
0000
0010
0000
1000
0000
0010
0000
0100
0000
0001
0000
0100
0010
,  // measure 41
0000
0100
0001
0000
1000
0000
0010
0000
0100
0000
0010
1000
0000
1000
0100
0000
,  // measure 42
0010
0000
0001
0000
0010
0000
0001
0000
0100
0000
0010
0000
0000
1000
0000
0000
,  // measure 43
0001
0000
0001
0010
0000
0000
0100
0000
0010
0000
0100
0000
1000
0000
0010
0100
,  // measure 44
0000
0001
1000
0100
1000
0010
0100
0001
,  // measure 45
0010
0000
0100
0000
0010
0000
0001
0000
1000
0000
1000
0001
0000
0000
0100
0000
,  // measure 46
0001
0010
0100
0010
0100
1000
0010
1000
,  // measure 47
0001
0000
0001
0100
0000
0000
0010
0000
0100
0000
0010
0000
1000
0000
0100
0000
,  // measure 48
0001
0000
1002
1000
1000
1000
1003
0000
,  // measure 49
0011
0000
0120
0100
0100
0100
0130
0000
,  // measure 50
1100
0000
2010
0010
3020
0100
0100
0230
,  // measure 51
0001
0302
0010
0010
0010
0010
0013
0000
,  // measure 52
0110
0000
1000
0100
1000
0100
1000
0010
,  // measure 53
0100
0000
0001
1000
0001
1000
0001
0100
,  // measure 54
0010
0000
1000
0010
0100
0001
0100
0010
,  // measure 55
1000
0001
1000
0100
0010
0100
1000
0001
,  // measure 56
0100
0000
0000
0000
0020
0000
0000
0000
0130
0000
0000
0000
0001
0100
0001
0100
,  // measure 57
0001
0000
1000
0010
1000
0010
1000
0010
,  // measure 58
1000
0010
0100
0010
0100
0001
0100
0010
,  // measure 59
0100
0001
1000
0010
0100
0001
1000
0001
,  // measure 60
0010
0100
1000
0001
1000
0010
0100
0001
,  // measure 61
0010
0000
0000
0000
0000
0000
0000
0000
0000
0000
0000
0000
0000
0000
0000
0000
0000
0000
0000
0000
0000
0000
0000
0000
0100
0000
0000
0000
0000
0000
0000
0000
0000
0000
0000
0000
0000
0000
0000
0000
0000
0000
0000
0000
0000
0000
0000
0000
1000
00M0
0000
0000
0000
0000
0000
0000
0000
0000
0000
0000
0000
0000
0000
0000
0000
0000
0000
0000
0000
0000
0000
0000
0000
0000
0000
0000
0000
0000
0000
0000
0000
0000
0000
0000
0000
0000
0000
0000
0000
0000
0000
0000
0000
0000
0000
0000
00M0
0000
0000
0000
0000
0000
0000
0000
0000
0000
0000
0000
0000
0000
0000
0000
0000
0000
0000
0000
0000
0000
0000
0000
0000
0000
0000
0000
0000
0000
0000
0000
0000
0000
0000
0000
0000
0000
0000
0000
0000
0000
0000
0000
0000
0000
0000
0000
1100
0000
0000
0000
0000
0000
0000
0000
0000
0000
0000
0000
0000
0000
0000
0000
0000
0000
0000
0000
0000
0000
0000
0000
0000
0000
0000
0000
0000
0000
0000
0000
0000
0000
0000
0000
0000
0000
0000
0000
0000
0000
0000
0000
0000
0000
0000
0000
,  // measure 62
0101
0000
0000
0000
0010
0000
1000
0001
0000
1000
0010
0000
0100
0000
0001
0000
,  // measure 63
0010
0000
0000
0000
0100
1000
0100
1000
0100
1000
0100
1000
0001
0000
0010
0001
,  // measure 64
0000
0100
0010
0000
2000
0000
0000
0000
0000
0000
0100
0000
0200
0000
0000
0000
,  // measure 65
3000
0000
0000
0310
0100
0010
0001
1000
0001
0100
0010
1000
,  // measure 66
0002
0000
0000
0000
1003
0000
0000
0000
0220
0000
0000
0000
0330
0000
0001
0010
,  // measure 67
0001
0000
0000
0000
1000
0000
0000
0000
0010
0000
0100
0010
1000
0000
0000
0000
,  // measure 68
0001
0000
0000
0011
0000
0100
0000
1000
0000
1010
0000
0100
,  // measure 69
0000
0000
0000
0000
0001
0000
0000
0000
0000
0000
0000
0000
1000
0000
0000
0000
0000
0000
1000
0000
0000
0010
0000
0000
0000
0000
0000
0010
0000
0000
0100
0000
0000
0000
0000
0000
0001
0000
0000
0000
0000
0000
1000
0000
0000
0000
0000
0000
,  // measure 70
0010
0100
0001
0100
1000
0100
0001
0100
,  // measure 71
1000
0100
0001
0010
0100
0010
0001
1000
,  // measure 72
0020
0000
0000
0130
0101
0011
0110
1100
1010
1001
0011
0110
,  // measure 73
1100
1000
0200
0000
0310
0000
0011
0001
,  // measure 74
0000
1001
0000
1010
0000
1100
0000
0110
,  // measure 75
0000
0012
0000
0000
0010
0000
0010
0000
,  // measure 76
0010
0003
0101
0100
0000
0010
0000
1000
,  // measure 77
0000
0010
0000
0100
0001
1000
0010
0000
,  // measure 78
0100
2002
0000
0000
,  // measure 79
0000
0000
0000
0000
,  // measure 80
0000
0000
0000
0000
,  // measure 81
0000
0000
0000
0000
,  // measure 82
0000
0000
3003
M00M
0000
0000
0000
0000
0000
0000
0000
0000
;
