#TITLE:Gimme a Big Beat;
#SUBTITLE:(Hommarju Remix);
#ARTIST:Hommarju;
#TITLETRANSLIT:;
#SUBTITLETRANSLIT:;
#ARTISTTRANSLIT:;
#GENRE:REFLEC BEAT groovin'!!;
#CREDIT:;
#BANNER:Gimme a Big Beat (Hommarju Remix).png;
#BACKGROUND:Gimme a Big Beat (Hommarju Remix)-bg.png;
#LYRICSPATH:;
#CDTITLE:;
#MUSIC:Gimme a Big Beat (Hommarju Remix).mp3;
#OFFSET:0.171100;
#SAMPLESTART:69.005379;
#SAMPLELENGTH:15.000000;
#SELECTABLE:YES;
#BPMS:0.000000=170.000000
;
#STOPS:
;
#BGCHANGES:;
#KEYSOUNDS:;
#ATTACKS:;

//---------------dance-single - ----------------
#NOTES:
     dance-single:
     :
     Hard:
     15:
     0.766376,1.124142,0.529518,0.338545,0.303822,618.000000,557.000000,61.000000,39.000000,0.000000,0.000000,0.766376,1.124142,0.529518,0.338545,0.303822,618.000000,557.000000,61.000000,39.000000,0.000000,0.000000:
0000
0000
0000
0000
,
0000
0000
0000
0000
,
0000
0000
0000
0000
,
0000
0000
0000
0000
,
0000
0000
0000
0000
,
0100
0000
0100
0010
1000
0010
1000
0001
,
0010
0000
1000
0100
0001
0100
1100
0000
,
0100
0000
0010
0100
0010
1000
0001
0001
,
0000
0010
0100
0010
0100
0000
1002
0000
,
0103
0000
0000
1000
0100
0000
0010
0000
0100
0000
0001
0000
1000
0000
0010
0000
,
1000
0000
0000
0001
1000
0000
0100
0000
0001
0000
0010
0000
0001
0000
1000
0000
,
0001
0000
0000
0010
0001
0000
1000
0000
0100
0000
0010
0000
0100
0000
0001
0000
,
0010
0000
0000
0100
0010
0000
0001
0000
0010
0000
1000
0000
2010
0000
0000
0000
,
3001
0000
0000
0100
0001
0000
0100
0010
0000
0100
1000
0000
0010
0000
0010
0000
,
0100
0000
0000
0001
1000
0000
0001
0100
0000
0010
0001
0000
1000
0000
1000
0000
,
0100
0000
0000
0010
0001
0000
0010
1000
0000
0001
1000
0000
0010
0000
0100
0000
,
0110
0000
0000
0000
1200
0000
0000
0000
0010
0000
0000
0001
0300
0000
0010
0000
,
1000
0000
0000
0100
1000
0000
0010
0000
0001
0000
0100
0000
0010
0000
0100
0000
,
0001
0000
1000
0001
0000
0000
0010
0000
0100
0000
1000
0000
1010
0000
0000
0000
,
0100
0000
0000
0010
0100
0000
0001
0000
1000
0000
0001
0000
0010
0000
0100
0000
,
1000
0000
1000
0010
0000
0000
0010
0000
0100
0000
0001
0000
1001
0000
0000
0000
,
0010
0000
0000
1000
0100
0000
1000
0000
0010
0000
0001
0000
0100
0000
0010
0000
,
1000
1000
0100
0001
0100
0000
0110
0001
,
1000
0100
1000
0010
0001
1000
0100
0201
,
0000
0000
0310
1000
0010
1000
0100
1000
0001
0000
0000
0000
1001
0000
0000
0000
,
0220
0000
0000
0000
0030
0000
0010
0000
1000
0000
0000
0001
0000
0000
2000
0000
,
0000
0000
3300
0000
0001
0010
0100
1000
,
2002
0000
0000
0000
3000
0000
0010
0000
0100
0000
0000
0010
0000
0000
0200
0000
,
0000
0000
0303
0000
0010
1000
0100
0001
,
0022
0000
0000
0000
0003
0000
0001
0000
1000
0000
0000
0100
0000
0000
2000
0000
,
0000
0000
3030
0000
0001
1000
0010
0100
,
2020
0000
0000
0000
0030
0000
0010
0000
0100
0000
0000
0010
0000
0000
0002
0000
,
0000
0000
3003
0000
0010
0100
0010
0001
,
0200
0001
0001
0010
0302
1000
1000
0100
,
2003
0010
0010
0100
3020
0000
0032
0000
,
2003
0100
0001
0100
3200
0001
0010
0001
,
0302
0010
1000
0010
0203
0000
0320
0000
,
1030
0100
0001
0101
0001
0010
0100
0110
,
1000
0001
0100
1000
1100
0000
1001
0000
,
0100
0001
0010
0011
0100
1000
0010
1010
,
0001
0100
1000
0100
1100
0000
0101
0000
,
0010
1000
0010
0100
1000
0001
0100
0001
,
0010
1000
0010
0001
0100
0001
0100
1000
,
1100
0100
0101
0001
0011
0010
0110
0100
,
1001
1000
1010
0010
0011
0001
0101
0100
,
0010
0010
1000
1000
0100
0100
0001
0001
,
0011
0011
1010
1010
1100
1100
1001
1001
,
0100
0010
0100
0010
0100
0001
0100
0001
1000
0001
1000
0001
0010
1000
0010
2000
,
0000
0001
0001
0100
3010
0000
0120
0000
,
1030
0100
0010
0100
0001
1000
0001
0010
,
0100
0100
0010
0001
1000
0010
0011
0001
,
0010
0100
1000
0100
0001
0010
0100
1000
,
0100
0100
0001
0010
0001
1000
1001
0000
,
1000
0010
0100
1000
0100
0010
0001
1000
,
0001
0010
1000
0100
0010
1000
1100
0100
,
0010
0010
0100
0100
0001
1000
0010
1000
,
0001
0100
1000
0010
0100
1000
0101
0000
,
1000
0000
0010
0000
1000
0100
0000
0100
0010
0000
0010
0001
0000
0001
1000
0000
,
0010
0000
1000
0000
0001
0000
0001
0100
0000
0100
0010
0000
1000
0001
1000
0000
,
0100
0000
0001
0000
0100
0000
0100
1000
0000
0001
0000
1000
0000
0001
0010
0000
,
0100
0000
0001
0000
0010
0000
0010
0001
0000
1000
0010
0000
1000
0100
1000
0000
,
0100
0000
0001
0000
0100
0010
0000
0010
1000
0000
1000
0001
0000
0001
0100
0000
,
0010
0000
1000
0000
0010
0100
0010
0100
0000
1000
0001
0000
0100
0001
0100
0000
,
0001
0000
1000
0000
0001
0000
0100
0010
0000
0100
1000
0000
0010
1000
0010
0000
,
0000
0001
1000
0001
1000
0000
0210
0000
,
0301
0000
0000
0000
0011
0000
0010
0000
0100
0000
0000
1000
0100
0000
0020
0000
,
0000
1000
1030
0000
0001
0100
0110
1000
,
0100
0000
0000
0000
0101
0000
0001
0000
0010
0000
0000
0001
0010
0000
0200
0000
,
0000
0010
0310
0000
0100
1000
1010
0010
,
0100
0000
0000
0000
1001
0000
1000
0000
0010
0000
0000
1000
0010
0000
0002
0000
,
0000
0100
0103
0000
0001
1000
1100
0100
,
0010
0000
0000
0000
1010
0000
1000
0000
0001
0000
0000
0100
0001
0000
2000
0000
,
0000
0001
3001
0000
0100
1000
0101
0100
,
0010
0000
1000
0000
0001
0000
0100
0000
0010
0000
0000
0010
0100
0000
0001
0000
,
1000
0100
1000
1000
0010
0100
1001
0100
,
0001
0000
1000
0000
0001
0000
0100
0000
0010
0000
0000
0001
1000
0000
0001
0000
,
0100
0100
0010
0001
1000
0010
1100
0001
,
0210
0000
0000
0000
0301
0000
0010
0000
0001
0000
0000
1000
0000
0000
2001
0000
,
0000
0010
3100
0000
0010
0001
0100
1000
,
0102
0000
0000
0000
0013
0000
1000
0000
1100
0000
0000
0101
0000
0000
0120
0000
,
0000
0000
0130
0001
0100
0010
1000
0100
0001
0000
0000
0000
2002
0000
0000
3003
;

//---------------dance-single - ----------------
#NOTES:
     dance-single:
     :
     Medium:
     12:
     0.577882,0.560769,0.381948,0.373267,0.021702,466.000000,422.000000,44.000000,43.000000,0.000000,0.000000,0.577882,0.560769,0.381948,0.373267,0.021702,466.000000,422.000000,44.000000,43.000000,0.000000,0.000000:
0000
0000
0000
0000
,
0000
0000
0000
0000
,
0000
0000
0000
0000
,
0000
0000
0000
0000
,
0000
0000
0000
0000
,
0001
0010
0100
0010
,
1000
0001
0100
1001
,
0100
0010
1000
0010
,
0000
0001
0100
0001
0100
0000
0110
0000
,
2000
0000
3020
0000
0130
1000
0100
1000
,
0002
0000
2003
0000
3100
0010
1001
0000
,
0200
0000
2300
0000
3001
0100
0010
0100
,
2000
0000
3020
0000
1030
0100
1010
0000
,
0200
0000
0301
0010
1000
0001
0100
0001
,
0020
0000
1030
0001
1000
0100
1100
0000
,
2000
0000
3001
0100
0010
0100
1000
0010
,
0100
0000
0000
0000
0011
0000
0000
0000
0002
0000
0000
1000
0000
0000
1000
0000
,
0013
0000
0100
1000
0001
1000
0001
0000
,
0100
0100
0001
1000
0100
0010
0001
0000
,
0010
0100
1000
0010
0001
0100
0001
0100
,
0000
1000
0100
1000
0010
1000
0100
0000
,
0011
0000
0001
1000
0010
1000
0001
0000
,
1100
0000
0010
0100
0010
1000
1000
0000
,
0100
0010
0001
0010
0100
0001
1000
0001
,
0000
0010
0010
0000
0110
0000
1001
0000
,
0200
0000
1000
0000
0001
0000
1300
0001
,
0002
0000
0100
0000
0010
0000
0103
0010
,
0020
0000
0100
0000
1000
0000
0130
1000
,
2000
0000
0010
0000
0001
0100
3100
0000
,
0020
0000
1030
0000
0002
0000
0013
1000
,
0100
0010
0100
0000
1000
0100
0002
0000
,
0013
1000
0100
0000
1200
0000
0301
0010
,
0100
0000
0021
0000
0130
0001
0011
0000
,
0100
1100
0010
1010
,
1000
0100
0011
1001
,
0010
0110
0100
0101
,
0001
1000
1001
1010
,
0100
0010
0100
0000
0001
0100
0001
0000
,
0001
1000
0010
0001
0010
0000
0011
0000
,
0100
0010
0001
1000
0010
0000
0100
1000
,
0100
0000
1000
0100
0100
0000
1001
0000
,
0200
2300
3020
0230
,
0302
0023
0230
2300
,
3001
1010
1000
0101
,
0100
0011
1100
0110
,
0100
0001
0100
0000
0010
0100
0010
0000
,
0001
1000
0010
0000
0010
0100
1000
0000
,
0100
0001
0001
0010
0010
1000
0010
0100
,
0000
0100
0010
0000
0011
0000
2001
0000
,
3001
0000
0010
0100
0001
0100
1000
0000
,
0100
1000
0001
1000
0100
0001
0010
0000
,
1000
0100
0010
1000
0001
0000
0001
0010
,
0001
0000
0100
0001
1000
0001
0010
0000
,
1000
0100
0010
0000
1001
0000
1000
0001
,
1000
0000
1100
0000
0100
1000
0001
0000
,
0001
0010
0001
0010
0100
0010
0100
0001
,
1000
0000
1000
0001
0100
0000
0011
0000
,
1000
0010
0100
0000
0100
1000
0001
0000
,
0001
1000
0001
0010
0100
1000
0100
0000
,
0100
0010
0001
0010
0100
0000
0001
0100
,
0001
0000
0100
1000
0010
0001
0100
0000
,
1100
0000
0101
0000
0010
1000
0010
0000
,
1000
0001
0100
0001
1000
0000
0110
0000
,
0001
0010
1000
1000
0100
0010
0001
0001
,
0000
1000
0010
0000
1001
0000
1100
0000
,
2000
0000
3002
0000
2003
0000
3100
0010
,
0100
0000
1100
0000
0001
1000
0010
0000
,
0020
0000
0230
0000
0320
0000
1030
0100
,
1000
0000
1001
0000
1000
0010
0100
0000
,
0020
0000
2030
0000
3020
0000
0031
1000
,
0100
0000
0110
0000
0010
0001
1000
0000
,
0002
0000
0203
0000
0302
0000
0013
1000
,
0010
0000
1010
0000
0100
0001
1000
0000
,
1000
0000
0001
0000
0100
0000
0000
0000
0010
0000
0000
1000
0000
0000
0001
0000
,
0100
0001
1000
0000
0100
0010
0100
0000
,
0100
0000
1000
0000
0010
0000
0000
0000
1000
0000
0000
0010
0000
0000
0001
0000
,
0000
0100
0100
0000
0010
0100
1000
0000
,
0100
0000
0010
0000
1000
0000
0001
0000
0010
0000
0000
0100
0000
0000
0010
0000
,
1000
0010
0001
0000
0001
0010
1000
0000
,
0010
0000
0100
0000
1000
0000
0100
0000
0001
0000
0000
0100
0000
0000
0120
0000
,
0000
0100
0130
0101
;

//---------------dance-single - ----------------
#NOTES:
     dance-single:
     :
     Easy:
     7:
     0.360866,0.455625,0.121529,0.425351,0.000000,291.000000,277.000000,14.000000,49.000000,0.000000,0.000000,0.360866,0.455625,0.121529,0.425351,0.000000,291.000000,277.000000,14.000000,49.000000,0.000000,0.000000:
// measure 0
0000
0000
0000
0000
,  // measure 1
0000
0000
0000
0000
,  // measure 2
0000
0000
0000
0000
,  // measure 3
0000
0000
0000
0000
,  // measure 4
0000
0000
0000
0000
,  // measure 5
1000
0010
1000
0000
,  // measure 6
0100
1000
0100
0000
,  // measure 7
0010
0001
0010
1000
,  // measure 8
0000
0100
0010
0110
,  // measure 9
0001
0010
1000
0010
,  // measure 10
0100
0010
0001
0010
,  // measure 11
1000
0100
1000
0010
,  // measure 12
0010
1000
0001
1001
,  // measure 13
2000
3200
1300
0010
,  // measure 14
0002
2003
3010
0010
,  // measure 15
0200
0302
0103
1000
,  // measure 16
0100
2002
0003
3001
,  // measure 17
0010
1000
0010
0001
,  // measure 18
1000
0010
0100
0100
,  // measure 19
0001
1000
0100
1000
,  // measure 20
0100
0010
0001
0001
,  // measure 21
0100
0010
0001
1000
,  // measure 22
0010
0100
1000
0100
,  // measure 23
0001
0001
1000
1000
,  // measure 24
0000
0202
0003
0310
,  // measure 25
2000
3000
0010
0100
,  // measure 26
0020
0030
1000
1000
,  // measure 27
0001
0010
0100
0001
,  // measure 28
0200
0300
0001
1000
,  // measure 29
0002
0003
0100
0100
,  // measure 30
0002
0003
0100
1000
,  // measure 31
0010
0100
0010
1000
,  // measure 32
2000
3000
0022
0033
,  // measure 33
0010
0001
0100
0010
,  // measure 34
1000
0010
0100
0100
,  // measure 35
1000
0010
0100
0001
,  // measure 36
0010
1000
0100
0100
,  // measure 37
2000
3010
0020
0130
,  // measure 38
0200
0301
0010
0001
,  // measure 39
0020
1030
2000
3100
,  // measure 40
0200
1300
0001
0001
,  // measure 41
0100
0010
0100
0010
,  // measure 42
1000
0010
1000
0010
,  // measure 43
0001
0010
0100
1000
,  // measure 44
0100
0010
0001
1000
,  // measure 45
0012
0013
0201
0301
,  // measure 46
0120
0130
2100
3100
,  // measure 47
1000
0010
0100
2002
,  // measure 48
3000
0010
1000
1003
,  // measure 49
0100
1000
0010
1000
,  // measure 50
1000
0001
0200
0310
,  // measure 51
1000
0010
0001
0100
,  // measure 52
0010
0100
0002
0013
,  // measure 53
0010
0100
0010
0001
,  // measure 54
0010
1000
0200
1300
,  // measure 55
1000
0100
0010
0001
,  // measure 56
0010
1000
0220
0330
,  // measure 57
0010
0001
0010
0100
,  // measure 58
1000
1000
0001
0010
,  // measure 59
0001
0010
0010
1000
,  // measure 60
0001
0100
0001
0001
,  // measure 61
2000
3000
0002
0003
,  // measure 62
0010
0100
0200
0300
,  // measure 63
0100
1000
0010
1000
,  // measure 64
0002
0000
1000
1003
,  // measure 65
0010
1000
0100
0001
,  // measure 66
0020
0030
0100
0100
,  // measure 67
0010
1000
0010
0100
,  // measure 68
2000
3000
0001
0001
,  // measure 69
1000
0100
1000
0010
,  // measure 70
0020
0030
1000
0100
,  // measure 71
0010
0001
1000
0001
,  // measure 72
0002
0003
2020
3030
,  // measure 73
0010
1000
0010
0010
,  // measure 74
0001
1000
0100
1000
,  // measure 75
0010
0100
1000
1000
,  // measure 76
0010
1000
0100
0001
,  // measure 77
0020
0030
1000
0100
,  // measure 78
2000
3000
0010
0010
,  // measure 79
0100
0010
1000
0010
,  // measure 80
0220
0330
0010
1001
;
