#TITLE:Giant Otter Family;
#SUBTITLE:;
#ARTIST:S-C-U;
#TITLETRANSLIT:;
#SUBTITLETRANSLIT:;
#ARTISTTRANSLIT:;
#GENRE:;
#CREDIT:;
#BANNER:Giant Otter Family.png;
#BACKGROUND:Giant Otter Family-bg.png;
#LYRICSPATH:;
#CDTITLE:;
#MUSIC:Giant Otter Family.mp3;
#OFFSET:-2.669920;
#SAMPLESTART:12.564000;
#SAMPLELENGTH:15.000000;
#SELECTABLE:YES;
#BPMS:0.000000=188.000000
;
#STOPS:29.000000=0.319000,
188.000000=0.319000,
283.000000=0.319000
;
#BGCHANGES:;
#KEYSOUNDS:;
#ATTACKS:;

//---------------dance-single - ----------------
#NOTES:
     dance-single:
     :
     Hard:
     13:
     0.643852,0.658105,0.411250,0.553928,0.159464,537.000000,488.000000,49.000000,66.000000,0.000000,0.000000,0.643852,0.658105,0.411250,0.553928,0.159464,537.000000,488.000000,49.000000,66.000000,0.000000,0.000000:
0000
0000
0000
0000
,
0000
0000
0000
0000
,
0000
0000
0000
0000
,
0000
0000
0000
0000
,
0200
0000
1300
0000
0010
0001
0000
0101
,
0000
1000
0001
0000
1100
0000
0110
0000
,
0002
0000
0010
0000
1000
0000
0103
0010
,
0000
0000
1000
0000
1001
0000
0000
0000
0010
0001
0010
0001
2000
0000
0000
0000
,
3010
2000
0000
0100
3001
0100
0020
0000
,
0130
0020
0000
1000
0130
0001
0000
0001
,
0010
0000
0100
0000
0010
0000
0010
0000
0001
0100
0001
0000
1000
0000
0000
0010
,
0000
0000
0110
0000
0000
0000
0100
0000
1000
0000
0100
0000
0001
0000
0000
0001
,
0000
1000
0000
0010
1000
0000
1010
0000
,
0011
0000
0101
0000
1100
0000
0100
0100
,
0001
0200
0000
2300
0000
3020
0000
0000
,
0100
0000
0000
0000
0100
0000
0000
0000
0031
1000
0001
1000
0200
0000
0000
0000
,
0310
0200
0000
1000
0310
1000
0002
0000
,
0103
0002
0000
0010
0103
1000
0000
1000
,
0010
0000
0100
0000
0001
0000
0001
0000
0010
0100
0010
0000
0100
0000
0000
1000
,
0000
0000
0101
0000
0000
0000
0010
0000
0001
0000
0010
0000
1000
0000
0000
1000
,
0000
0001
0000
0001
0010
0000
1001
0000
,
1010
0110
0011
0200
,
1300
0020
0000
0001
1000
0030
1000
0100
,
0001
0100
0000
0010
0011
0000
0000
1000
,
0100
0000
1000
0000
0010
0000
0000
1000
0000
0000
0010
0000
0000
0000
0100
0000
,
0010
0000
0100
0000
0001
0000
0000
0010
0000
0000
1000
0000
0000
0000
0001
0000
,
0100
1000
0010
0100
0000
0100
1000
0001
,
0010
1000
0000
0001
1001
1000
0000
0010
,
0100
0010
0100
0001
0000
0001
1000
0100
,
1000
0100
0000
0001
0010
1000
0000
0001
,
0001
0000
1100
1000
0000
0100
0000
0010
,
0110
0000
0010
0001
0100
0010
2000
0000
,
0001
0000
3010
0100
0010
0002
0000
0010
,
1000
0020
0000
0000
0033
0000
0200
0000
,
1000
0000
0301
0010
0001
2000
0000
0010
,
0100
0002
0000
0000
3003
0000
0020
0000
,
0100
0000
0031
0100
1000
1100
0000
0101
,
0000
0011
0000
0010
1000
0100
0002
0000
,
0003
0020
0000
2030
0000
3200
0000
0000
,
0001
0000
0010
0000
0310
1000
0100
1000
,
0001
0000
0001
0010
0100
1000
0000
1000
,
0100
0000
0002
0000
0000
0000
0010
0000
0013
0000
1000
0100
1000
0000
0000
1000
,
0000
0000
0001
0000
0010
0000
0000
0010
0000
0000
0200
0000
0020
0000
0000
0000
,
0330
0000
0001
1000
0001
0000
0010
0000
0100
0000
0010
0000
1000
0000
0100
0000
,
0001
0000
0001
1000
0010
1000
0000
0100
,
0000
0101
0000
0010
0001
1000
0020
0000
,
1000
0000
0100
0000
0031
1000
1001
0001
,
1001
0000
0000
0000
0100
0010
0100
0010
0002
0000
0000
0000
1003
0000
0020
0000
,
0000
1000
0130
1000
0200
0000
0301
2000
,
0000
0001
3010
0100
0000
0100
0010
0001
,
0010
0000
0010
0000
1000
0100
1000
0100
0001
0000
0000
1000
0000
0000
1010
0000
,
0000
0000
0010
0000
0100
0000
0001
0000
0100
0000
0000
0100
0000
0000
1000
0000
,
0000
1000
0010
0000
0002
0000
0203
0000
,
2300
0000
3020
0000
0130
0100
1000
0101
,
0000
0011
0000
2001
0000
0010
0010
0000
,
0100
0000
0000
0000
3100
0001
0010
0001
0020
0000
0000
0000
0130
0000
2000
0000
,
0000
0100
3010
0100
0002
0000
0013
0200
,
0000
0010
1300
0001
0000
0001
1000
0010
,
1000
0000
1000
0000
0010
0100
0010
0100
0001
0000
0000
0001
0000
0000
1010
0000
,
0000
0000
0100
0000
0010
0000
0100
0000
0001
0000
0000
0010
0000
0000
0100
0000
,
0000
0100
1000
0000
0020
0000
2030
0000
,
3002
0000
0203
0000
0320
0000
1000
2000
,
0030
0001
3001
0010
0100
0010
1000
0100
,
0000
0010
1010
0000
0100
0000
1001
0000
,
0100
1000
0100
0001
0000
0001
0010
0100
,
0010
1000
0100
0001
0000
0010
1000
0010
,
0100
1000
0000
1000
0001
0100
0001
0010
,
0000
0100
0110
0010
2000
0000
3001
0000
,
0010
0100
1000
0201
0000
0010
0301
1000
,
0100
0010
0001
0010
0200
0000
1000
0000
,
0001
0000
0301
0010
0000
1000
1100
0000
,
0010
1000
0010
0100
0002
0000
0000
0000
1003
0000
0002
0000
0000
0000
0100
0000
,
1003
0010
0200
0000
0310
0200
0000
1000
,
0301
1000
0000
0100
0010
0100
1000
1000
,
0010
0001
0010
0000
0100
0000
0000
1000
0000
0000
0110
0000
0000
0000
1000
0000
,
0100
0000
0001
0000
0010
0000
0000
1000
0000
0000
0100
0000
0000
0000
0010
0000
,
0001
1100
1010
0011
,
0110
0000
0100
1000
0001
0020
0000
0032
,
0000
0203
0000
0000
0001
0000
0001
0000
,
0310
1000
0001
1000
0020
0000
0000
0000
1030
0000
0020
0000
0000
0000
0100
0000
,
0031
0100
2000
0000
3001
2000
0000
0001
,
3010
0100
0000
0100
0001
1000
0010
0010
,
0100
1000
0100
0000
1000
0000
0000
0100
0000
0000
1010
0000
0000
0000
0001
0000
,
1000
0000
0001
0000
0100
0000
0000
1000
0000
0000
0001
0000
0000
0000
1000
0000
,
0010
1100
1001
0101
,
1100
0000
0001
0001
0000
1100
0000
0100
,
0000
0011
0000
1001
0000
1020
0000
1030
,
0220
0330
0000
0000
0000
0000
0000
0000
;

//---------------dance-single - ----------------
#NOTES:
     dance-single:
     :
     Medium:
     9:
     0.497576,0.511125,0.243393,0.310536,0.000000,415.000000,386.000000,29.000000,37.000000,0.000000,0.000000,0.497576,0.511125,0.243393,0.310536,0.000000,415.000000,386.000000,29.000000,37.000000,0.000000,0.000000:
0000
0000
0000
0000
,
0000
0000
0000
0000
,
0000
0000
0000
0000
,
0000
0000
0000
0000
,
1010
0000
0000
0000
0100
0100
0000
0001
,
0000
1000
0100
0000
0010
0000
0100
0000
,
0002
0000
0000
1000
0000
0000
0003
0110
,
0000
1000
1000
0000
0001
0010
2000
0000
,
3001
0100
0000
0010
0001
0000
0020
0000
,
1030
0100
0000
1000
0001
0000
0100
0000
,
0010
0000
1000
0000
1000
0001
0010
0000
,
0110
0000
0001
0100
1000
0000
0001
0000
,
0011
0000
0100
1000
0100
0000
1000
0000
,
0010
0001
0101
0010
,
1000
0010
0000
0100
0010
0100
0000
0001
,
1000
0000
1001
0000
0010
1000
0200
0000
,
0301
0010
0000
0010
1000
0000
0002
0000
,
0013
0100
0000
0100
1000
0000
0001
0000
,
0100
0010
0100
0000
1000
0001
1000
0000
,
1010
0000
0001
1000
0010
0000
0100
0000
,
1000
0100
0001
0020
,
2030
3200
0302
0013
,
0100
0000
0010
1000
0010
0000
0100
0000
,
0001
1000
0100
0000
1001
0000
0200
0000
,
0001
0001
0310
1000
,
0001
0010
0001
0000
0100
0000
0000
0001
,
1000
0000
0010
0100
0000
0010
0000
1000
,
0001
1000
0000
0010
0010
0000
2000
0000
,
0010
0100
3100
1000
,
0001
0000
0100
0010
0100
0000
0000
0010
,
1000
0000
0100
0001
0100
0000
0001
0000
,
1000
0100
0000
1000
0100
0000
0220
0000
,
0330
0010
0001
0100
,
0001
0000
1000
0010
1000
0000
0022
0000
,
0033
0000
0100
0000
0100
1000
0000
0010
,
1000
0001
0100
2020
,
3030
0000
0010
0000
1000
0010
0000
0100
,
0010
0001
1000
2002
,
3003
0010
0100
0100
,
0010
0002
0003
1000
,
0100
0000
1000
0000
0010
0001
0010
0000
,
0100
0000
0001
1000
0001
0000
0100
0000
,
0110
0001
0011
1000
,
0100
0000
0010
0000
0001
0000
1000
0100
,
0010
0000
0100
0000
0001
0010
1000
0000
,
0100
0000
0010
1000
0100
0000
0200
0000
,
0010
0000
1000
0000
0310
0000
0001
0001
,
0001
0000
0010
0100
0020
0000
1030
0000
,
0100
1000
0100
0000
0002
0000
0103
0000
,
1000
0001
1000
0000
0010
0000
0010
0000
,
1000
0000
1000
0000
0100
0000
0001
0100
,
0001
0010
0100
0000
1000
0000
0010
0000
,
0100
0010
1000
1010
,
0100
0000
1100
0000
0001
0000
1000
0100
,
1000
0000
0100
0010
0100
0001
0010
0000
,
1001
0000
1000
0100
0002
0000
0100
0000
,
0103
0010
1000
0000
0200
0000
1000
0000
,
1300
0010
0001
0000
0100
0000
0001
0000
,
1000
0000
0001
0000
0010
0000
1000
0100
,
0010
1000
0010
0000
0001
0000
0101
0000
,
0100
0110
0010
1000
,
0100
1001
0020
0100
,
0100
0000
1030
0000
0001
0010
0010
0000
,
1000
0011
0200
0300
,
1000
0010
1000
0001
,
0001
0000
1000
0010
,
0100
0001
1000
1000
,
0100
0010
1100
0000
,
0100
0001
0000
1001
0000
0000
0010
0000
,
0100
0001
0100
0000
2000
0000
0000
0100
,
0000
3000
0000
1010
0000
0010
0010
0000
,
0100
1000
0002
0000
1000
0000
1003
0100
,
0010
0000
0200
0000
0010
0000
0310
1000
,
0001
0010
0100
1010
,
0001
0010
0001
0000
0100
0010
0000
0010
,
1000
0000
0100
0000
0001
0000
0010
1000
,
0010
0200
0320
2030
,
3002
0013
0100
1100
,
0001
1000
0001
0000
0100
0010
0100
1000
,
0010
0000
2000
0000
3100
0010
0100
0001
,
0010
0000
0200
0000
1300
0010
0001
0010
,
1000
0100
0010
0100
,
1000
0000
0100
0000
0100
0001
0000
0001
,
0010
1000
1010
0100
,
0101
0000
0010
0000
0100
0000
1000
0010
,
0001
0000
2000
0000
3100
0000
0100
0001
,
0010
0000
1000
0010
0001
0010
0000
0000
,
1001
0000
0000
0000
;

//---------------dance-single - ----------------
#NOTES:
     dance-single:
     :
     Easy:
     5:
     0.302143,0.328580,0.125893,0.176250,0.000000,252.000000,237.000000,15.000000,21.000000,0.000000,0.000000,0.302143,0.328580,0.125893,0.176250,0.000000,252.000000,237.000000,15.000000,21.000000,0.000000,0.000000:
// measure 0
0000
0000
0000
0000
,  // measure 1
0000
0000
0000
0000
,  // measure 2
0000
0000
0000
0000
,  // measure 3
0000
0000
0000
0000
,  // measure 4
1001
0000
0100
0001
,  // measure 5
0100
0010
0100
0000
,  // measure 6
2000
3000
0002
0003
,  // measure 7
0100
0100
0000
0010
,  // measure 8
0000
0001
1000
0001
,  // measure 9
0000
0010
0100
0100
,  // measure 10
0000
0001
0100
0010
,  // measure 11
0000
1001
0000
0020
,  // measure 12
0030
0100
0001
0020
,  // measure 13
0030
2000
3000
0001
,  // measure 14
0000
0100
0010
1000
,  // measure 15
0000
0110
0000
0200
,  // measure 16
0300
0001
0010
0002
,  // measure 17
0003
1000
1000
0100
,  // measure 18
0000
0010
0001
1000
,  // measure 19
0010
1000
0000
0100
,  // measure 20
0000
0001
0000
1000
,  // measure 21
0010
0010
0000
0002
,  // measure 22
0003
0100
0010
0100
,  // measure 23
0000
1001
0000
0020
,  // measure 24
0000
0030
0100
0001
,  // measure 25
0010
1000
0000
0002
,  // measure 26
0000
0003
1000
0010
,  // measure 27
1000
0100
0000
2000
,  // measure 28
0000
3000
0001
0010
,  // measure 29
0100
1000
0000
0200
,  // measure 30
0000
0300
0010
1000
,  // measure 31
0001
0010
0000
1001
,  // measure 32
0000
0100
0000
0100
,  // measure 33
0010
0001
0000
1000
,  // measure 34
0010
0100
0001
0010
,  // measure 35
0000
0010
0000
1000
,  // measure 36
1000
0001
0000
0100
,  // measure 37
0100
0010
0000
0001
,  // measure 38
0100
0010
1000
0100
,  // measure 39
0000
0110
0000
0100
,  // measure 40
0001
0100
0000
0010
,  // measure 41
0001
0010
0000
1000
,  // measure 42
1000
0001
0001
0200
,  // measure 43
0300
0020
0030
0100
,  // measure 44
0010
1000
0000
1000
,  // measure 45
0001
0010
0000
0010
,  // measure 46
0001
0100
1000
0010
,  // measure 47
0010
0000
0110
0000
,  // measure 48
0100
0010
0001
0000
,  // measure 49
0001
0010
1000
0000
,  // measure 50
1000
0100
0010
0100
,  // measure 51
0100
0000
0002
0003
,  // measure 52
0010
1000
2000
3000
,  // measure 53
0200
0300
0010
0001
,  // measure 54
1000
0010
0100
0000
,  // measure 55
1001
0000
0010
0010
,  // measure 56
1000
0000
0100
0100
,  // measure 57
0001
0000
0001
0010
,  // measure 58
0001
0100
1000
0000
,  // measure 59
0110
0000
1000
1000
,  // measure 60
0100
0000
0010
0010
,  // measure 61
1000
0000
0010
0000
,  // measure 62
0100
0000
1000
0001
,  // measure 63
0001
0000
0200
0300
,  // measure 64
0010
1000
0010
0001
,  // measure 65
0001
0000
2000
3000
,  // measure 66
0100
0010
0001
0100
,  // measure 67
0100
0000
1001
0000
,  // measure 68
0110
0000
0010
0010
,  // measure 69
0100
0000
1000
0100
,  // measure 70
0001
0010
1000
1000
,  // measure 71
0000
0220
0330
0100
,  // measure 72
0010
0001
0010
1000
,  // measure 73
0000
0001
0001
1000
,  // measure 74
0010
0100
0000
0001
,  // measure 75
0000
1000
1000
0100
,  // measure 76
0000
0010
0010
0100
,  // measure 77
0000
0001
0010
0100
,  // measure 78
1000
0100
0000
1001
,  // measure 79
0000
0010
0100
1000
,  // measure 80
0000
0001
0100
0010
,  // measure 81
0000
1000
0001
0010
,  // measure 82
0100
1000
0000
0110
,  // measure 83
0000
0100
0010
0001
,  // measure 84
0000
0010
1000
0001
,  // measure 85
0000
0100
0000
0010
,  // measure 86
1000
0001
0000
0100
,  // measure 87
0110
0000
0000
0000
;
