#TITLE:Genesis At Oasis;
#SUBTITLE:;
#ARTIST:Hakuryu;
#TITLETRANSLIT:;
#SUBTITLETRANSLIT:;
#ARTISTTRANSLIT:;
#GENRE:;
#CREDIT:;
#BANNER:Genesis At Oasis.png;
#BACKGROUND:Genesis At Oasis-bg.png;
#LYRICSPATH:;
#CDTITLE:;
#MUSIC:Genesis At Oasis.mp3;
#OFFSET:-0.033000;
#SAMPLESTART:22.957527;
#SAMPLELENGTH:14.433964;
#SELECTABLE:YES;
#BPMS:0.000000=53.000000
,3.750000=212.000000
,132.000000=106.000000
,148.000000=212.000000
,212.000000=53.000000
,220.000000=106.000000
,236.000000=212.000000
,300.000000=53.000000
;
#STOPS:3.750000=0.495000
;
#BGCHANGES:;
#KEYSOUNDS:;
#ATTACKS:;

//---------------dance-single - ----------------
#NOTES:
     dance-single:
     :
     Hard:
     15:
     0.758366,0.845351,0.345804,0.102807,0.228978,520.000000,37.000000,11.000000,0.000000,0.000000,0.000000,0.758366,0.845351,0.345804,0.102807,0.228978,520.000000,37.000000,11.000000,0.000000,0.000000,0.000000:
0000
0000
0000
0000
,
1000
1000
0001
0001
,
0100
1000
0001
1000
0010
0000
0110
0000
,
0001
0001
0010
0010
,
0100
0001
1000
0100
0010
0000
0011
0000
,
0100
0100
0010
0010
,
1000
0100
0001
0100
0001
0000
1001
0000
,
0010
0010
1000
1000
,
0010
0001
0100
1000
0010
0000
1100
0000
,
0001
0010
0001
0000
0100
1000
0100
0000
,
0001
1000
0001
1000
0010
0100
0010
0000
,
1000
0010
1000
0000
0100
0010
0100
0000
,
0001
0010
0001
0010
0100
1000
1100
0000
,
0010
0001
0010
0000
0010
0001
0010
0000
,
1000
0001
0100
0001
1000
0001
0101
0000
,
0010
1000
0100
0000
0001
0100
1100
0000
,
1000
0100
0010
0001
0010
0100
0102
0000
,
0103
0000
1000
0100
0000
0100
0010
0000
,
0001
0000
0000
0000
0100
0000
0000
0000
1001
0000
0000
0000
0010
1000
0010
0000
,
0010
0000
0001
1000
0000
1000
0010
0000
,
0001
0000
0000
0000
0100
0000
0000
0000
1100
0000
0000
0000
1000
0100
1000
0000
,
0010
0000
0100
0010
0000
0001
0010
0000
,
0001
0000
0000
0000
0100
0000
0000
0000
0101
0000
0000
0000
0100
0010
0100
0000
,
0001
0000
1000
0001
0000
1000
0010
0000
,
0100
0000
0000
0000
0010
0000
0000
0000
0110
0000
0000
0000
0001
0010
0001
0000
,
1000
0100
1000
0000
0010
0100
0010
0000
,
0001
0010
0100
0010
0001
0001
0101
0000
,
0100
0001
0100
0000
0010
0001
0010
0000
,
0100
0010
0100
0010
0001
1000
1100
0000
,
1000
0100
0001
0000
1000
0010
0001
0000
,
0001
0100
0010
0001
1000
0100
0110
0000
,
0010
1000
0001
0000
0100
0001
0010
0000
,
0100
1000
0100
0001
0100
0100
0110
0000
,
0001
0001
1000
1000
0010
0100
0011
0100
,
0010
1000
0010
0000
0100
0001
0100
0000
0010
0100
0010
0100
0001
0010
0001
0000
,
0010
0100
0010
0001
1000
0100
1001
0100
,
1000
0100
0010
0000
0010
0100
0001
0000
1000
0010
0001
0100
0010
0001
1000
0000
,
0100
0000
0010
0100
0000
0100
0001
1000
,
0100
0000
0010
0000
0100
0000
0000
0000
1001
0000
0000
0000
0010
0100
0010
0000
,
1000
0000
0001
0100
0000
0100
0010
0000
,
1000
0000
0001
0000
0100
0000
0000
0000
0101
0000
0000
0000
0100
0010
0100
0000
,
0001
0000
1000
0100
0000
1000
1000
0000
,
0100
0000
1000
0000
0010
0000
0000
0000
0101
0000
0000
0000
0010
0001
0010
0000
,
1000
0000
0010
0100
0000
0001
0100
0000
,
2001
0001
0001
3001
,
0100
0010
1000
0001
0100
0010
0100
0010
,
0001
0100
0010
1000
0101
0001
0010
0000
,
1000
0001
0100
0010
1000
0100
1000
0010
,
0100
0001
0100
0010
1001
0100
0010
0000
,
0100
0001
1000
0010
0100
0100
0010
1000
,
0001
0100
0010
0001
1010
0100
0001
0000
,
0010
0001
0010
0100
0001
1000
0010
0100
,
0001
0010
0001
0010
1001
1000
0010
0000
,
0020
0000
0000
0200
0000
0000
0000
0030
0000
0000
1000
0000
1000
0000
0300
0000
0010
0000
0100
0000
0010
0000
1000
0002
0000
0000
0000
0010
0000
0000
0003
0010
,
2000
0000
0000
0001
0000
0002
0000
3000
0000
0000
0010
0000
0010
0000
0003
0000
1000
0000
0100
0000
0001
0000
0000
0020
0000
0000
0000
0100
0000
0000
0030
0000
,
1000
0100
1000
0100
0000
0110
0000
0001
0000
0100
0010
0000
0100
0000
0001
0000
,
1000
0010
1000
0001
0100
0010
0000
1001
0000
0001
0000
0110
0000
0010
0000
0100
,
0010
1000
0001
0100
0000
0101
0000
0010
0000
1000
0001
0000
0100
0000
0010
0000
,
0100
0000
0001
0000
0010
0000
0100
2000
0000
0000
0001
0000
0001
0000
3001
0000
,
0100
0010
0100
0001
1000
0010
0100
1000
,
0001
0100
0010
0100
0001
1000
0010
0000
,
0001
0010
1000
0010
0010
1000
0100
0001
,
1000
0010
0100
0001
0100
0010
0100
0000
,
0001
1000
0010
1000
0001
0100
0010
0100
,
0001
1000
1000
0010
0010
0100
0010
0000
,
1000
0100
1000
0100
0010
0100
0010
0100
,
0001
0010
0001
0010
0100
0001
1000
0000
,
0010
1000
0001
0100
0010
0100
0001
1000
,
0010
0100
0010
0100
0001
1000
1001
0100
,
0010
0100
0001
0001
1000
0010
0100
0100
,
0001
1000
0010
0100
0001
0100
1010
0100
,
0010
0100
0001
0100
0010
1000
0011
0100
,
0010
0100
0010
0100
0001
1000
0110
0001
,
0100
0001
1000
0010
0100
0001
1001
0100
,
0010
0100
0001
0100
0010
1000
0110
0000
,
2002
0000
0000
3003
0000
0000
0000
0000
;

//---------------dance-single - ----------------
#NOTES:
     dance-single:
     :
     Challenge:
     18:
     1.000000,1.000000,0.616840,0.345804,0.859837,720.000000,66.000000,37.000000,0.000000,0.000000,0.000000,1.000000,1.000000,0.616840,0.345804,0.859837,720.000000,66.000000,37.000000,0.000000,0.000000,0.000000:
// measure 0
0000
0000
0000
0000
,  // measure 1
0001
0010
0002
0000
1003
0100
2000
0000
,  // measure 2
3010
0100
0001
0010
0100
1000
0200
0000
,  // measure 3
0310
1000
0020
0000
0130
0001
0200
0000
,  // measure 4
0310
0010
0001
0001
0100
0010
2000
3000
,  // measure 5
0011
0100
2000
0000
3100
0001
0020
0000
,  // measure 6
0031
1000
0001
0010
0100
0001
0020
0000
,  // measure 7
0130
0100
0200
0000
0301
0001
0002
0000
,  // measure 8
0103
0010
0100
0001
0100
0100
0100
0000
,  // measure 9
1010
0100
1000
0100
0010
0001
0010
0001
,  // measure 10
1000
0010
0100
0001
1000
0010
0100
0001
,  // measure 11
0011
0100
0001
0100
0010
0001
0010
0001
,  // measure 12
0010
0100
1000
0100
0010
0001
0100
0010
,  // measure 13
0110
1000
0100
0010
0100
1000
0100
0010
,  // measure 14
1000
0100
0010
0100
0001
0100
0010
0100
,  // measure 15
1010
0001
0010
1000
1100
0001
0100
1000
,  // measure 16
1002
1000
0100
1000
0100
1000
0013
0000
,  // measure 17
1010
0000
0010
0100
0000
1000
0001
0000
,  // measure 18
0100
0000
0000
0000
1000
0010
1000
0000
1001
0000
0000
0000
0010
0100
0010
0100
,  // measure 19
1000
0000
1000
0100
0000
0001
0100
0000
,  // measure 20
0100
0000
0000
0000
0100
0010
0100
0000
0011
0000
0000
0000
0001
0100
0001
0100
,  // measure 21
0001
0000
0010
0100
0000
1000
0001
0000
,  // measure 22
0100
0000
0000
0000
0010
1000
0010
0000
1001
0000
0000
0000
0010
1000
0100
1000
,  // measure 23
0010
0000
0001
0100
0000
0100
0010
0000
,  // measure 24
1000
0000
0000
0000
0001
0100
0001
0000
0110
0000
0000
0000
0100
0001
0100
0000
,  // measure 25
0110
1000
0100
0001
0010
0100
0001
0010
,  // measure 26
1000
0000
0010
0000
0100
0000
0001
0000
0110
0000
1000
0000
0001
0100
0001
0100
,  // measure 27
0001
1000
0010
0100
1000
0100
1000
0010
,  // measure 28
0100
0000
0001
0000
0100
0000
0001
0000
1100
0000
0010
0000
1000
0001
1000
0001
,  // measure 29
0100
0010
1000
0100
0001
1000
0010
0001
,  // measure 30
0100
0000
0001
0000
0010
0000
1000
0000
0011
0000
0100
0000
0001
0100
0001
0100
,  // measure 31
0010
0100
0001
1000
0010
0100
0001
1000
,  // measure 32
0100
0000
1000
0000
0100
0000
0001
0000
0110
0000
0010
0000
1000
0010
1000
0000
,  // measure 33
0101
0010
0100
0010
0001
0010
0001
0010
1000
0100
1000
0100
0001
1000
0001
1000
,  // measure 34
0010
0100
0010
0001
0010
0100
0010
0001
0010
1000
0100
0010
0001
0010
0100
0001
,  // measure 35
1010
0100
0001
1000
0010
0100
0100
0001
0010
1000
0001
0010
0010
0100
0010
1000
,  // measure 36
1001
0010
0001
0100
0001
0010
0100
0010
1000
1000
0001
0001
0010
0100
0010
0000
,  // measure 37
0100
1000
0010
1000
0000
1000
0001
0000
,  // measure 38
0100
0000
1000
0000
0100
0000
0010
0000
0110
0000
1000
0000
0010
0100
0010
0100
,  // measure 39
1000
0100
0001
0100
0000
0001
0100
0000
,  // measure 40
1000
0000
0100
0000
0010
0000
0100
0000
0101
0000
1000
0000
0001
0100
0010
0100
,  // measure 41
0001
0100
1000
0010
0000
0100
1000
0000
,  // measure 42
1000
0000
1000
0000
0010
0000
0100
0000
0101
0000
1000
0000
1000
0010
0001
0100
,  // measure 43
0010
0100
1000
0001
0000
0010
0100
0000
,  // measure 44
1001
0110
1001
1001
,  // measure 45
1000
0100
1010
0100
0010
0001
0011
0100
,  // measure 46
0010
0100
0110
1000
0001
1000
1001
0100
,  // measure 47
0100
0100
0101
0010
0010
0010
1010
0001
,  // measure 48
0100
0000
0010
0000
0101
0000
0010
0000
0010
0000
0001
0000
1000
0100
0010
0001
,  // measure 49
0200
0000
1000
0300
0002
0000
0100
0000
0023
0000
1000
0000
0032
0000
0100
0000
,  // measure 50
2003
0100
0010
0100
0010
0001
3001
0001
,  // measure 51
0120
0130
1002
1003
0012
0103
2010
3001
,  // measure 52
0002
2003
3020
0230
0302
0203
0320
1030
,  // measure 53
1001
0000
1000
0012
0000
0010
0000
0100
0000
1000
0010
0000
1003
0010
1000
0000
0100
0000
0100
0000
1000
0010
0001
0201
0000
0301
0000
0210
0000
0310
0000
0001
,  // measure 54
1100
0000
0001
0101
0000
0021
0000
0001
0000
1000
0100
0000
0130
0000
1000
0000
0100
0010
0001
0010
0100
1000
0001
2010
0000
3010
0000
2100
0000
0100
3001
0000
,  // measure 55
0010
0000
0001
0000
1000
0000
0010
0000
0100
0010
0100
0000
1010
0000
0001
0000
1000
0000
0001
0000
0100
0000
1000
0000
0001
0010
0001
0000
0110
0000
1000
0000
,  // measure 56
0100
0000
0010
0000
0100
0000
0001
0000
0010
1000
0010
0000
0110
0000
0010
0000
0001
0000
0010
0000
0001
0000
0100
0000
1000
0100
1000
0000
1010
0000
0010
0000
,  // measure 57
0100
0000
0010
0000
0001
0000
0100
0000
1000
0001
0100
0000
1100
0000
0100
0000
0010
0000
0001
0000
0100
0000
0010
0000
0001
0010
0100
0000
0101
0000
1000
0000
,  // measure 58
0100
0000
0001
0000
0010
0000
0100
0000
0010
0100
0001
0000
1001
0000
0002
0000
0000
0000
0000
0000
0100
0000
0000
0000
1000
0000
0100
0000
1003
0000
0000
0000
,  // measure 59
1001
0000
0010
0000
1000
0000
0001
0000
0001
0100
0010
0100
1000
0000
0001
0000
,  // measure 60
0100
1000
0010
1000
0010
0000
1000
0000
0001
0000
0001
0100
0010
0000
1000
0000
,  // measure 61
0001
0000
0100
0010
0100
0000
0001
0000
1000
0010
0100
0010
0100
0000
0001
0000
,  // measure 62
0010
0100
0010
1000
0010
0000
1000
0000
0001
0100
0010
0000
0010
0000
1000
0000
,  // measure 63
0100
0010
0100
0000
0100
0000
0001
0000
0010
0100
0010
0000
0001
0000
1000
0000
,  // measure 64
0100
1000
0100
0000
0010
0000
0100
0001
0100
0010
0100
0000
0001
0000
1000
0000
,  // measure 65
0110
0000
0001
0010
0001
0000
0000
0000
1010
0000
0010
0100
0010
0000
0000
0000
,  // measure 66
1100
0010
0011
0100
0110
0010
0101
0000
,  // measure 67
1000
0100
0010
1000
0010
0000
0100
0000
0001
0100
0010
0001
0100
0000
1000
0000
,  // measure 68
0010
1000
0010
0100
0010
0000
0100
0000
0001
0100
0001
0100
0010
0000
1000
0000
,  // measure 69
0100
0001
0010
0001
0100
0000
0100
0000
0010
1000
0001
1000
0010
0000
1000
0000
,  // measure 70
0100
0010
0100
0010
0001
0000
1000
0000
0010
0100
0010
0100
0001
0000
1000
0000
,  // measure 71
0010
0100
0010
0100
0001
0000
1100
0000
1000
0100
0001
0010
0100
0000
1001
0000
,  // measure 72
0001
0100
0001
0100
0010
0000
1001
0000
0001
0100
0010
1000
0001
0000
0110
0000
,  // measure 73
0010
1000
0010
1000
0010
1000
0010
1000
0001
0100
0001
0100
0001
0100
0001
0100
,  // measure 74
0010
1000
0001
0100
0001
0010
1000
0100
1000
0001
0010
1000
0100
0001
1000
0010
,  // measure 75
2200
0000
0000
3300
0000
0000
0000
0000
;

//---------------dance-single - ----------------
#NOTES:
     dance-single:
     :
     Medium:
     11:
     0.588802,0.774905,0.280382,0.149537,0.088788,395.000000,30.000000,16.000000,0.000000,0.000000,0.000000,0.588802,0.774905,0.280382,0.149537,0.088788,395.000000,30.000000,16.000000,0.000000,0.000000,0.000000:
0000
0000
0000
0000
,
0100
0000
0100
0000
,
0001
1000
0010
0001
,
0010
0000
0010
0000
,
0100
0001
0100
1000
,
1001
0000
1000
0000
,
0010
0001
1000
0010
,
0010
0000
1000
0000
,
1000
0100
0001
0001
,
1100
0010
1000
0010
,
0100
0000
0100
0000
1000
0100
1000
0000
,
0001
0010
0100
0010
,
1000
0000
1000
0000
0001
1000
0001
0000
,
0010
0100
0001
0100
,
0010
0000
0010
0000
0100
0010
0100
0000
,
0010
0100
1000
0100
,
0010
0000
0001
0000
0100
0001
0010
0000
,
2002
0000
3003
0010
0000
0010
0100
0000
,
1000
0000
0100
0000
1010
0000
0100
1000
,
0200
0000
0300
0010
0000
0001
0010
0000
,
0010
0000
0001
0000
0101
0000
1000
0001
,
2000
0000
3000
0001
0000
0010
0100
0000
,
1000
0000
0001
0000
0011
0000
0001
0010
,
0002
0000
0003
0010
0000
1000
0001
0000
,
0001
0000
0100
0000
1100
0000
0010
0010
,
0001
0000
1000
0000
0010
0100
0010
0000
,
1000
0000
0100
0000
0010
0001
0010
0000
,
0001
0000
0100
0000
0100
0001
0100
0000
,
0010
0000
1000
0000
0001
1000
0001
0000
,
0100
0000
0100
0000
1000
0100
0010
0000
,
0001
0000
0001
0000
0010
1000
0100
0000
,
1000
1001
0010
0110
,
0001
1100
0101
0011
,
0002
0003
0200
0300
1000
0100
2000
3000
,
0010
0100
0010
0001
0100
0001
0020
0030
,
0002
0003
2000
3000
0001
0010
2000
3000
,
1000
0100
0001
0010
1001
0011
0220
0330
,
0100
0000
0010
0000
0100
0010
0100
0000
,
1000
0000
0010
0000
1000
0010
1000
0000
,
0001
0000
1000
0000
0001
1000
0001
0000
,
0010
0000
0001
0000
0010
0001
0010
0000
,
0100
0000
0100
0000
0010
0001
0100
0000
,
0001
0000
0001
0000
1000
0100
0001
0000
,
0100
0000
0010
0000
0100
0010
0100
0001
,
1000
0110
0101
1001
,
0100
0000
0001
0100
0000
0100
0010
0000
,
0001
0000
1000
0001
0000
0001
0100
0000
,
0010
0000
1000
0010
0000
0010
0100
0000
,
1000
0000
0001
0010
0000
0010
0100
0000
,
1000
0000
0010
0000
0001
0100
0010
0000
,
1000
0000
0010
0000
0100
0001
0010
0000
,
0001
1000
0100
0000
0010
0001
1000
0000
,
0010
1000
0100
1000
0001
0000
1001
0000
,
0100
0000
0000
0101
0000
0000
0000
0000
1000
0000
0000
0000
1000
0000
0000
0000
0100
0000
0000
0000
0001
0000
0000
0110
0000
0000
0000
0101
0000
0000
0000
0000
,
1000
0000
0000
0100
0000
1100
0000
0000
0000
0000
0000
0000
0100
0000
0000
0000
0001
0000
0000
0000
0010
0000
0000
1100
0000
0000
0000
1001
0000
0000
0000
0000
,
0100
0000
1000
0000
0001
0100
0001
0000
0010
0000
0001
0000
0100
1000
0100
0000
,
0010
0000
0010
0000
0100
0010
0100
0000
1000
0000
1000
0000
0001
0010
0001
0000
,
1000
0010
1000
0000
0001
0100
0001
0000
0100
0001
0010
0000
0100
1000
0001
0000
,
0100
0010
0100
0001
1000
0010
0001
0100
0000
0000
0011
0000
1001
0000
0110
0000
,
0100
0000
0100
0000
1000
0001
0100
0000
,
0001
0000
0001
0000
0100
0001
1000
0000
,
1000
0000
0100
0000
0001
0100
0001
0000
,
0010
0000
0001
0000
0010
0100
0010
0000
,
1000
0000
0100
0000
1000
0000
0100
0001
,
0100
0000
0100
1000
0100
0000
0001
0010
,
1000
0100
0010
0000
1000
0001
1000
0000
,
0100
0010
1000
0100
0010
0000
1001
0000
,
0100
1000
0100
0000
0100
0001
0010
0000
,
1000
0100
0010
0100
0001
0100
0001
0000
,
0010
1000
0010
0000
0001
0100
0001
0000
,
0010
0001
0010
1000
0001
0100
0001
0000
,
0100
1000
0001
0000
0001
0100
1000
0000
,
1000
0100
0001
0000
0010
0100
1000
0000
,
0010
0100
0010
0100
0001
0100
0001
0000
,
1000
0001
0100
0010
0100
0001
0010
0000
,
2002
0000
0000
3003
0000
0000
0000
0000
;

//---------------dance-single - ----------------
#NOTES:
     dance-single:
     :
     Easy:
     7:
     0.393869,0.420573,0.168229,0.467303,0.000000,227.000000,18.000000,50.000000,0.000000,0.000000,0.000000,0.393869,0.420573,0.168229,0.467303,0.000000,227.000000,18.000000,50.000000,0.000000,0.000000,0.000000:
0000
0000
0000
0000
,
1000
0000
1000
0000
,
0010
0001
0010
0000
,
0001
0000
0001
0000
,
0100
0100
0100
0000
,
0010
0000
0010
0000
,
1000
0100
1000
0000
,
0100
0000
0100
0000
,
0010
0010
0010
0000
,
2000
3000
0020
0030
,
0100
0001
0200
0300
,
0020
0030
0200
0300
,
1000
0010
2000
3000
,
2000
3000
0002
0003
,
0010
0100
0020
0030
,
0200
0300
2000
3000
,
0010
0010
0020
0030
,
2002
3003
0100
0010
,
0100
1000
0002
0003
,
0220
0330
0010
0001
,
0100
1000
0200
0300
,
0022
0033
0001
0010
,
0001
0100
2000
3000
,
2020
3030
1000
0100
,
1000
0010
2000
3000
,
1100
0000
1010
0000
,
0101
0000
1001
0000
,
0011
0000
0101
0000
,
1001
0000
0110
0000
,
0100
0010
0100
0000
,
1000
0001
1000
0000
,
0010
1000
0010
0100
,
0010
0000
1001
0000
,
1000
0100
1000
1000
,
0010
0010
0100
0100
,
1001
0010
0001
0010
,
0100
1000
0100
0110
,
1000
0100
1000
0000
,
0010
0010
0001
0000
,
0100
0010
0100
0000
,
0001
0001
1000
0000
,
0010
0001
0010
0000
,
0100
0100
1000
0000
,
0100
1000
0010
0000
,
2002
0000
0000
3003
,
0100
1000
0100
1000
,
0010
0001
0010
0000
,
0001
0010
0001
0010
,
1000
0100
0001
0000
,
0100
0100
0010
1000
,
0010
1000
0001
0000
,
0001
0010
0001
0100
,
0010
1000
0100
0000
,
2000
3000
0200
0300
0020
0030
0002
0003
,
0020
0030
0200
0300
2000
3000
0002
0003
,
0010
0010
1000
1000
,
0100
0010
0001
0001
,
1000
1000
1000
0000
0010
0010
0010
0000
,
0100
0010
0100
0010
0100
0000
0110
0000
,
0020
0030
0020
0030
,
0100
0001
0200
0300
,
0002
0003
0002
0003
,
0010
0100
2000
3000
,
0200
0300
0200
0300
,
0001
0010
0002
0003
,
2000
3000
2000
3000
,
1000
0001
0020
0030
,
1000
0010
0100
0010
,
0100
0001
0020
0030
,
0001
1000
0100
0001
,
0100
1000
0200
0300
,
1000
0100
0001
0010
,
0100
1000
0200
0300
,
0010
0100
1000
0100
,
0001
1000
0002
0003
,
0110
0000
0000
0000
;
