#VERSION:0.83;
#TITLE:GIGANT;
#SUBTITLE:;
#ARTIST:seiya-murai;
#TITLETRANSLIT:;
#SUBTITLETRANSLIT:;
#ARTISTTRANSLIT:;
#GENRE:;
#ORIGIN:;
#CREDIT:;
#BANNER:GIGANT.png;
#BACKGROUND:GIGANT-bg.png;
#PREVIEWVID:;
#JACKET:;
#CDIMAGE:;
#DISCIMAGE:;
#LYRICSPATH:;
#CDTITLE:;
#MUSIC:GIGANT.ogg;
#OFFSET:-0.653310;
#SAMPLESTART:44.669998;
#SAMPLELENGTH:13.678574;
#SELECTABLE:YES;
#BPMS:0.000=210.000,
52.000=140.000,
56.000=210.000,
200.000=70.000,
216.000=210.000;
#STOPS:;
#DELAYS:;
#WARPS:;
#TIMESIGNATURES:0.000=4=4;
#TICKCOUNTS:0.000=4;
#COMBOS:0.000=1;
#SPEEDS:0.000=1.000=0.000=0;
#SCROLLS:0.000=1.000;
#FAKES:;
#LABELS:0.000=Song Start;
#BGCHANGES:4.000=GIGANT.avi=1.000=0=0=0=StretchNoLoop====,
99999=-nosongbg-=1.000=0=0=0 // don't automatically add -songbackground-
;
#KEYSOUNDS:;
#ATTACKS:
;

//---------------dance-single - ----------------
#NOTEDATA:;
#CHARTNAME:;
#STEPSTYPE:dance-single;
#DESCRIPTION:;
#CHARTSTYLE:;
#DIFFICULTY:Hard;
#METER:15;
#RADARVALUES:0.658309,0.910255,0.493055,0.398236,0.075855,486.000000,434.000000,52.000000,42.000000,0.000000,0.000000,0.000000,0.000000,0.000000,0.658309,0.910255,0.493055,0.398236,0.075855,486.000000,434.000000,52.000000,42.000000,0.000000,0.000000,0.000000,0.000000,0.000000;
#CREDIT:;
#NOTES:
0000
0000
0000
0000
,
1000
0100
0010
0001
0010
0100
1000
0101
,
0000
0101
0000
0101
0001
0010
0100
1000
,
0100
0010
0001
1100
0000
1100
0000
1100
,
0010
0100
0001
1000
0010
0100
1000
0001
,
0010
0001
0100
1000
0020
0000
0000
2030
,
0000
0000
3100
0000
0100
0002
0000
0000
,
0013
1000
0100
0001
0100
1000
0010
1001
,
0000
1001
0000
1001
0001
0100
1000
0010
,
1000
0100
0001
1010
0000
1010
0000
1010
,
0100
1000
0001
0010
0100
1000
0010
0001
,
0100
0001
1000
0010
0200
0000
0000
0320
,
0000
0000
0130
0000
0100
2000
0000
3000
,
0022
0000
0000
0000
0000
0000
0000
0000
0000
0033
0000
0100
,
0001
0000
0000
0000
0100
0010
0010
0000
,
0000
0000
0001
1000
1000
0000
0000
0000
,
0100
0010
0100
0000
0000
0001
0000
0000
,
0010
0000
0010
1010
0000
0000
0001
0000
,
0001
0101
0000
0000
0200
0000
0300
0010
,
0001
0010
0200
0000
0000
0302
0000
0000
,
1003
0000
0000
0000
0010
0100
0100
0000
,
0000
0000
0001
1000
1000
0000
0000
0000
,
0010
0100
0001
0000
0000
1000
0000
0000
,
0010
0000
0010
0110
0000
0000
0001
0000
,
0001
1001
0000
0000
2000
0000
3000
0100
,
0010
0001
0020
0000
0000
0030
0000
0000
,
0010
0100
0001
1000
,
0010
0100
2000
0000
,
3010
0100
0002
0000
0000
0000
0003
0000
,
0001
0010
0100
0010
0000
0100
0010
1000
,
0010
0100
0000
1000
0001
0100
0001
0010
,
0000
0001
1000
0010
0100
0001
1000
0010
,
0100
1000
0100
0010
,
0100
0001
2000
0000
,
3001
0010
0200
0000
0000
0000
0300
0000
,
1000
0100
0010
0001
0100
0001
0010
1000
,
0100
1000
0010
1000
0001
1000
0100
0010
,
0100
0010
1000
0010
0100
0001
0010
0100
,
2000
0000
3010
0100
0001
1000
0100
0011
,
0000
0101
0000
1001
0100
0010
0100
0010
,
0001
0010
1000
0110
0000
0011
0000
1010
,
0100
1000
0100
0001
0100
0010
0001
0010
,
0100
1000
0100
0010
1001
0000
0000
0110
,
0000
0000
1010
0000
1000
0101
0000
0000
,
0001
0010
0100
0001
1000
0010
0100
1010
,
0000
0110
0000
0101
0001
0100
0010
0100
,
0001
1000
0010
1010
0000
0101
0000
0011
,
0100
0001
0100
0010
0100
0001
1000
0100
,
0010
0100
0001
1000
0110
0000
0000
1001
,
0000
0000
0110
0000
0101
0110
0000
0000
,
0001
0000
0000
0000
0010
0100
0010
0000
0000
0000
0000
0010
1000
0000
0000
0100
0000
0010
0001
0000
0000
0000
0000
0000
,
0010
0000
0000
0010
0100
0001
1000
0000
0000
0010
0000
0010
0100
0000
0000
0000
1000
0001
1000
0000
0000
0010
0000
0000
,
0200
0000
0000
0000
0310
0001
2000
0000
0000
0000
3000
0001
0200
0000
0000
0302
0000
1000
0023
0000
0000
0000
0030
0000
,
1100
0000
0000
0011
0000
0000
0101
0000
0000
0110
0000
0000
2002
0000
0000
3003
0010
0200
0020
0000
0000
0000
0330
0000
,
0100
0010
0100
0001
2000
0000
0100
0000
,
0100
0000
3100
0000
0000
0010
0000
0100
,
0001
0100
0010
0100
0001
1000
0010
0100
,
0001
0000
1000
0002
0000
0000
1000
0000
,
1000
0000
1003
0000
0110
0000
0010
0011
,
0000
0000
1010
0000
1000
1100
0000
0000
,
0010
1000
0001
0100
0010
1000
0001
0100
,
0000
0100
0000
0100
1000
0010
0001
0010
,
0001
0100
1000
0001
0000
0001
0000
0001
,
0100
0010
1000
0001
0010
0001
1000
0010
,
0000
0010
0000
0010
0100
1000
0001
0100
,
0010
0100
0002
0000
2000
0000
3003
0000
,
0120
0000
1000
0000
0100
0000
1030
0001
,
0000
0001
0000
0001
0201
0000
0010
0000
,
0001
0000
0310
1000
0000
1000
0000
1000
,
1002
0000
0010
0000
1000
0000
0013
0100
,
0000
0100
0000
0100
2100
0000
0001
0000
,
3100
0000
0010
0100
1000
0001
0100
0010
,
0002
1000
0100
1000
0010
0100
1003
0010
,
0000
0010
0000
0010
2000
0100
0010
0001
,
0100
0010
3001
0100
0000
0100
0000
0100
,
0020
0001
0100
0001
1000
0100
1030
0001
,
0000
0001
0000
0001
2000
0000
0000
0200
,
0000
3300
0001
0100
0010
1000
0100
0010
,
2002
0000
0000
0000
,
0000
0000
0000
0000
,
3003
0000
0000
0000
;

//---------------dance-single - ----------------
#NOTEDATA:;
#CHARTNAME:;
#STEPSTYPE:dance-single;
#DESCRIPTION:;
#CHARTSTYLE:;
#DIFFICULTY:Medium;
#METER:10;
#RADARVALUES:0.411782,0.606836,0.237045,0.350827,0.023705,304.000000,279.000000,25.000000,37.000000,0.000000,0.000000,0.000000,0.000000,0.000000,0.411782,0.606836,0.237045,0.350827,0.023705,304.000000,279.000000,25.000000,37.000000,0.000000,0.000000,0.000000,0.000000,0.000000;
#CREDIT:;
#NOTES:
0000
0000
0000
0000
,
0100
0000
1000
0000
0100
0000
0000
0010
,
0000
0010
0000
0010
1000
0000
0001
0000
,
0010
0000
0000
0100
0000
0100
0000
0100
,
0001
1000
0100
0001
,
1000
0000
0001
0000
0100
0000
0000
1010
,
0000
0000
0010
0000
0000
1001
0000
0000
,
0100
0000
0010
0000
0001
0000
0000
1000
,
0000
1000
0000
1000
0001
0000
0100
0000
,
1000
0000
0000
0100
0000
0100
0000
0100
,
0001
0010
1000
0100
,
0010
0000
0100
0000
0001
0000
0000
1001
,
0000
0000
0100
0000
0000
0101
0000
0000
,
2002
0000
0000
3003
,
0100
0000
0000
0100
0000
0000
0001
0000
,
0000
0001
0000
0000
0010
0000
0000
0010
,
0000
0000
1000
0000
0000
1000
0000
0000
,
0001
0000
0000
1001
0000
0000
0010
0000
,
0000
0110
0000
0000
0200
0000
0300
0000
,
1000
0000
0002
0000
0000
0010
0000
0003
,
1000
0000
0000
1000
0000
0000
0010
0000
,
0000
0010
0000
0000
0100
0000
0000
0100
,
0000
0000
0001
0000
0000
0001
0000
0000
,
0100
0000
0000
0101
0000
0000
0010
0000
,
0000
0011
0000
0000
0002
0000
0003
0000
,
1000
2020
0000
3030
,
0100
0010
0001
1000
,
0100
0001
0200
0000
,
0310
0200
0000
0300
,
0010
0000
0000
0011
0000
0000
1000
0000
,
0000
1001
0000
0000
0100
0000
0000
0110
,
0000
0000
0001
0000
0000
0101
0000
0000
,
0010
1000
0001
0010
,
0001
0010
0200
0300
,
1000
2000
0000
3000
,
0001
0000
0000
0001
0000
0000
0010
0000
,
0000
0010
0000
0000
0100
0000
0000
1000
,
0000
0000
0100
0000
0000
0010
0000
0000
,
0200
0000
0301
0000
1000
0000
0000
0100
,
0000
0100
0000
0100
1000
0000
0001
0000
,
0100
0000
0000
0010
0000
0010
0000
0010
,
1000
0001
1000
0010
,
0001
0000
0100
0000
1000
0000
0000
0101
,
0000
0000
0100
0000
0000
0011
0000
0000
,
1000
0000
0100
0000
0001
0000
0000
1000
,
0000
1000
0000
1000
0001
0000
0010
0000
,
0100
0000
0000
0001
0000
0001
0000
0001
,
0010
0100
0001
1000
,
0001
0000
0100
0000
1000
0000
0000
0110
,
0000
0000
1000
0000
0000
1001
0000
0000
,
0200
0000
0000
0000
1300
0000
2000
0000
0000
0000
0000
0000
3002
0000
0000
0023
0000
0000
0230
0000
0000
0000
0300
0000
,
0010
0000
0000
0001
0000
0000
0100
0000
0000
1000
0000
0000
0020
0000
0000
0000
0031
0000
0002
0000
0000
0100
0003
0000
,
1000
0000
0000
0000
0100
0000
0100
0000
0000
0000
1000
0000
2000
0000
0000
3020
0000
0000
0230
0000
0000
0000
0300
0000
,
0001
0000
0000
0010
0000
0000
1000
0000
0000
0100
0000
0000
0020
0000
0000
0000
1000
0000
2000
0000
0000
0000
3030
0000
,
0001
1000
0200
0010
,
0010
0310
0001
1000
,
0001
0100
0001
1000
,
0010
0100
0010
1000
,
0001
0000
0001
0000
0100
0000
0000
0110
,
0000
0000
1000
0000
0000
1100
0000
0000
,
1000
0000
0100
0000
0010
0000
0100
0001
,
0000
0001
0000
0001
0100
0000
1000
0000
,
0010
0000
0100
0010
0000
0010
0000
0010
,
0001
0000
0100
0000
0001
0000
0100
1000
,
0000
1000
0000
1000
0010
0000
1000
0000
,
0001
0020
0200
0330
,
2000
0000
0100
0000
0100
0000
3000
0010
,
0000
0100
0000
0010
0200
0000
0001
0000
,
0001
0000
0300
1000
0000
0001
0000
1000
,
0002
0000
0010
0000
0010
0000
0003
1000
,
0000
0100
0000
1000
0020
0000
1000
0000
,
1030
0100
0010
0001
,
1020
0000
0100
0000
0100
0000
0030
1000
,
0000
0001
0000
1000
1200
0000
0010
0000
,
0010
0000
0300
0001
0000
0100
0000
0001
,
2001
0000
0100
0000
0100
0000
3000
0010
,
0000
1000
0000
0010
0210
0000
0001
0000
,
0001
0300
1000
0000
0010
0000
0100
0000
,
0220
0000
0000
0000
,
0000
0000
0000
0000
,
0330
0000
0000
0000
;

//---------------dance-single - ----------------
#NOTEDATA:;
#CHARTNAME:;
#STEPSTYPE:dance-single;
#DESCRIPTION:;
#CHARTSTYLE:;
#DIFFICULTY:Easy;
#METER:7;
#RADARVALUES:0.323736,0.517707,0.018964,0.189636,0.009482,239.000000,237.000000,2.000000,20.000000,0.000000,0.000000,0.000000,0.000000,0.000000,0.323736,0.517707,0.018964,0.189636,0.009482,239.000000,237.000000,2.000000,20.000000,0.000000,0.000000,0.000000,0.000000,0.000000;
#CREDIT:;
#NOTES:
0000
0000
0000
0000
,
0100
0001
0100
0000
,
0010
0010
1000
0100
,
1000
0000
0001
0001
,
0100
0010
0100
0000
,
0001
0000
1000
0000
0010
0000
0000
0010
,
0000
0000
0100
0000
0000
0100
0000
0000
,
1000
0100
1000
0000
,
0100
0100
0001
0010
,
0001
0000
1000
1000
,
0001
0010
1000
0000
,
0100
0000
0010
0000
1000
0000
0000
1000
,
0000
0000
0100
0000
0000
0100
0000
0000
,
1001
0000
0000
0000
,
0100
0000
0001
0001
,
0000
1000
1000
0000
,
0010
0010
0000
0000
,
1000
0000
0000
1000
0000
0000
0100
0000
,
0000
0100
0000
0000
0010
0000
0000
0000
,
0001
0002
0000
0003
,
1000
0000
0010
0010
,
0000
0100
0100
0000
,
0001
0001
0000
0000
,
0010
0000
0000
0010
0000
0000
1000
0000
,
0000
1000
0000
0000
0100
0000
0000
0000
,
1000
2000
0000
3000
,
0010
0100
0010
0100
,
0001
0100
1000
0000
,
0001
1000
0000
0000
,
0001
0000
0000
0001
0000
0000
0100
0000
,
0000
0100
0000
0000
1000
0000
0000
1000
,
0000
0000
0010
0000
0000
0010
0000
0000
,
0001
0010
0001
1000
,
0001
1000
0010
0000
,
0100
0010
0000
0000
,
1000
0000
0000
1000
0000
0000
0001
0000
,
0000
0001
0000
0000
0010
0000
0000
0100
,
0000
0000
0001
0000
0000
1000
0000
0000
,
0010
0100
0010
0000
,
0001
0001
0100
0001
,
0100
0000
0010
0010
,
1000
0010
0100
0000
,
0001
0000
0100
0000
1000
0000
0000
1000
,
0000
0000
0001
0000
0000
0001
0000
0000
,
1000
0001
1000
0000
,
0010
0010
0100
0001
,
0100
0000
1000
1000
,
0100
1000
0001
0000
,
0001
0000
0100
0000
0010
0000
0000
0010
,
0000
0000
0100
0000
0000
0100
0000
0000
,
2000
0000
0000
3002
0000
0000
0023
0000
0000
0230
0000
0300
,
1000
0000
0000
0010
0000
0000
0100
0000
0000
0001
0000
0000
0020
0000
0000
0000
0000
0000
2000
0000
0000
0000
3030
0000
,
0100
0000
0000
0000
0100
0000
0001
0000
0000
0000
0001
0000
0010
0000
0000
1000
0000
0000
0010
0000
0000
0000
0000
0000
,
1000
0000
0000
0100
0000
0000
0001
0000
0000
0010
0000
0000
0200
0000
0000
0000
0000
0000
0020
0000
0000
0000
0330
0000
,
1000
0100
0010
0000
,
0100
0000
0001
1000
,
0001
0000
0100
0000
,
0001
0010
0100
0000
,
0001
0000
0000
0000
0100
0000
0000
0100
,
0000
0000
0001
0000
0000
0001
0000
0000
,
1000
0100
0010
0000
,
0100
0100
0001
0010
,
1000
0000
0001
0001
,
1000
0010
0100
0000
,
1000
1000
0010
0100
,
0010
2000
0020
3030
,
2000
0000
0001
3000
,
0010
0010
0002
0000
,
0100
0003
1000
1000
,
0020
0000
1000
0030
,
0100
0100
0002
0000
,
1003
1000
0001
0010
,
2000
0001
0001
3000
,
0100
0100
0020
1000
,
1000
0030
0001
0001
,
0200
0010
0010
0300
,
0100
0100
2000
0100
,
3100
0100
0010
0001
,
1001
0000
0000
0000
;

//---------------dance-single - ----------------
#NOTEDATA:;
#CHARTNAME:;
#STEPSTYPE:dance-single;
#DESCRIPTION:;
#CHARTSTYLE:;
#DIFFICULTY:Beginner;
#METER:4;
#RADARVALUES:0.158482,0.332812,0.028445,0.132745,0.000000,117.000000,114.000000,3.000000,14.000000,0.000000,0.000000,0.000000,0.000000,0.000000,0.158482,0.332812,0.028445,0.132745,0.000000,117.000000,114.000000,3.000000,14.000000,0.000000,0.000000,0.000000,0.000000,0.000000;
#CREDIT:;
#NOTES:
// measure 0
0000
0000
0000
0000
,  // measure 1
1000
0000
0000
0000
,  // measure 2
0001
0000
0001
0000
,  // measure 3
0000
0000
0010
0000
,  // measure 4
0010
0000
0000
0000
,  // measure 5
0100
0000
0100
0000
,  // measure 6
0000
0001
0000
0000
,  // measure 7
1000
0000
0000
0000
,  // measure 8
0010
0000
0010
0000
,  // measure 9
0000
0000
0100
0000
,  // measure 10
0100
0000
0000
0000
,  // measure 11
0001
0000
0001
0000
,  // measure 12
0000
1000
0000
0000
,  // measure 13
1001
0000
0000
0000
,  // measure 14
0010
0000
0000
0010
,  // measure 15
0000
0000
0100
0000
,  // measure 16
0000
0100
0000
0000
,  // measure 17
1000
0000
0000
0001
,  // measure 18
0000
0000
1000
0000
,  // measure 19
0000
0001
0000
0000
,  // measure 20
1000
0000
0000
1000
,  // measure 21
0000
0000
0001
0000
,  // measure 22
0000
0001
0000
0000
,  // measure 23
0010
0000
0000
0100
,  // measure 24
0000
0000
0010
0000
,  // measure 25
0000
0100
0000
0000
,  // measure 26
1000
0000
0000
0100
,  // measure 27
0000
0000
0001
0000
,  // measure 28
0000
0100
0000
0000
,  // measure 29
0010
0000
0000
0010
,  // measure 30
0000
0000
1000
0000
,  // measure 31
0000
1000
0000
0000
,  // measure 32
0001
0000
0000
0100
,  // measure 33
0000
0000
0010
0000
,  // measure 34
0000
0100
0000
0000
,  // measure 35
0001
0000
0000
0001
,  // measure 36
0000
0000
0100
0000
,  // measure 37
0000
0100
0000
0000
,  // measure 38
0110
0000
0000
0000
,  // measure 39
0010
0000
0010
0000
,  // measure 40
0000
0000
1000
0000
,  // measure 41
1000
0000
0000
0000
,  // measure 42
0001
0000
0001
0000
,  // measure 43
0000
0100
0000
0000
,  // measure 44
0010
0000
0000
0000
,  // measure 45
1000
0000
1000
0000
,  // measure 46
0000
0000
0100
0000
,  // measure 47
0100
0000
0000
0000
,  // measure 48
0001
0000
0001
0000
,  // measure 49
0000
1000
0000
0000
,  // measure 50
0020
0030
0200
0300
,  // measure 51
2000
3000
0002
0003
,  // measure 52
0010
0010
1000
1000
,  // measure 53
0001
0001
0100
0100
,  // measure 54
0020
0000
0000
0000
,  // measure 55
0030
0000
1000
0000
,  // measure 56
0001
0000
1000
0000
,  // measure 57
0100
0000
0200
0000
,  // measure 58
0300
0000
0010
0000
,  // measure 59
0000
0010
0000
0000
,  // measure 60
0001
0000
0001
0000
,  // measure 61
0001
0000
0100
0000
,  // measure 62
0100
0000
0100
0000
,  // measure 63
0010
0000
0010
0000
,  // measure 64
0010
0000
1000
0000
,  // measure 65
1000
0000
1000
0000
,  // measure 66
0002
0000
0003
0000
,  // measure 67
1000
0000
2000
0000
,  // measure 68
3000
0000
0010
0000
,  // measure 69
0020
0000
0030
0000
,  // measure 70
0100
0000
0200
0000
,  // measure 71
0300
0100
0000
0000
,  // measure 72
0002
0000
0003
0000
,  // measure 73
0001
0000
2000
0000
,  // measure 74
3000
0000
1000
0000
,  // measure 75
0200
0000
0300
0000
,  // measure 76
0100
0000
0020
0000
,  // measure 77
0030
0010
0000
0000
,  // measure 78
1001
0000
0000
0000
;
