#VERSION:0.83;
#TITLE:Frozen Ray;
#SUBTITLE:;
#ARTIST:dj TAKA;
#TITLETRANSLIT:;
#SUBTITLETRANSLIT:;
#ARTISTTRANSLIT:;
#GENRE:;
#ORIGIN:;
#CREDIT:;
#BANNER:Frozen Ray.png;
#BACKGROUND:Frozen Ray-bg.png;
#PREVIEWVID:;
#JACKET:;
#CDIMAGE:;
#DISCIMAGE:;
#LYRICSPATH:;
#CDTITLE:;
#MUSIC:Frozen Ray.ogg;
#OFFSET:-0.298225;
#SAMPLESTART:24.907000;
#SAMPLELENGTH:12.307693;
#SELECTABLE:YES;
#BPMS:0.000=156.000,
192.000=78.000,
208.000=156.000;
#STOPS:;
#DELAYS:;
#WARPS:;
#TIMESIGNATURES:0.000=4=4;
#TICKCOUNTS:0.000=4;
#COMBOS:0.000=1;
#SPEEDS:0.000=1.000=0.000=0;
#SCROLLS:0.000=1.000;
#FAKES:;
#LABELS:0.000=Song Start;
#BGCHANGES:0.000=Frozen Ray.avi=1.000=0=0=0=StretchNoLoop====,
99999=-nosongbg-=1.000=0=0=0 // don't automatically add -songbackground-
;
#KEYSOUNDS:;
#ATTACKS:
;

//---------------dance-single - ----------------
#NOTEDATA:;
#CHARTNAME:;
#STEPSTYPE:dance-single;
#DESCRIPTION:;
#CHARTSTYLE:;
#DIFFICULTY:Hard;
#METER:12;
#RADARVALUES:0.468478,0.632857,0.105476,0.297251,0.172597,342.000000,331.000000,11.000000,31.000000,0.000000,0.000000,0.000000,0.000000,0.000000,0.468478,0.632857,0.105476,0.297251,0.172597,342.000000,331.000000,11.000000,31.000000,0.000000,0.000000,0.000000,0.000000,0.000000;
#CREDIT:;
#NOTES:
0000
0000
0000
0000
,
0000
0000
0000
0000
,
0000
0000
0000
0000
,
0000
0000
0000
0000
,
0000
0000
0000
0000
,
0000
0000
0000
0000
,
0000
0000
0000
0000
,
0000
0000
0000
0000
,
1000
0010
0001
0010
,
0010
0000
0100
0000
0001
0000
0001
0010
,
0100
0000
0100
0000
0001
0000
0001
0001
,
0010
0000
1000
0100
0001
0000
0010
0001
,
1000
0100
1000
0100
0010
0100
0001
0010
,
1000
0000
0001
0000
0100
0000
0010
0000
0001
0000
0000
0001
1000
0000
0010
0000
,
0100
0000
0001
0000
0010
0000
0100
0100
,
2000
0000
0010
3100
,
1000
0000
0210
0000
0000
0010
0001
0300
,
0000
0200
0000
0010
0000
1000
0301
0000
,
2000
0000
0000
0010
0000
0000
3010
0002
,
0000
0000
0003
1000
1000
0100
0010
0200
,
0000
0000
1300
0000
0100
0010
0100
0002
,
0000
0000
1003
0200
0000
1000
0300
0000
,
0020
0000
0000
0000
0030
0000
0001
0010
0002
0000
0000
0000
0003
0000
0100
0001
,
0100
0000
1000
0100
1000
0000
0010
0100
0010
0000
0001
1000
0001
0000
0100
1000
,
0200
0000
0301
0000
0100
0010
0100
0010
,
0100
0100
0001
1000
0010
0001
0100
0010
,
0000
1000
0000
1000
0001
0000
0000
0000
0010
0000
1000
0000
0001
0000
0100
0000
,
0000
0100
0001
1000
0010
0100
0100
0010
,
0000
1000
1000
0100
0001
0100
0010
0100
,
0001
0100
0010
0001
0010
0100
0001
0100
,
0000
0000
0001
1000
0010
0100
0001
1000
,
0001
0010
0100
0001
1000
0010
0100
0010
,
0000
1000
0100
1000
0000
0010
0001
0010
,
0000
0100
0001
0100
0000
0010
0100
0010
,
0000
0001
1000
0010
0000
0100
0001
0100
,
0000
0000
0010
0000
1000
0000
0001
0000
0000
1000
0100
0000
0010
0000
0100
0000
,
0000
0010
0001
0000
1000
0000
0010
0000
0000
0001
0100
0000
0001
0000
1000
0000
,
0000
0000
0100
0000
1000
0000
0010
0000
0000
0010
0100
0000
0001
0000
0010
0000
,
0000
0000
0001
0000
0100
0000
0010
0000
0000
0001
0100
0000
0010
0000
0100
0000
,
0000
0000
1000
0000
0100
0000
0010
0000
0001
1000
0001
1000
0001
1000
0001
0000
,
0000
0100
0010
0000
0100
0000
0001
0000
0000
0000
1000
0000
0010
0000
0100
0000
,
0000
0000
1000
0000
0010
0000
0001
0000
0000
0010
0100
0000
1000
0000
0001
0000
,
0000
0000
0100
0000
0001
0000
0010
0000
0000
0001
1000
0000
0001
0000
0010
0000
,
0000
0000
0100
0000
0010
0000
0100
0000
0000
0100
0001
0000
0010
0000
0001
0000
,
0000
0100
1000
0000
0001
0000
0100
0000
0000
1000
0010
0000
0100
0000
0001
0000
,
0000
0000
1000
0000
0010
0000
0100
0000
0000
0001
1000
0000
0010
0000
0010
0000
,
0000
0001
0010
0100
0000
0001
1000
0010
,
0100
0000
0001
0000
1000
0000
0010
0000
0100
0001
0100
0010
0100
0000
0001
0000
,
2001
0000
0000
0010
3000
0100
1000
0000
0020
0000
0100
0000
0031
0100
1000
0010
,
0002
0000
0023
0000
0230
0000
0310
1000
,
0002
0000
0000
0100
0003
0010
1000
0000
2000
0000
0000
0100
3000
0001
0010
0000
,
2020
3030
0202
0303
0022
0033
2002
3003
,
1000
0010
0100
0001
,
0010
0000
0001
0000
0010
0000
0100
0100
,
0100
0000
0010
0000
1000
0000
0001
0010
,
0100
0000
0001
1000
0010
0001
0100
0000
,
0012
0100
0000
0010
0000
0100
0003
0000
,
1020
1000
0100
0001
0000
0100
1030
0000
,
2100
0100
0010
0001
0000
0100
3000
0001
,
0220
0000
0000
0000
0330
0000
0000
0000
0010
0100
0010
1000
0010
0000
1000
0000
,
1001
0000
0000
0000
;

//---------------dance-single - ----------------
#NOTEDATA:;
#CHARTNAME:;
#STEPSTYPE:dance-single;
#DESCRIPTION:;
#CHARTSTYLE:;
#DIFFICULTY:Medium;
#METER:8;
#RADARVALUES:0.368482,0.431493,0.124654,0.182186,0.000000,269.000000,256.000000,13.000000,19.000000,0.000000,0.000000,0.000000,0.000000,0.000000,0.368482,0.431493,0.124654,0.182186,0.000000,269.000000,256.000000,13.000000,19.000000,0.000000,0.000000,0.000000,0.000000,0.000000;
#CREDIT:;
#NOTES:
0000
0000
0000
0000
,
0000
0000
0000
0000
,
0000
0000
0000
0000
,
0000
0000
0000
0000
,
0000
0000
0000
0000
,
0000
0000
0000
0000
,
0000
0000
0000
0000
,
0000
0000
0000
0000
,
1000
0100
1000
1000
,
0010
0100
0010
0010
,
0001
1000
0001
0001
,
0100
1000
0001
0010
,
2000
0010
0010
3010
,
0200
1000
1000
1300
,
0002
0100
1000
0013
,
0010
0000
1000
1001
,
0200
0000
0310
0000
0001
0100
0001
0000
,
0100
0000
0010
1000
0000
0010
0100
0000
,
0001
0100
1000
0100
,
0001
0010
1000
1000
,
0002
0000
0013
0000
1000
0010
1000
0000
,
0001
0000
1000
0010
0000
1000
0001
0000
,
0010
0011
1000
1001
,
0100
0000
0101
0000
1000
0100
0010
0100
,
0000
0000
0110
0000
0100
0010
0100
0000
,
0010
0000
0001
0010
0000
0010
0100
0000
,
1000
0010
0001
0000
0010
0000
0100
0001
,
0010
0000
1000
0001
0100
0001
0100
0000
,
0010
0000
1000
0000
1000
0000
0010
0001
,
0010
1000
0100
0000
0001
1000
0001
0000
,
0100
0000
1000
0000
0001
1000
0001
0000
,
0010
0000
0100
0010
0100
0000
1100
0000
,
0000
0100
0001
0100
0000
0010
0000
1000
,
0000
0010
1000
0010
0000
0100
0000
0001
,
0000
0100
1000
0100
0000
0001
0000
0001
,
0000
0010
0001
0010
0000
0100
0000
0100
,
0000
1000
0100
0010
0000
0001
0000
0010
,
0000
0001
0100
0010
0000
1000
0000
0010
,
0000
0100
0001
1000
0000
0001
0000
1000
,
0000
0010
0100
0010
0100
0000
1001
0000
,
0000
0010
0001
0100
0000
0010
0000
0101
,
0000
0001
1000
0010
0000
0001
0000
0011
,
0000
0100
0010
1000
0000
0100
0000
0101
,
0000
1000
0010
0100
0000
0001
0000
1100
,
0000
0010
0001
0010
0000
0100
0010
0100
,
0000
0001
1000
0001
0000
1000
0100
1000
,
0000
0100
0010
0001
0000
0001
0100
1000
,
0100
0010
0001
0010
1000
0000
1010
0000
,
0200
0000
0010
0000
0310
0001
1000
0000
,
2000
0000
0001
0000
3001
0100
0010
0000
,
0020
1000
0031
0000
0200
0010
0301
0000
,
0002
0010
0023
0100
0230
1000
2300
0001
,
3002
0003
0010
0100
,
0100
0000
0010
0000
0001
0000
0100
0001
,
0100
1000
0100
0001
,
0001
0000
0100
0000
0010
0000
0100
1000
,
0200
0310
1000
0001
,
2000
0000
3010
0000
0100
0000
0001
0010
,
0002
0000
0013
1000
0020
0000
1030
0001
,
2000
0010
0100
3001
,
1001
0000
0000
0000
;

//---------------dance-single - ----------------
#NOTEDATA:;
#CHARTNAME:;
#STEPSTYPE:dance-single;
#DESCRIPTION:;
#CHARTSTYLE:;
#DIFFICULTY:Easy;
#METER:4;
#RADARVALUES:0.212322,0.345195,0.057532,0.143831,0.000000,155.000000,149.000000,6.000000,15.000000,0.000000,0.000000,0.000000,0.000000,0.000000,0.212322,0.345195,0.057532,0.143831,0.000000,155.000000,149.000000,6.000000,15.000000,0.000000,0.000000,0.000000,0.000000,0.000000;
#CREDIT:;
#NOTES:
0000
0000
0000
0000
,
0000
0000
0000
0000
,
0000
0000
0000
0000
,
0000
0000
0000
0000
,
0000
0000
0000
0000
,
0000
0000
0000
0000
,
0000
0000
0000
0000
,
0000
0000
0000
0000
,
1000
0000
1000
0000
,
0001
0001
0001
0000
,
0100
0000
0100
0000
,
0010
0010
0010
0000
,
0002
0000
0000
0003
,
0200
0000
0000
0300
,
0020
0000
0000
0030
,
2000
0000
0000
3000
,
0110
0000
0010
0000
,
0001
0010
0010
0000
,
0001
0000
0100
0000
,
0010
1000
1000
0000
,
1001
0000
0010
0000
,
0001
0100
1000
0000
,
0001
0000
0010
0000
,
0100
0010
0010
0000
,
0200
0300
0010
0001
,
0010
1000
1000
0000
,
0002
0003
0010
0001
,
0100
0100
1000
0000
,
0200
0300
1000
0010
,
0001
0010
1000
0000
,
2000
3000
0010
0001
,
0010
0100
0100
0000
,
1000
0100
1000
0000
,
0001
0100
0001
0000
,
0010
0001
0010
0000
,
0100
0010
0100
0000
,
0001
1000
0100
0000
,
0010
0001
1000
0000
,
0100
0001
0010
0100
,
1000
0000
1001
0000
,
0010
0010
0100
0000
,
0100
0100
0001
0000
,
1000
0010
1000
0000
,
0100
0010
0100
0000
,
0020
0030
0100
0001
,
0200
0300
1000
0010
,
2000
3000
0001
0010
,
0010
0100
2000
3000
,
0100
0110
0010
0010
,
0001
1001
1000
1000
,
0010
0010
0010
0000
0001
0001
0001
0000
,
0010
1000
0100
0110
,
1000
1000
1000
0000
,
0100
0001
0100
0000
,
0010
0010
0010
0000
,
0001
1000
0001
0000
,
0200
0300
0001
0010
,
0020
0030
0100
1000
,
2000
3000
0010
0001
,
0100
0010
0010
0000
,
0100
0000
0000
0000
;

//---------------dance-single - ----------------
#NOTEDATA:;
#CHARTNAME:;
#STEPSTYPE:dance-single;
#DESCRIPTION:;
#CHARTSTYLE:;
#DIFFICULTY:Beginner;
#METER:2;
#RADARVALUES:0.121914,0.172597,0.047944,0.057532,0.000000,89.000000,84.000000,5.000000,6.000000,0.000000,0.000000,0.000000,0.000000,0.000000,0.121914,0.172597,0.047944,0.057532,0.000000,89.000000,84.000000,5.000000,6.000000,0.000000,0.000000,0.000000,0.000000,0.000000;
#CREDIT:;
#NOTES:
// measure 0
0000
0000
0000
0000
,  // measure 1
0000
0000
0000
0000
,  // measure 2
0000
0000
0000
0000
,  // measure 3
0000
0000
0000
0000
,  // measure 4
0000
0000
0000
0000
,  // measure 5
0000
0000
0000
0000
,  // measure 6
0000
0000
0000
0000
,  // measure 7
0000
0000
0000
0000
,  // measure 8
0100
0000
0000
0000
,  // measure 9
0100
0000
0000
0000
,  // measure 10
0010
0000
0000
0000
,  // measure 11
0010
0000
0000
0000
,  // measure 12
1000
0000
0000
0000
,  // measure 13
1000
0000
0000
0000
,  // measure 14
0001
0000
0000
0000
,  // measure 15
0001
0000
0000
0000
,  // measure 16
1001
0000
0000
0000
,  // measure 17
0100
0000
0000
0000
,  // measure 18
0010
0000
0000
0000
,  // measure 19
0100
0000
0000
0000
,  // measure 20
0110
0000
0000
0000
,  // measure 21
0001
0000
0000
0000
,  // measure 22
1000
0000
0000
0000
,  // measure 23
0001
0000
0000
0000
,  // measure 24
1000
0000
1000
0000
,  // measure 25
1000
0000
1000
0000
,  // measure 26
0010
0000
0010
0000
,  // measure 27
0010
0000
0010
0000
,  // measure 28
0100
0000
0100
0000
,  // measure 29
0100
0000
0100
0000
,  // measure 30
0001
0000
0001
0000
,  // measure 31
0001
0000
0001
0000
,  // measure 32
0200
0000
0300
0000
,  // measure 33
0010
0000
0010
0000
,  // measure 34
0020
0000
0030
0000
,  // measure 35
0001
0000
0001
0000
,  // measure 36
0002
0000
0003
0000
,  // measure 37
1000
0000
1000
0000
,  // measure 38
2000
0000
3000
0000
,  // measure 39
0220
0000
0330
0000
,  // measure 40
0001
0000
0001
0000
,  // measure 41
1000
0000
1000
0000
,  // measure 42
0001
0000
0001
0000
,  // measure 43
1000
0000
1000
0000
,  // measure 44
0010
0000
0010
0000
,  // measure 45
0100
0000
0100
0000
,  // measure 46
0010
0000
0010
0000
,  // measure 47
0100
0000
0100
0000
,  // measure 48
1001
0000
0001
0000
,  // measure 49
1000
0000
1000
0000
,  // measure 50
0100
0000
0100
0000
,  // measure 51
0010
0000
0010
0000
,  // measure 52
1000
0000
1000
0000
,  // measure 53
1000
0000
1000
0000
,  // measure 54
0001
0000
0001
0000
,  // measure 55
0001
0000
0001
0000
,  // measure 56
0010
0000
0010
0000
,  // measure 57
0010
0000
0010
0000
,  // measure 58
0100
0000
0100
0000
,  // measure 59
0100
0000
0100
0000
,  // measure 60
1001
0000
0000
0000
;
