#VERSION:0.83;
#TITLE:Fox4-Raize-;
#SUBTITLE:;
#ARTIST:Getty vs. DJ DiA;
#TITLETRANSLIT:;
#SUBTITLETRANSLIT:;
#ARTISTTRANSLIT:;
#GENRE:;
#CREDIT:;
#MUSIC:Fox4-Raize-.ogg;
#BANNER:Fox4-Raize-.png;
#BACKGROUND:Fox4-Raize--bg.png;
#CDTITLE:;
#SAMPLESTART:77.051;
#SAMPLELENGTH:15.000;
#SELECTABLE:YES;
#OFFSET:-0.251;
#BPMS:0.000=200.000
,60.000=50.000
,61.000=200.000
,189.000=100.000
,221.000=200.000
;
#STOPS:;
#BGCHANGES:;
#FGCHANGES:;

//--------------- dance-single - ----------------
#NOTEDATA:;
#STEPSTYPE:dance-single;
#DESCRIPTION:;
#DIFFICULTY:Hard;
#METER:17;
#RADARVALUES:0,0,0,0,0;
#NOTES:
0000
0000
0000
0000
,
0000
0000
0000
0000
,
0000
0000
0000
0000
,
0000
0000
0000
0000
,
0000
0000
0000
0000
,
0000
0000
0000
0000
,
0000
0000
0000
0000
,
0000
0000
0000
0000
,
1000
1000
0001
0100
0010
0010
1000
0001
,
0100
0000
0100
0000
0001
0000
0100
0000
0010
1000
0000
1000
0010
0000
0100
0000
,
0001
0001
0101
0000
0010
0010
0110
0010
,
1000
0001
0100
0001
1000
0100
1100
0000
,
0001
0000
0000
0000
1000
0000
0000
0000
0010
0000
0000
0000
0100
0000
0001
0100
,
0001
0000
0000
0000
1000
0000
0000
0000
0010
0000
0100
0010
0100
0000
0001
1000
,
0001
0000
0010
0000
0100
0000
1000
0000
0010
1000
0010
1000
0010
1000
0010
1000
,
0000
0001
0100
0001
0100
0100
0110
1000
0200
0000
0000
0000
0000
0000
0000
0000
1300
0000
0000
0000
0000
0000
0000
0000
0001
0000
0000
0000
1000
0000
0000
0000
,
0001
0100
0010
1000
,
0100
0010
0010
0000
0001
0000
0100
0001
,
0100
0000
0000
0000
0010
0000
0000
0000
0100
0000
0001
0000
1000
0000
0001
1000
,
0001
0001
2000
0000
3010
0000
0100
0010
,
1000
0000
0100
0000
1000
0000
0001
0010
,
0001
0000
0100
0000
0001
0000
0000
0000
0010
0000
1000
0000
0100
0000
0000
0001
,
1000
0001
0100
0100
0010
0010
1000
0001
,
1100
0000
0100
0100
0001
0010
1000
1000
,
0100
0000
0001
0000
0010
0000
0010
0000
0100
0000
0010
0000
1000
0001
0000
0001
,
1000
0010
0100
0100
0110
0000
1000
1000
,
1001
0000
1000
0000
0100
0000
0010
0000
1000
0000
0010
0000
0100
0000
0001
0100
,
0001
0010
1010
0000
0100
1000
0100
0010
,
0001
0010
0011
0000
0100
0001
0100
0010
,
0100
0000
0100
0000
1000
0000
0100
0000
0001
0000
0100
0000
1000
0000
0001
0010
,
0001
0000
0001
0000
0100
0000
0000
0000
0010
0000
0100
0010
0100
0010
1000
0000
,
1001
0000
0000
0000
0200
0000
0000
0000
0310
0000
1000
0000
0001
0000
0100
0001
,
0100
0001
1000
0010
0010
1000
0001
0100
,
1100
0000
0000
0000
2020
0000
0000
0000
0030
0000
0000
0000
3001
0000
0010
0100
,
0010
0100
1000
0010
0010
0100
0001
1000
,
0101
0000
0000
0000
1001
0000
0000
0000
1001
0000
0000
0000
0010
0000
1000
0010
,
1000
0000
0010
0000
0100
0000
0001
0100
0001
0000
0100
0000
0010
0000
1000
0000
,
0020
0000
0130
0100
0001
1000
1000
0001
,
0010
0000
0010
0000
0001
0000
0100
0000
0100
0000
0010
0000
1000
0010
0100
0010
,
1000
0000
1200
0000
0310
0010
0001
0100
,
0001
0000
1000
0000
1000
0000
0010
0000
0001
0000
0100
0000
0001
1000
0001
0000
,
0010
0000
0100
0000
1000
0000
0010
0000
0100
0000
0001
0000
0001
0000
0100
1000
,
0100
0010
1000
1000
0001
0200
0000
0310
,
0110
0000
1000
0001
0100
0001
1000
0010
,
0002
0000
0103
1000
0100
0010
0100
0001
,
0020
0000
0000
0000
0031
1000
0001
1000
0001
1000
0001
1000
0001
1000
0001
1000
,
0001
1000
0001
1000
0200
0000
0000
0000
0000
0000
0000
0000
0000
0000
0000
0000
,
0300
0000
1001
0010
0100
0000
0001
0100
,
0010
0000
1000
0001
0100
0000
0010
1000
,
0001
0000
0000
0000
1000
0000
0000
1000
0000
0000
0100
0000
0001
0000
0000
0001
,
0000
0000
0010
0000
0100
0000
0000
0100
0000
0000
0001
0000
0010
0000
0000
0010
,
0000
0000
1010
0000
0001
0001
0100
0010
0100
0100
0001
0010
1000
1000
0001
1000
,
0010
0100
0000
0100
0010
0000
1000
0000
0100
0000
0100
0000
0101
0000
0000
0000
0001
0000
0001
0000
0011
0000
0001
0000
1000
0000
0100
0000
0001
0000
0100
0000
,
1000
0010
1010
0000
0110
0000
0010
1000
0010
0001
0010
0100
0101
0000
0001
0100
,
1000
0000
0010
0001
0010
0000
0100
0010
0100
0000
0010
0000
1000
0000
0001
0000
0010
1000
0001
0100
0001
0010
0100
1000
0020
0000
0000
0000
0130
0000
0000
0000
,
0001
0010
0001
0010
0001
0000
0000
0000
0110
0000
0000
0000
0010
0000
0000
0000
1000
0000
0000
0000
0001
0000
0000
0000
0100
0000
0000
0000
0010
0000
0000
0000
,
0100
0000
0001
0000
1000
0000
0001
0000
0010
0000
0100
1000
0000
1000
0100
0000
,
0010
0000
1000
0000
0001
0000
0100
0000
0010
0000
1000
0010
0000
0100
0010
0000
,
0001
0000
0100
0000
0001
0000
1000
0000
0010
0000
0100
0001
0000
0000
0010
0000
,
0010
1000
1001
0001
0010
0100
0010
0001
,
1000
0000
0010
0000
0100
0000
0001
0000
0100
0000
1000
0010
0000
0010
1000
0000
,
0100
0000
0001
0000
0010
0000
0001
0000
0100
0000
0010
1000
0000
0100
1000
0000
,
0001
0100
0001
0001
0001
0001
0010
0000
,
0100
0010
0110
1000
0100
0001
0010
0001
,
0100
0000
0001
0000
1000
0000
0010
0000
0100
0000
0001
0100
0000
0100
0001
0000
,
1000
0000
0010
0000
1000
0000
0010
0000
0100
0000
0010
0001
0000
1000
0001
0000
,
0100
0000
0001
0000
0010
0000
1000
0000
0100
0000
0010
1000
0000
0010
1000
0000
,
0001
1000
0101
0001
0010
1000
0010
1000
,
0001
0000
0100
0000
0001
0000
0100
0000
0010
0000
1000
0001
0000
0001
1000
0000
,
0010
0000
0100
0000
0010
0000
0001
0000
1000
0000
0010
0100
0000
0001
0100
0000
,
0010
0000
0100
0000
0010
0000
0010
0000
0010
0000
0010
1000
0010
1000
0010
0000
,
0100
0001
0110
0000
0010
0000
1000
0001
,
0100
0000
0010
0001
0100
0001
1000
0010
,
0100
0100
0010
1000
0001
0000
0010
0100
,
0001
0000
0000
0000
1000
0000
0100
0000
0010
0000
0100
0000
0001
0000
1000
0010
,
1000
1000
1100
0000
0001
0000
0010
1000
,
0100
0000
1000
0010
0001
0100
0010
0100
,
0001
0000
0001
0000
1000
0000
0000
0000
0001
0000
0010
0000
1000
0000
1000
0001
,
1000
0000
0100
0000
0000
0000
0010
0100
0010
0100
0010
0100
0010
0100
0010
0100
,
0001
0000
2001
0000
3010
0100
0010
1000
,
0010
1000
0001
0100
0001
1000
0010
0100
,
0001
1000
1000
0000
0100
0001
0100
0001
,
0100
0000
0010
0000
0100
0000
0001
0000
0010
0000
0001
0000
1000
0000
0100
1000
,
0100
0001
1020
0000
0130
0001
1000
0001
,
1000
0001
0102
0000
1003
0010
0100
0010
,
0100
0001
0110
0000
1100
0000
1010
0000
,
0011
0000
0100
1000
0100
0001
0100
0010
,
1001
0001
0000
0000
0000
0000
0000
0000
;
