#VERSION:0.83;
#TITLE:FLOWER;
#SUBTITLE:(BEMANI SYMPHONY Arr.);
#ARTIST:DJ YOSHITAKA x onoken + gaQdan;
#TITLETRANSLIT:;
#SUBTITLETRANSLIT:;
#ARTISTTRANSLIT:;
#GENRE:;
#CREDIT:;
#MUSIC:FLOWER (BEMANI SYMPHONY Arr.).ogg;
#BANNER:FLOWER (BEMANI SYMPHONY Arr.).png;
#BACKGROUND:FLOWER (BEMANI SYMPHONY Arr.)-bg.png;
#CDTITLE:;
#SAMPLESTART:50.017;
#SAMPLELENGTH:15.000;
#SELECTABLE:YES;
#OFFSET:0.110;
#BPMS:0.000=158.000;
#STOPS:;
#BGCHANGES:;
#FGCHANGES:;

//--------------- dance-single - ----------------
#NOTEDATA:;
#STEPSTYPE:dance-single;
#DESCRIPTION:;
#DIFFICULTY:Beginner;
#METER:3;
#RADARVALUES:0,0,0,0,0;
#NOTES:
0000
0000
0000
0000
,
0000
0000
0000
0000
,
0000
0000
0000
0000
,
0000
0000
0000
0000
,
0000
0000
0000
0000
,
0000
0000
0000
0000
,
0000
0000
0000
0000
,
0000
0000
0000
0000
,
0000
0000
0000
0000
,
2000
0000
3000
0000
,
2000
0000
3000
0000
,
2000
0000
3000
0000
,
1000
0000
0001
0000
,
0200
0000
0300
0000
,
0200
0000
0300
0000
,
0200
0000
0300
0000
,
0100
0000
0010
0000
,
2000
0000
3000
0000
,
0002
0000
0003
0000
,
2000
0000
3000
0000
,
1000
0000
0001
0000
,
0020
0000
0030
0000
,
0200
0000
0300
0000
,
0020
0000
0030
0000
,
0010
0000
0100
0000
,
1000
0000
1000
0000
,
0001
0000
0001
0000
,
0100
0000
0100
0000
,
0010
0000
0010
0000
,
1000
0000
0001
0000
,
0100
0000
0010
0000
,
0200
0000
0300
0000
,
1001
0000
0000
0000
,
1000
1000
1000
0000
,
0001
0001
0001
0000
,
1000
1000
1000
0000
,
0001
0000
1000
0000
,
0010
0010
0010
0000
,
0100
0100
0100
0000
,
0010
0010
0010
0000
,
0100
0000
0010
0000
,
0001
0001
0001
0000
,
1000
0000
0001
0000
,
1000
1000
1000
0000
,
0001
0000
1000
0000
,
0100
0100
0100
0000
,
0010
0000
0100
0000
,
0010
0010
0010
0000
,
0100
0000
0010
0000
,
1001
0000
2002
0000
,
3003
0000
0000
0000
,
0110
0000
0220
0000
,
0330
0000
0000
0000
,
1001
0000
2002
0000
,
3003
0000
0000
0000
,
0110
0000
0220
0000
,
0330
0000
0000
0000
,
2002
0000
0000
0000
,
3003
0000
0000
0000
,
0001
0000
0001
0000
,
1000
0000
1000
0000
,
0001
0000
1000
0000
,
0001
0000
1000
0000
,
0100
0000
0100
0000
,
0010
0000
0010
0000
,
0100
0000
0010
0000
,
0100
0000
0010
0000
,
1000
0000
1000
0000
,
0001
0000
0001
0000
,
0100
0000
0100
0000
,
0010
0000
0010
0000
,
1000
0000
0001
0000
,
0100
0000
0010
0000
,
0200
0000
0300
0000
,
1001
0000
0000
0000
,
0001
0001
0001
0000
,
1000
1000
1000
0000
,
0001
0001
0001
0000
,
1000
0000
0001
0000
,
0100
0100
0100
0000
,
0010
0010
0010
0000
,
0100
0100
0100
0000
,
0010
0000
0100
0000
,
1001
0000
2002
0000
,
3003
0000
0000
0000
,
0110
0000
0220
0000
,
0330
0000
0000
0000
;

//--------------- dance-single - ----------------
#NOTEDATA:;
#STEPSTYPE:dance-single;
#DESCRIPTION:;
#DIFFICULTY:Easy;
#METER:6;
#RADARVALUES:0,0,0,0,0;
#NOTES:
0000
0000
0000
0000
,
0000
0000
0000
0000
,
0000
0000
0000
0000
,
0000
0000
0000
0000
,
0000
0000
0000
0000
,
0000
0000
0000
0000
,
0000
0000
0000
0000
,
0000
0000
0000
0000
0000
0001
0000
1000
,
0000
0010
0000
0100
0000
0010
0000
2000
,
0000
0000
0000
0000
,
0000
0000
0000
0000
,
0000
0000
3000
0001
,
0000
0100
0000
0010
0000
0100
0000
0020
,
0000
0000
0000
0000
,
0000
0000
0000
0000
,
0000
0000
0000
0030
,
0001
0000
1000
0000
,
0001
0000
0000
1000
0000
0000
0002
0000
,
0000
0000
0000
0000
,
0000
0000
0003
0010
,
0000
0100
0000
0010
0000
0100
0000
0002
,
0000
0000
0000
0000
,
0000
0000
0000
0000
,
0000
0000
0003
0001
,
0100
0010
0100
0001
,
1000
0100
1000
1000
,
0001
0100
0001
0001
,
0010
0001
0010
0010
,
0100
0010
0100
0100
,
1000
0100
0001
0100
,
1000
0010
0001
0010
,
1000
0001
2000
3000
,
0100
0100
0010
0010
,
0100
0001
0200
0300
,
1000
0100
2000
3000
,
0010
1000
0020
0030
,
0100
0001
0010
0001
,
0100
1000
0002
0003
,
1000
0010
0002
0003
,
0100
0001
2000
3000
,
0010
0010
0100
0100
,
0001
0010
0001
0100
,
0010
1000
0100
1000
,
0010
0100
0001
0100
,
0010
0100
1000
0100
,
0001
0010
0001
1000
,
0001
1000
0010
0100
,
1000
0100
0001
0010
,
0001
0010
1000
0100
,
0010
0010
0100
0100
,
0020
0000
0000
0030
,
1000
1000
0001
0001
,
2000
0000
0000
3000
,
0100
0100
0010
0010
,
0200
0000
0000
0300
,
0001
0001
0100
0100
,
0002
0000
0000
0003
,
1001
0000
0000
0000
,
0000
0000
0000
0000
,
0010
0000
0100
0000
,
0010
0000
0001
0000
,
1000
0000
0001
0000
,
1000
0000
0010
0100
,
0010
0000
0000
0001
0000
0000
0010
0000
,
0100
0000
0010
0000
,
1000
0000
0000
0001
,
1000
0010
0100
0001
,
0010
0001
0010
0010
,
0100
0010
0100
0100
,
1000
0100
1000
1000
,
0001
1000
0001
0001
,
0010
0001
0100
0001
,
1000
0001
0010
0001
,
0100
0010
0100
0000
,
1000
1000
0001
0001
,
0100
0010
0200
0300
,
0001
0010
0002
0003
,
1000
0100
2000
3000
,
0010
0010
0100
0100
,
0001
0100
1000
0010
,
0001
0100
0001
0010
,
1000
0100
0010
0100
,
0001
0001
1000
1000
,
0010
0010
0100
0100
,
0020
0000
0000
0030
,
1000
1000
0001
1001
;

//--------------- dance-single - ----------------
#NOTEDATA:;
#STEPSTYPE:dance-single;
#DESCRIPTION:;
#DIFFICULTY:Medium;
#METER:9;
#RADARVALUES:0,0,0,0,0;
#NOTES:
0000
0000
0000
0000
,
0000
0000
0000
0000
,
0000
0000
0000
0000
,
0000
0000
0000
0000
,
0000
0000
0000
0000
,
0000
0000
0000
0000
,
0000
0000
0000
0000
,
0000
0000
0000
0000
0000
0001
1000
0001
,
0000
0010
0000
0100
0000
0010
0000
2000
,
0000
0000
0000
0000
,
0002
0000
0003
0000
,
0020
0000
0000
0000
3030
0000
0010
0001
,
0000
0010
0000
0100
0000
0010
0000
0200
,
0000
0000
0000
0000
,
2000
0000
3000
0000
,
0020
0000
0030
0300
,
0002
0003
2000
3000
,
0010
0000
0000
0100
0000
0000
0020
0000
,
1000
0000
0000
0001
0000
0000
2000
0000
,
0000
0000
0000
0000
3030
0000
0001
0010
,
0000
0100
0000
1000
0000
0100
0000
0020
,
0100
0000
0000
0100
0000
0000
1000
0000
,
0000
1000
0000
0000
0001
0000
0001
0000
,
0200
0000
0000
0000
0330
0000
1000
0001
,
0100
0010
0100
1000
,
0001
0000
0000
1000
0000
0000
0001
0000
0000
0000
0000
0000
1000
0000
0000
0000
,
0010
0000
0000
0100
0000
0000
0010
0000
0000
0000
0000
0000
0100
0000
0000
0000
,
0001
0000
0000
0100
0000
0000
0001
0000
0000
0000
0000
0000
0100
0000
0000
0000
,
0010
0000
0000
1000
0000
0000
0010
0000
0000
0000
0000
0000
0100
0000
0000
0000
,
1000
1000
0001
0001
,
0010
0010
0100
0100
,
0010
0100
0001
0000
1000
0100
0010
0000
,
1000
0000
0000
1000
0000
0000
0001
0000
0000
0001
0000
0000
0100
0000
0010
0000
,
0100
0000
0000
0001
0000
0000
0100
0000
0020
0000
0000
0000
0030
0000
0000
0000
,
0010
0000
0000
1000
0000
0000
0010
0000
0200
0000
0000
0000
0300
0000
0000
0000
,
0001
0000
0000
1000
0000
0000
0001
0000
2000
0000
0000
0000
3000
0000
0000
0000
,
0010
0000
0000
0010
0000
0000
0010
0000
0100
0000
0000
0100
0000
0000
0000
0000
,
0001
0000
0000
0010
0000
0000
0001
0000
2000
0000
0000
0000
3000
0000
0000
0000
,
0100
0000
0000
0010
0000
0000
0100
0000
0002
0000
0000
0000
0003
0000
0000
0000
,
0010
0000
0000
1000
0000
0000
0010
0000
0200
0000
0000
0000
0300
0000
0000
0000
,
0001
0000
0000
0001
0000
0000
0001
0000
1000
0000
0000
0000
0100
0000
0000
0000
,
0020
0000
0000
0000
0000
0000
0030
0100
,
0010
0000
1000
0100
0000
1000
0000
0002
,
0000
0000
0000
0000
0003
0000
0100
0010
,
2000
0000
0000
3001
0000
0100
0010
0000
,
0200
0000
0000
0001
0000
0000
0301
0000
,
0020
0000
0200
0030
,
2000
0000
0300
0000
3000
0000
0001
1000
,
0001
0000
0000
1000
0000
0000
0001
0000
0100
0000
0000
0000
0100
0000
0000
0000
,
0001
0000
0000
0001
0000
0000
1000
0000
0000
1000
0000
0000
0001
0000
2000
0000
,
0000
0000
0000
3000
,
0010
0000
0000
0010
0000
0000
0100
0000
0000
0100
0000
0000
0010
0000
0200
0000
,
0000
0000
0000
0300
,
1000
0000
0000
1000
0000
0000
0001
0000
0000
0001
0000
0000
1000
0000
0002
0000
,
0000
0000
0000
0003
,
0100
0000
0000
0100
0000
0000
0001
0000
0000
0001
0000
0000
0100
0000
0200
0000
,
0000
0000
0000
0300
,
0220
0000
0000
0000
,
0330
0000
0000
0000
,
0020
0030
0200
0300
,
0002
0003
2000
3000
,
0020
0030
0200
0300
,
0020
0000
0030
0000
0001
0010
0001
0010
,
0001
0000
0000
0100
0000
0000
0010
0000
,
0200
0300
2000
3000
,
0002
0000
0000
0000
0003
0000
0010
1000
,
0010
0010
0100
0100
,
0001
0000
0000
0010
0000
0000
0001
0000
0000
0000
0000
0000
0100
0000
0010
0000
,
0100
0000
0000
1000
0000
0000
0100
0000
0000
0000
0000
0000
0001
0000
0100
0000
,
0001
0000
0000
1000
0000
0000
0001
0000
0000
0000
0000
0000
0010
0000
1000
0000
,
0010
0000
0000
0100
0000
0000
0010
0000
0000
0000
0000
0000
0100
0000
1000
0000
,
0100
0100
0001
0001
,
0010
0010
1000
1000
,
0001
0100
0010
0000
0100
1000
0010
0000
,
0001
0000
0000
0001
0000
0000
0100
0000
0000
0100
0000
0000
0010
0000
0100
0000
,
0010
0000
0000
0001
0000
0000
0100
0000
0002
0000
0000
0000
0003
0000
0000
0000
,
1000
0000
0000
0010
0000
0000
1000
0000
0002
0000
0000
0000
0003
0000
0000
0000
,
0010
0000
0000
0100
0000
0000
0010
0000
0002
0000
0000
0000
0003
0000
0000
0000
,
0100
0000
0000
0100
0000
0000
0100
0000
0010
0000
0000
0010
0000
0000
0000
0000
,
0100
0000
0000
1000
0000
0000
0100
0000
0010
0000
1000
0000
0100
0000
0000
0000
,
0001
0000
0000
0010
0000
0000
0001
0000
0010
0000
0100
0000
1000
0000
0000
0000
,
0100
0000
0000
0001
0000
0000
0100
0000
0001
0000
0010
0000
0100
0000
0000
0000
,
1000
0000
0000
1000
0000
0000
1000
0000
0001
0000
0000
1000
0000
0000
0000
0000
,
0010
0000
0000
0010
0000
0000
1000
0000
0000
1000
0000
0000
0001
0000
2000
0000
,
0000
0000
0000
3000
,
0100
0000
0000
0100
0000
0000
0001
0000
0000
0001
0000
0000
1000
0000
1000
0000
;

//--------------- dance-single - ----------------
#NOTEDATA:;
#STEPSTYPE:dance-single;
#DESCRIPTION:;
#DIFFICULTY:Hard;
#METER:14;
#RADARVALUES:0,0,0,0,0;
#NOTES:
0000
0000
0000
0000
,
0000
0000
0000
0000
,
0000
0000
0000
0000
,
0000
0000
0000
0000
,
0000
0000
0000
0000
,
0000
0000
0000
0000
,
0000
0000
0000
0000
,
0000
0000
0000
0000
0000
1000
0010
0002
,
0000
0000
0203
0000
0000
0000
0320
0000
0000
0000
0000
0000
1030
0100
1000
0100
,
1000
0000
0000
0000
0000
0000
0001
0000
0000
0000
0000
0000
0010
0100
0010
0100
,
0010
0000
0000
0000
0000
0000
1000
0000
0000
0000
0000
0000
0001
1000
0001
1000
,
0001
0000
0000
0100
0000
0000
0010
0002
,
0000
0023
0000
0230
0000
0320
0000
0032
,
1000
0000
0000
0100
0000
0000
1000
0000
,
0003
0010
0100
0010
0000
1000
0001
0000
,
0100
0000
0000
0100
0000
0001
0010
0100
,
0000
1000
0010
0100
0000
0001
0000
0000
,
2000
0000
0000
3020
0000
0000
0230
0000
,
0001
0000
0000
1000
0000
0000
0010
0000
,
1000
0000
0000
0001
0000
0000
0310
0002
,
0000
2003
0000
3200
0000
0320
0000
2030
,
0010
0000
0000
0100
0000
0000
0001
0000
,
0000
0100
0000
0000
0001
0000
3001
0000
,
0010
0000
0000
0000
0100
0000
1000
0001
,
0100
1000
0010
0100
0001
1000
0010
0100
,
1000
0000
0000
0100
0000
0000
0001
0000
0000
0000
0100
0000
0010
0000
0100
0000
,
0010
0000
0000
0100
0000
0000
1000
0000
0000
0000
0100
0000
0001
0000
0100
0000
,
0010
0000
0000
0001
0000
0000
0100
0000
0000
0000
0010
0000
0001
0000
0010
0000
,
0100
0000
0000
1000
0000
0000
0010
0000
0000
0000
1000
0000
0001
0000
1000
0000
,
0010
0000
0000
0001
0000
0000
0100
0000
0010
0000
0000
0100
0000
0000
1000
0000
,
0100
0000
0000
0010
0000
0000
0001
0000
0010
0000
0000
1000
0000
0000
0100
0000
,
0010
0001
0100
1000
0001
0100
0010
0000
,
1001
0000
0000
1001
0000
0000
0101
0000
0000
0101
0000
0000
0110
0000
0010
0000
,
0110
0000
0001
1000
0000
0001
1000
0000
0100
0020
0000
0000
0030
0000
0000
0000
,
1000
0000
0001
0100
0000
0001
0100
0000
0010
0200
0000
0000
0300
0000
0000
0000
,
0001
0000
1000
0010
0000
1000
0010
0000
1000
0002
0000
0000
0003
0000
0000
0000
,
0010
0000
0000
0010
0000
0000
0010
0000
0100
0001
0100
0010
0000
0000
0000
0000
,
0001
0000
1000
0010
0000
0010
1000
0000
0100
0002
0000
0000
0003
0000
0000
0000
,
0100
0000
1000
0001
0000
0001
0100
0000
0010
2000
0000
0000
3000
0000
0000
0000
,
0001
0000
1000
0100
0000
0100
1000
0000
0100
0020
0000
0000
0030
0000
0000
0000
,
0001
0000
0000
0001
0000
0000
0001
0000
1000
0000
0000
0000
0010
0100
1000
0100
,
0020
0000
0000
0000
0000
0000
0000
0000
0030
0000
0000
0000
0000
0000
1000
0001
,
0200
0000
0301
0200
0000
0320
0000
0230
,
0000
0000
0000
0000
0300
0000
1000
0010
,
0002
0000
0000
2003
0000
3010
0001
0010
,
0200
0000
0000
0302
0000
0000
2003
0000
,
3020
0000
0230
0000
,
0002
0000
0000
0000
0000
0000
0000
0000
0303
0000
0000
0000
0010
1000
0001
0100
,
1000
0000
0000
1000
0000
0000
1000
0000
0001
0000
0010
0000
0001
0100
0001
0100
,
0010
0000
0000
0010
0000
0000
0100
0000
0000
0100
0000
0000
1000
0000
0100
0000
,
0001
0000
0100
0000
0000
0001
0000
0000
0100
0000
0000
0010
0000
0000
0100
0000
,
0001
0000
0000
0001
0000
0000
1000
0000
0000
1000
0000
0000
0010
0000
0100
0000
,
0001
0000
0100
0000
0000
0010
0000
0000
0100
0000
0000
0010
1000
0001
0100
0010
,
1000
0000
0000
1000
0000
0000
0001
0000
0000
0001
0000
0000
1000
0000
0010
0000
,
0100
0000
0010
0000
0000
1000
0000
0000
0010
0000
0000
0100
0000
0000
0001
0000
,
0010
0000
0000
0010
0000
0000
0001
0000
0000
0001
0000
0000
0101
0000
0101
0000
,
1000
0000
0001
0000
0000
1000
0000
0000
0010
0000
0000
0100
0000
0000
0010
0000
,
2002
0000
0000
0003
,
3010
0000
0010
0000
0100
0001
0100
1000
,
0002
0000
0020
0003
,
0200
0030
2000
0300
,
0020
3000
0200
0030
,
0002
0000
0300
0000
1003
0001
0010
0100
,
0020
0000
0000
2030
0000
0000
3002
0000
,
0203
0000
0320
0000
,
0032
0000
0000
0000
0000
0000
0000
0000
0003
0000
0000
0000
0010
1000
0001
0100
,
0010
1010
0101
1001
,
0100
0000
0000
0001
0000
0000
0100
0000
0000
0000
0010
0000
0100
0000
0010
0000
,
0100
0000
0000
1000
0000
0000
0100
0000
0000
0000
0001
0000
0010
0000
0001
0000
,
1000
0000
0000
0001
0000
0000
1000
0000
0000
0000
0010
0000
1000
0000
0010
0000
,
0100
0000
0000
0010
0000
0000
0100
0000
0000
0000
1000
0000
0001
0000
1000
0000
,
0010
0000
0000
0100
0000
0000
1000
0000
0100
0000
0000
0001
0000
0000
1000
0000
,
0100
0000
0000
0010
0000
0000
0001
0000
1000
0000
0000
0010
0000
0000
0001
0000
,
0100
0001
1000
0100
0001
0100
1000
0000
,
0011
0000
0000
0011
0000
0000
0110
0000
0000
0110
0000
0000
1010
0000
1000
0000
,
1010
0000
0100
0010
0000
0100
0010
0000
0100
0002
0000
0000
0003
0000
0000
0000
,
0010
0000
1000
0010
0000
1000
0010
0000
1000
0002
0000
0000
0003
0000
0000
0000
,
1000
0000
0001
1000
0000
0001
1000
0000
0010
0200
0000
0000
0300
0000
0000
0000
,
0010
0000
0000
0010
0000
0000
0010
0000
0100
1000
0001
0100
0000
0000
0000
0000
,
0010
0000
0010
0001
0000
0001
0010
0000
0100
1000
0000
0000
0001
0000
0010
0000
,
1000
0000
1000
0001
0000
0001
1000
0000
0010
0001
0000
0000
1000
0000
0000
0000
,
0100
0000
0100
0010
0000
0010
1000
0000
0001
0010
0000
0000
0001
0000
0000
0000
,
1000
0000
0000
1000
0000
0000
1000
0000
0001
0000
0000
1000
0000
0000
0000
0000
,
0100
0000
0000
0100
0000
0000
0001
0000
0000
0001
0000
0000
0010
0000
0100
0000
,
1000
0001
1000
0010
,
0001
0000
0000
0001
0000
0000
0100
0000
0000
0100
0000
0000
0110
0000
0110
0000
;
