#TITLE:Entrapment;
#SUBTITLE:;
#ARTIST:Expander;
#TITLETRANSLIT:;
#SUBTITLETRANSLIT:;
#ARTISTTRANSLIT:;
#GENRE:;
#CREDIT:;
#BANNER:Entrapment.png;
#BACKGROUND:Entrapment-bg.png;
#LYRICSPATH:;
#CDTITLE:;
#MUSIC:Entrapment.ogg;
#OFFSET:-0.079262;
#SAMPLESTART:38.479267;
#SAMPLELENGTH:12.799999;
#SELECTABLE:YES;
#BPMS:0.000000=150.000000
,16.000000=75.000000
,40.000000=150.000000
,41.000000=75.000000
,43.500000=150.000000
,44.000000=75.000000
,48.000000=150.000000
,60.000000=75.000000
,61.500000=150.000000
,90.000000=75.000000
,92.000000=150.000000
,104.000000=75.000000
,106.000000=150.000000
,122.000000=75.000000
,138.000000=150.000000
,140.000000=300.000000
,186.000000=150.000000
,187.000000=300.000000
,199.000000=75.000000
,200.000000=300.000000
,253.000000=75.000000
,255.000000=150.000000
;
#STOPS:40.000000=0.200000,
40.500000=0.200000,
43.500000=0.200000,
61.500000=0.200000,
138.000000=0.200000,
138.500000=0.200000,
139.000000=0.200000,
139.500000=0.200000,
207.500000=0.200000,
213.000000=0.200000,
244.000000=0.200000
;
#BGCHANGES:;
#KEYSOUNDS:;
#ATTACKS:;

//---------------dance-single - ----------------
#NOTES:
     dance-single:
     :
     Hard:
     17:
     0.806218,1.000000,0.331472,0.424964,0.696941,575.000000,39.000000,50.000000,0.000000,0.000000,0.000000,0.806218,1.000000,0.331472,0.424964,0.696941,575.000000,39.000000,50.000000,0.000000,0.000000,0.000000:
0000
0000
0000
0000
,
0000
0000
0000
0000
,
0000
0000
0000
0000
,
0000
0000
0000
0000
,
0200
0000
0000
0000
1300
0000
0000
0000
1001
0000
0000
0000
0010
0001
0010
0001
0010
0000
0010
0100
0000
0100
0001
0000
1000
0000
0000
0010
0000
0000
1000
0000
,
0100
0000
0100
0010
1000
0000
1000
0000
0001
0010
0001
0000
0110
0000
0000
0000
1000
0000
0100
0000
1000
0000
0010
0000
0100
1000
0100
0000
0002
0000
0000
0000
,
1003
0000
1000
0000
0010
0100
0010
0100
0010
0000
0010
0000
0001
0000
0001
0000
0100
0000
0100
0000
0010
1000
0010
0000
0100
0000
0000
0000
1100
0000
0000
0000
,
0001
0000
0001
0100
0001
0000
0000
0000
1001
0000
0100
0000
0010
1000
0100
0000
0020
0000
0000
0000
2030
0000
0000
0000
3200
0000
0000
0000
0302
0000
0000
0000
,
0013
0000
0100
1000
0100
0000
0010
0000
0100
0000
1000
0001
1000
0001
0100
0000
0010
0000
0100
0001
1000
0000
0010
0000
1000
0000
0010
0000
0100
0000
0010
0000
,
0100
0000
0001
0000
1000
0010
1000
0000
0010
0000
1000
0000
1010
0000
0000
0000
0001
0100
0010
0100
0001
0000
1000
0000
0001
0000
0100
0000
0010
0000
0001
0000
,
2200
3300
0000
0000
0000
0000
0000
0000
0202
0303
0000
0000
0000
0000
0000
0000
0210
0000
0000
0000
0000
0000
0000
0000
0310
0000
0001
0000
0010
0000
0000
0000
1000
0000
0100
0000
0010
0000
0001
0000
1000
0000
0000
0000
0010
0000
0000
0000
0100
0000
0010
0000
0100
0000
1000
0000
0001
0000
0000
0000
0000
0000
0000
0000
,
0010
1000
0010
1000
0100
0000
0010
0000
1000
0000
1000
0000
0001
0100
0010
0000
0002
0000
0000
0000
0023
0000
0000
0000
0032
0000
0000
0000
0203
0000
0000
0000
,
1300
0000
0000
0001
1000
0000
0001
0000
0100
0000
0010
1000
0000
0010
1000
0000
,
0100
0000
0000
1000
0100
0000
1000
0000
0001
0000
0100
0001
0000
0100
0001
0000
,
1000
0100
0001
0100
0010
1000
0001
0010
,
0100
0010
0100
0000
0001
0000
0010
0100
1000
0000
1000
0000
1001
0000
0000
0000
0100
0000
0000
0000
0000
0000
0010
0000
0000
0000
0000
0000
0100
0000
0000
0000
,
0010
0000
1000
0000
0010
0000
0001
0000
1000
0000
0000
1000
0000
0000
1000
0000
,
0100
0000
0001
0000
0010
0000
1000
0000
0010
0000
0000
0001
0000
0000
0100
0000
,
0001
0000
0001
0000
0100
0000
0001
0000
1000
0000
0000
0100
0000
0000
0001
0000
,
0010
0000
1000
0000
0010
0000
1100
0000
0000
0001
0010
0001
0010
0000
0000
0000
0000
0000
1000
0000
0000
0100
0000
0000
,
0010
1000
0100
1000
0100
0001
0010
0001
1000
0000
0000
1000
0001
0000
0010
0000
,
0200
0000
0320
0000
0032
0000
0203
0000
1300
0000
0000
1000
0100
0000
0010
0000
,
0001
0000
0000
0000
0000
0000
0000
0000
0000
0000
0000
0000
1000
0000
0000
0000
0000
0000
0000
0000
0000
0000
0000
0000
0001
0000
0000
0000
0000
0000
0000
0000
0000
0000
0000
0000
1000
0000
0000
0000
0000
0000
0000
0000
0000
0000
0000
0000
0010
0000
0000
0000
0000
0000
0000
0000
0000
0000
0000
0000
1000
0000
0000
0000
0000
0000
0000
0000
0000
0000
0000
0000
0100
0000
0000
0000
0000
0000
0000
0000
0000
0000
0000
0000
0000
0000
0000
0000
0000
0000
0000
0000
0000
0000
0000
0000
0010
0000
0000
0000
0000
0000
1000
0000
0000
0000
0000
0000
0010
0000
0000
0000
0000
0000
1000
0000
0000
0000
0000
0000
0100
0000
0000
0000
0000
0000
1000
0000
0000
0000
0000
0000
0100
0000
0000
0000
0000
0000
1000
0000
0000
0000
0000
0000
0001
0000
0000
0000
0000
0000
0000
0000
1000
0000
0000
0000
0000
0000
0000
0000
0001
0000
0000
0000
0000
0000
0000
0000
1001
0000
0000
0000
0000
0000
0000
0000
0000
0000
0000
0000
0000
0000
0000
0000
0000
0000
0000
0000
0000
0000
0000
0000
,
0010
0000
1000
0000
0010
0000
0100
0000
0010
0000
0001
0000
0100
0001
0100
0000
,
2200
3300
2200
3300
2020
3030
0220
0330
,
1000
0000
0100
0000
1000
0000
0100
0000
0001
0000
0100
1000
0001
0000
1000
0000
,
0010
0000
0000
0000
0000
0000
0000
0000
0000
0000
0000
0000
0000
0000
0000
0000
0000
0000
0010
0000
0000
0000
0000
0000
0100
0000
0000
0000
0000
0000
0000
0000
1000
0000
0000
0000
0000
0000
0000
0000
0100
0000
0000
0000
0000
0000
0000
0000
1000
0000
0000
0000
0000
0000
0000
0000
0100
0000
0000
0000
0000
0000
0000
0000
0010
0000
0000
0000
0000
0000
0000
0000
0001
0000
0000
0000
0000
0000
0000
0000
0000
0000
0000
0000
0000
0000
0000
0000
0001
0000
0000
0000
0010
0000
0000
0000
0100
0000
0000
0000
0000
0000
0000
0000
0000
0000
0000
0000
0000
0000
0000
0000
0000
0000
0000
0000
0000
0000
0000
0000
0000
0000
0000
0000
0000
0000
0000
0000
0000
0000
0000
0000
1000
0000
0000
0000
0000
0000
0000
0000
0000
0000
0000
0000
0100
0000
0000
0000
0000
0000
0000
0000
0000
0000
0000
0000
0000
0000
0000
0000
0000
0000
0000
0000
0000
0000
0000
0000
0010
0000
0000
0000
0000
0000
0000
0000
0000
0000
0000
0000
0000
0000
0000
0000
0000
0000
0000
0000
0000
0000
0000
0000
,
0001
1000
0001
0000
0001
0000
0100
0000
1000
0000
0000
1000
0010
0000
0100
0001
,
0100
0010
0110
1000
1000
0100
0010
0001
,
1000
0001
0100
0010
0001
0000
0001
0000
1000
0010
1000
0010
0100
0010
1000
0000
,
0100
0000
0000
0000
0001
0000
0000
0000
0100
0000
0000
0000
1100
0000
0000
0000
0000
0000
0000
0000
0000
0000
0000
0000
0100
0000
0000
0010
0000
0000
0100
0000
0000
0000
0000
0000
1000
0000
0000
1000
0000
0000
0100
0000
0000
0001
0000
0000
,
0000
0001
0100
1000
0001
0000
1010
0000
0100
1000
0100
0010
0000
0010
0001
0100
,
0000
0100
0001
1000
0010
0001
0101
0000
0010
0010
0100
0000
1000
0100
1000
1000
,
0000
0010
0001
0100
0010
0000
0011
0000
1000
0100
1000
0010
0100
1000
0100
0001
,
0000
0000
0000
0000
0001
0000
0000
0000
1000
0000
0000
0000
0100
0000
0000
0000
0010
0000
0000
0000
0010
0000
0000
0000
0110
0000
0000
0000
0000
0000
0000
0000
2000
3000
0000
0000
0000
0000
0000
0000
0200
0300
0000
0000
0000
0000
0000
0000
0020
0030
0000
0000
0000
0000
0000
0000
2002
3003
0000
0000
0000
0000
0000
0000
,
1000
0000
0000
0010
1000
0000
0001
0000
,
0010
1000
0010
1000
0010
0001
0100
0000
,
1000
0000
0000
0001
0100
0000
1000
0000
,
0001
1000
0001
1000
0010
0000
0000
0000
,
1000
1100
0100
0101
,
0010
1010
0001
0011
,
0001
0010
0001
0000
0001
0100
1000
0010
,
0100
0000
0010
0000
0100
0000
1001
0000
0000
0000
0000
0000
,
1000
0010
0001
0010
1000
0100
1000
0000
,
0001
1000
0001
1000
0000
0100
0010
0000
,
1000
0000
0100
1000
0100
0000
0001
0010
,
0100
0000
1000
0000
0010
0000
0100
0000
0001
0010
0001
0000
1000
0000
0000
0000
,
1000
0001
1000
0000
1100
0000
0100
0000
,
0100
0001
0100
0000
0110
0000
0001
0010
,
0001
0000
0100
0000
1000
0000
0010
0000
1000
0000
0000
0000
0020
0100
0100
0130
,
0001
0000
0010
1000
0010
0001
0010
0000
,
1000
0001
1000
0100
0010
0000
0010
1010
,
0100
0001
0100
1000
0001
0000
0010
1000
,
0010
1000
0101
0000
1000
0010
1000
0100
,
0001
0000
0010
1000
0001
0010
0100
0001
,
0000
0001
0100
0000
1000
0010
0100
0010
,
1000
0000
0000
0010
0000
0000
0001
0000
0000
1000
0000
0000
0010
0000
0000
0000
1000
0000
0000
0000
0100
0000
0000
0000
,
0022
0000
0000
0033
1000
0010
1000
0100
,
1000
0100
0001
0000
0100
0001
0100
0001
,
0010
1000
0100
0000
0001
1000
0001
1000
,
0010
0100
1000
0010
0001
0100
1000
0000
,
0101
0000
1000
0010
2000
0000
3001
0010
,
0002
0000
0103
1000
0200
0000
0310
0001
,
0020
0000
0000
0000
0000
0000
0000
0000
0000
0000
0000
0000
2030
0000
0000
0000
0000
0000
3001
0000
0000
0010
0100
0010
0001
0000
1000
0000
0001
0000
0110
0000
0000
0000
0000
0000
0001
0000
0000
0000
0000
0000
0000
0000
0000
0000
0000
0000
,
0001
0000
0010
0000
1000
0000
0000
0100
0000
0000
0010
0000
0100
0000
0001
0000
,
0100
0010
1000
0100
0100
0000
0010
1000
,
0010
0000
0100
0000
0001
0000
0010
0001
0010
0000
0100
0000
2200
0000
3300
0000
,
0220
0330
2020
3030
0022
0033
2002
0000
,
0000
0000
0000
0000
0000
3003
0000
0000
;

//---------------dance-single - ----------------
#NOTES:
     dance-single:
     :
     Medium:
     12:
     0.536669,0.787405,0.195483,0.169986,0.276227,399.000000,23.000000,20.000000,0.000000,0.000000,0.000000,0.536669,0.787405,0.195483,0.169986,0.276227,399.000000,23.000000,20.000000,0.000000,0.000000,0.000000:
0000
0000
0000
0000
,
0000
0000
0000
0000
,
0000
0000
0000
0000
,
0000
0000
0000
0000
,
1000
0000
0010
0000
1001
0000
0100
0001
0100
0001
0100
0000
0001
0000
0001
0000
,
1000
0010
0001
0000
0001
0100
1000
0000
0100
0001
0100
0010
0100
0000
1100
0000
,
0001
0010
0001
0100
1000
0000
0001
1000
0001
0000
0001
0100
0010
0001
0100
0000
,
0010
0100
0010
0100
1000
0000
0001
0100
0001
0000
0100
0000
0010
0000
1001
0000
,
0010
0000
0010
0001
1000
0000
1000
0010
0001
0010
0100
1000
0001
0000
1000
0000
,
1000
0100
0010
0100
1000
0000
0001
0100
0010
1000
0001
0000
0100
0000
0101
0000
,
0020
0000
2030
0000
3010
0100
1000
0000
0100
0010
0100
0010
1000
0000
1001
0000
,
0001
0100
1000
0010
0100
0001
0100
1000
0100
0000
0001
0000
0100
0000
1010
0000
,
0010
0000
0000
0000
0001
0000
0000
0000
0010
0000
0000
0001
0000
0000
0100
0000
,
0100
0000
0000
0000
0010
0000
0000
0000
0100
0000
0000
0010
0000
0000
1000
0000
,
1000
0100
0010
0000
0001
0100
1000
0000
,
1000
0001
1000
0001
0010
0001
0200
0000
1300
0000
0000
0000
1010
0000
0000
0000
,
0010
1000
0001
1000
0010
0000
0110
0000
,
0001
0100
1000
0001
1000
0000
1100
0000
,
0100
1000
0001
0100
0001
0000
0011
0000
,
0001
1000
0001
2000
0000
0000
3010
0000
0000
0100
0000
0000
,
0001
1000
0001
0000
0001
0000
0010
0000
,
1000
0100
1000
0000
0010
0100
0001
0000
,
0100
0000
0000
0000
0000
0000
0001
0000
0000
0000
0000
0000
1000
0000
0000
0000
0000
0000
0000
0000
0000
0000
0000
0000
1000
0000
0000
0100
0000
0000
1000
0000
0000
0010
0000
0000
0001
0000
0100
0000
0010
0000
0001
0000
0000
0000
0000
0000
,
0210
0000
1300
0000
0100
0010
0001
0000
,
1000
0010
1000
0001
,
1002
0000
0103
0000
0010
1000
0100
0000
,
0001
0000
0010
0010
0100
0001
0010
0000
1020
0000
0000
0000
0031
0000
1000
0000
,
0100
0010
0100
0000
1000
0010
0001
0010
,
1000
0100
0001
0000
2010
0000
3001
0100
,
1000
0001
0010
0100
0010
0000
0010
0000
,
0100
0000
0000
0000
0001
0000
0000
0000
0100
0000
0000
0000
0010
0000
0000
0000
0000
0000
0000
0000
0000
0000
0000
0000
1000
0000
0000
0000
0000
0000
1000
0000
0000
0000
0000
0000
0010
0000
0000
0100
0000
0000
0010
0000
0000
0000
0000
0000
,
0001
0010
0100
0010
0001
0000
1000
0000
0001
1000
0010
0000
0100
0001
0010
0000
,
0010
0100
1000
0100
0001
0010
0001
0000
0100
0000
0010
0000
0100
0010
1000
0000
,
0010
0100
0001
1000
0001
0000
0010
0000
0010
0100
1000
0000
0010
0001
0100
0001
,
0010
0000
0001
0010
0100
0010
1000
0000
0010
0000
1000
0000
0001
0000
0110
0000
,
0200
0000
0310
0100
,
0001
1000
0001
0001
,
0020
0000
0130
1000
,
0010
0001
0020
0030
,
2000
0000
3010
0100
,
0001
1000
0010
1000
,
0010
0001
1000
0010
,
1000
0001
2002
3003
,
0100
0001
0010
0100
,
0001
0100
1000
0010
,
0001
1000
0100
1000
,
0010
1000
0002
0013
,
0100
0010
1000
0010
,
0100
1000
0001
0010
,
0010
0000
0000
0000
0001
0000
0000
0000
0010
0000
0000
0000
0100
0100
0100
0000
,
0001
0000
0000
0001
0100
0000
0010
0000
,
0001
0000
1000
0000
0100
0000
0000
0011
,
0000
0100
1000
0000
0010
0000
0001
0000
,
1000
1001
0010
0010
,
0001
0001
0010
0100
,
1000
0000
0100
0000
0010
0000
0000
0001
,
0010
0000
0000
0100
0000
0000
0001
0000
0010
0000
0001
0000
,
0010
0000
0000
0000
1001
0000
0000
0010
,
0100
0000
0010
0000
0011
0000
0000
0001
,
1000
0000
0001
0000
1100
0000
0000
0010
,
1000
0010
0010
0001
,
1001
0001
0100
0001
,
0010
1000
0100
1000
,
0010
0000
0000
0000
0000
0000
0010
0000
0000
0010
0000
0000
1000
0001
1000
1001
0000
0000
0001
0000
0000
0000
0000
0000
,
1000
0000
0001
0010
1000
0000
0100
0000
,
0010
0000
0100
1000
0001
0000
1000
0001
,
0100
0000
0001
0100
0010
0000
2000
0000
,
3002
2003
3200
0020
,
0000
0000
0000
0000
0000
0330
0000
0000
;

//---------------dance-single - ----------------
#NOTES:
     dance-single:
     :
     Easy:
     7:
     0.343614,0.575826,0.076494,0.382468,0.000000,229.000000,9.000000,45.000000,0.000000,0.000000,0.000000,0.343614,0.575826,0.076494,0.382468,0.000000,229.000000,9.000000,45.000000,0.000000,0.000000,0.000000:
// measure 0
0000
0000
0000
0000
,  // measure 1
0000
0000
0000
0000
,  // measure 2
0000
0000
0000
0000
,  // measure 3
0000
0000
0000
0000
,  // measure 4
1000
1000
0100
0010
0100
0001
0020
0030
,  // measure 5
0001
0010
0001
0100
1000
0100
2000
3000
,  // measure 6
0001
0010
0100
0010
1000
0100
0020
0030
,  // measure 7
0001
0001
1000
1000
0010
0100
2000
3000
,  // measure 8
0110
0000
0100
0010
0001
0001
0010
0000
,  // measure 9
1001
0000
0010
0001
0100
0010
0100
0000
,  // measure 10
2002
3003
0220
0330
0100
0001
0020
0030
,  // measure 11
0001
0100
1000
0100
0010
0100
0002
0003
,  // measure 12
1000
1000
0010
0000
,  // measure 13
0001
0001
0100
0000
,  // measure 14
1000
0100
0001
0010
,  // measure 15
0200
0300
0020
0030
1000
0000
0100
0000
,  // measure 16
0001
1000
0010
0001
,  // measure 17
0020
0030
0001
0100
,  // measure 18
0010
1000
0100
0010
,  // measure 19
0200
0300
0001
0010
,  // measure 20
0100
0010
1000
1000
,  // measure 21
0200
0300
0010
0100
,  // measure 22
0001
0000
0010
0000
1000
0100
2000
3000
,  // measure 23
0020
0030
0001
0001
,  // measure 24
0020
0030
0100
0100
,  // measure 25
2000
3000
0001
0001
,  // measure 26
2000
3000
0010
0010
0002
0000
0010
0000
,  // measure 27
0103
0010
2000
0001
,  // measure 28
3010
0001
0020
0100
,  // measure 29
1030
0001
0200
0010
,  // measure 30
0002
0000
0303
0000
2000
0000
3100
0100
,  // measure 31
0020
0030
0020
0030
0002
0003
1000
1000
,  // measure 32
0200
0300
0200
0300
1000
0100
2000
3000
,  // measure 33
0001
0100
0002
0003
0010
0100
1000
0100
,  // measure 34
0010
0001
0200
0300
0000
0000
0000
0000
,  // measure 35
1001
0000
0100
0000
,  // measure 36
0010
0000
0010
0000
,  // measure 37
1000
0000
0100
0000
,  // measure 38
0001
1000
0002
0000
,  // measure 39
0013
0000
0001
0000
,  // measure 40
0100
0000
0010
0000
,  // measure 41
1000
0000
0100
0000
,  // measure 42
1000
0010
2000
0000
,  // measure 43
3010
0000
0010
0000
,  // measure 44
0100
0010
0100
0000
,  // measure 45
0001
0000
0001
0000
,  // measure 46
0010
0001
0010
2000
,  // measure 47
0000
3001
0000
0020
,  // measure 48
0000
0031
0000
0020
,  // measure 49
0000
0000
0100
0000
0000
0000
0100
0030
,  // measure 50
0110
0000
0010
0000
,  // measure 51
0100
1000
0010
0000
,  // measure 52
0000
1000
0100
0010
,  // measure 53
0000
0000
0100
1000
,  // measure 54
0001
0000
0010
0001
,  // measure 55
1000
0000
0100
0010
,  // measure 56
1000
0100
0010
0000
,  // measure 57
0100
0000
1001
0000
,  // measure 58
0001
0000
0110
0000
,  // measure 59
0010
0000
1000
0000
,  // measure 60
0100
0000
1000
0010
,  // measure 61
1000
0100
0001
0010
,  // measure 62
0100
1000
0010
0100
,  // measure 63
1000
0000
0001
0010
0001
0001
0200
0000
,  // measure 64
0300
0010
0100
2000
,  // measure 65
3000
0001
0100
0002
,  // measure 66
0003
0020
0030
2000
,  // measure 67
0000
0002
3003
1001
;
