#TITLE:Egocentricity;
#SUBTITLE:;
#ARTIST:Thomas Howard Lichtenstein;
#TITLETRANSLIT:;
#SUBTITLETRANSLIT:;
#ARTISTTRANSLIT:;
#GENRE:;
#CREDIT:;
#BANNER:Egocentricity.png;
#BACKGROUND:Egocentricity-bg.png;
#LYRICSPATH:;
#CDTITLE:;
#MUSIC:Egocentricity.ogg;
#OFFSET:0.809720;
#SAMPLESTART:49.686249;
#SAMPLELENGTH:14.769234;
#SELECTABLE:YES;
#BPMS:0.000000=130.000000
;
#STOPS:
;
#BGCHANGES:4.000=Egocentricity.avi=1.000=0=0=0=StretchNoLoop====,
202.000=Egocentricity-bg.png=1.000=0=0=1=====,
99999=-nosongbg-=1.000=0=0=0 // don't automatically add -songbackground-
;
#KEYSOUNDS:;
#ATTACKS:;

//---------------dance-single - ----------------
#NOTES:
     dance-single:
     :
     Hard:
     10:
     0.377363,0.422231,0.124797,0.239195,0.020800,254.000000,242.000000,12.000000,23.000000,0.000000,0.000000,0.377363,0.422231,0.124797,0.239195,0.020800,254.000000,242.000000,12.000000,23.000000,0.000000,0.000000:
// measure 0
0000
0000
0000
0000
,  // measure 1
0000
0000
0000
0000
,  // measure 2
0000
0000
0000
0000
,  // measure 3
0000
0000
0000
0000
,  // measure 4
0000
0000
0000
0000
,  // measure 5
0000
0010
1000
0000
1000
0100
0000
0100
,  // measure 6
0000
1000
0001
0000
0001
0010
0000
0010
,  // measure 7
0000
0100
0001
0000
0100
1000
0000
0010
,  // measure 8
0000
0010
1000
0000
0010
0001
0000
0100
,  // measure 9
1000
0000
0000
0000
1000
0000
0000
0000
1000
0000
0010
0000
0000
0001
0000
0001
,  // measure 10
0100
0000
0100
0000
0010
1000
0010
0001
,  // measure 11
0100
0000
1000
0000
0010
1000
0001
0000
,  // measure 12
0100
1000
0100
0010
0001
0000
1000
0000
,  // measure 13
0001
0001
0010
0000
0100
0100
0001
0000
,  // measure 14
0100
0010
0001
1000
0010
0000
1001
0000
,  // measure 15
0100
1000
0100
0000
0010
1000
0010
0000
,  // measure 16
0100
1000
0010
0001
0100
0000
0010
0001
,  // measure 17
0010
0000
0010
1000
0100
0000
0010
1000
,  // measure 18
0100
1000
0100
0001
0010
0000
0110
0000
,  // measure 19
2002
3000
0100
0013
,  // measure 20
0100
0010
0001
1000
,  // measure 21
0001
0000
0000
0001
0000
0000
1000
0000
1000
0000
0000
0000
0101
0000
0000
0000
,  // measure 22
0010
0000
0000
0010
0000
0000
0100
0000
0100
0000
0000
0000
1100
0000
0000
0000
,  // measure 23
0220
0300
1000
0031
,  // measure 24
0010
1000
0100
0001
,  // measure 25
0202
0000
0000
0300
0000
1000
1000
0003
,  // measure 26
0010
0010
0010
0010
0100
0000
1001
0000
,  // measure 27
2000
0000
0100
3100
,  // measure 28
0010
0100
0001
0000
0010
0001
0100
0000
,  // measure 29
0002
1003
0002
0103
,  // measure 30
0010
0100
0010
0100
0001
0010
1000
0000
,  // measure 31
0020
0000
1000
1030
,  // measure 32
0001
1000
0010
0000
0100
1000
0001
0000
,  // measure 33
2000
3100
0200
0301
,  // measure 34
0001
0010
0001
1000
0100
1000
0010
0000
,  // measure 35
0200
0000
0010
0310
,  // measure 36
0001
0100
1000
0000
0001
0010
1000
0000
,  // measure 37
0020
0031
2000
3010
,  // measure 38
1000
1000
0100
0100
1000
0100
0001
0000
,  // measure 39
0020
0000
0001
0031
,  // measure 40
0001
0001
0100
0000
0010
0100
0010
0000
,  // measure 41
0002
0013
0002
0103
,  // measure 42
1000
0001
1000
0001
1000
0010
0100
0000
,  // measure 43
1001
0000
0010
0100
0010
0001
1000
0100
,  // measure 44
0010
0100
0010
0001
2000
0000
3001
0000
,  // measure 45
0000
0100
0100
0010
0100
0001
0010
1000
,  // measure 46
0100
0010
0100
0010
0200
0000
0301
0000
,  // measure 47
0000
0010
0001
0100
0010
1000
0100
0010
,  // measure 48
1000
0100
1000
0001
0020
0000
1030
0000
,  // measure 49
1000
0001
1000
0000
0100
1000
0100
0000
,  // measure 50
0000
1001
1001
0010
0220
0000
0330
0000
;

//---------------dance-single - ----------------
#NOTES:
     dance-single:
     :
     Medium:
     7:
     0.323878,0.369452,0.072798,0.249594,0.010400,218.000000,211.000000,7.000000,24.000000,0.000000,0.000000,0.323878,0.369452,0.072798,0.249594,0.010400,218.000000,211.000000,7.000000,24.000000,0.000000,0.000000:
0000
0000
0000
0000
,
0000
0000
0000
0000
,
0000
0000
0000
0000
,
0000
0000
0000
0000
,
0000
0000
0000
0000
,
0000
0000
1000
0000
0001
0000
1000
0001
,
0000
0000
0100
0000
1000
0000
0100
0001
,
0000
0000
0010
0000
0100
0000
0010
0100
,
0000
0000
1000
0000
0010
0100
0000
0010
,
0000
0000
0100
0000
0100
1000
0000
0100
,
0000
0000
0100
0000
0001
0100
0010
0000
,
2000
0000
3001
0000
0001
1000
0001
0000
,
0010
1000
0010
0000
1000
0000
0001
0000
,
1000
0100
1000
0000
0010
1000
0100
0000
,
0010
0100
0010
0000
1000
0000
0110
0000
,
0002
0000
0013
0000
0010
0001
0100
0000
,
0100
1000
0010
0000
1000
0000
0001
0000
,
0001
0010
0001
0000
0100
0010
0100
0000
,
1000
0010
0001
0000
1000
0000
1001
0000
,
0200
0000
1000
1300
,
0001
0000
0010
0000
0100
0010
1000
0000
,
0100
0000
0000
0100
0000
0000
0000
0000
0010
0000
0000
0000
1000
0000
0000
0000
,
0010
0000
0000
0010
0000
0000
0000
0000
1000
0000
0000
0000
1001
0000
0000
0000
,
0002
0000
0010
0013
,
0100
0001
0010
0000
,
2000
0000
3000
0000
0100
1000
0100
0000
,
1000
0001
1000
0010
0200
0000
0300
0000
,
0020
0000
0100
0130
,
2000
3002
0023
0031
,
0010
0100
1000
0000
0100
0010
1000
0000
,
0010
1000
0100
0000
0001
0000
0100
0000
,
0002
0000
0010
0013
,
0200
2300
3020
0130
,
0010
0100
1000
0000
1000
0001
0100
0000
,
0100
1000
0010
0000
1000
0000
0010
0000
,
2000
0000
0010
3010
,
0020
0032
2003
3001
,
0001
0100
0001
0000
0100
0010
0100
0000
,
0100
1000
0100
0000
1000
0000
0010
0000
,
0002
0000
0100
0103
,
0200
2300
3200
0310
,
0100
0010
0001
0000
0100
1000
0001
0000
,
0010
0100
1000
0000
1000
0000
1000
0000
,
0110
0000
0010
0000
0100
1000
0100
0000
,
0001
1000
0010
1000
0001
0000
1000
0000
,
0101
0000
0100
0000
0001
1000
0001
0000
,
1000
0001
1000
0010
1000
0000
0100
0000
,
0011
0000
0010
0000
0100
0010
1000
0000
,
0010
1000
0100
1000
0001
0000
0010
0000
,
1000
0010
1000
0000
0010
1000
0010
0000
,
0000
0010
0100
0000
2002
0000
3003
0000
;

//---------------dance-single - ----------------
#NOTES:
     dance-single:
     :
     Easy:
     3:
     0.197596,0.210075,0.062399,0.124797,0.000000,133.000000,127.000000,6.000000,12.000000,0.000000,0.000000,0.197596,0.210075,0.062399,0.124797,0.000000,133.000000,127.000000,6.000000,12.000000,0.000000,0.000000:
0000
0000
0000
0000
,
0000
0000
0000
0000
,
0000
0000
0000
0000
,
0000
0000
0000
0000
,
0000
0000
0000
0000
,
0010
0100
0010
0000
,
0001
1000
0001
0000
,
0100
1000
0100
0000
,
0010
0001
0010
0000
,
1000
0000
1000
0000
,
0001
0000
1001
0000
,
0010
0010
0010
0000
,
0100
0100
0100
0000
,
0010
0001
0010
0000
,
0001
1000
0001
0000
,
1000
1000
1000
0000
,
0001
0001
0001
0000
,
0010
1000
0010
0000
,
0100
0001
0100
0000
,
2000
0000
3001
0000
,
0020
0000
0130
0000
,
0001
0001
0001
0000
,
1000
1000
1000
0000
,
0020
0000
1030
0000
,
0200
0000
1300
0000
,
0001
1000
0001
0000
,
0010
0010
0010
0000
,
2002
0000
3003
0000
,
0100
0010
0100
0000
,
1000
1000
0001
0000
,
0010
0010
0100
0000
,
0220
0000
0330
0000
,
0010
0010
0010
0000
,
0001
0001
0100
0000
,
1000
0010
1000
0000
,
2002
0000
3003
0000
,
1000
0100
1000
0000
,
0010
0010
0001
0000
,
1000
0001
1000
0000
,
0220
0000
0330
0000
,
0010
0010
0100
0000
,
0001
0010
0001
0000
,
1000
0100
0001
0000
,
0010
0010
0100
0010
,
1000
0100
1000
0000
,
0001
0010
0001
0010
,
0001
0100
1000
0000
,
0010
0010
0100
0100
,
0001
1000
0001
0000
,
1000
0100
0001
0100
,
1000
0000
1001
0000
;

//---------------dance-single - ----------------
#NOTES:
     dance-single:
     :
     Beginner:
     1:
     0.101026,0.210075,0.051999,0.062399,0.000000,68.000000,63.000000,5.000000,6.000000,0.000000,0.000000,0.101026,0.210075,0.051999,0.062399,0.000000,68.000000,63.000000,5.000000,6.000000,0.000000,0.000000:
0000
0000
0000
0000
,
0000
0000
0000
0000
,
0000
0000
0000
0000
,
0000
0000
0000
0000
,
0000
0000
0000
0000
,
0010
0000
0000
0000
,
0010
0000
0000
0000
,
1000
0000
0000
0000
,
0001
0000
0000
0000
,
0100
0000
0100
0000
,
0010
0000
0010
0000
,
1000
0000
0000
0000
,
0001
0000
0000
0000
,
0100
0000
0100
0000
,
0200
0000
0300
0000
,
0010
0000
0000
0000
,
1000
0000
0000
0000
,
0010
0000
0010
0000
,
0020
0000
0030
0000
,
1001
0000
0000
0000
,
0000
0000
0000
0000
,
0010
0010
0010
0000
,
0100
0100
0100
0000
,
0110
0000
0000
0000
,
0000
0000
0000
0000
,
1000
0000
1000
0000
,
1001
0000
0000
0000
,
0100
0000
0000
0000
,
0001
0000
0100
0000
,
0001
0000
0000
0000
,
1000
0000
0001
0000
,
1000
0000
0000
0000
,
0010
0000
0100
0000
,
0010
0000
0000
0000
,
0100
0000
0100
0000
,
0100
0000
0000
0000
,
1000
0000
0001
0000
,
1000
0000
0000
0000
,
0010
0000
1000
0000
,
0010
0000
0000
0000
,
0100
0000
0001
0000
,
0100
0000
0000
0000
,
0110
0000
0000
0000
,
2000
0000
3000
0000
,
0001
0000
1000
0000
,
0002
0000
0003
0000
,
0010
0000
1000
0000
,
0020
0000
0030
0000
,
0100
0000
0010
0000
,
0200
0000
0300
0000
,
0000
0000
1001
0000
;
