#VERSION:0.83;
#TITLE:ERROR CODE;
#SUBTITLE:;
#ARTIST:C-Show;
#TITLETRANSLIT:;
#SUBTITLETRANSLIT:;
#ARTISTTRANSLIT:;
#GENRE:;
#ORIGIN:;
#CREDIT:;
#BANNER:ERROR CODE.png;
#BACKGROUND:ERROR CODE-bg.png;
#PREVIEWVID:;
#JACKET:;
#CDIMAGE:;
#DISCIMAGE:;
#LYRICSPATH:;
#CDTITLE:;
#MUSIC:ERROR CODE.mp3;
#OFFSET:-0.638539;
#SAMPLESTART:35.454090;
#SAMPLELENGTH:13.090908;
#SELECTABLE:YES;
#BPMS:0.000=110.000,
46.500=220.000,
70.000=110.000,
150.500=220.000,
174.000=110.000;
#STOPS:44.000=0.818,
46.500=0.136,
69.750=1.091,
148.000=0.818,
150.500=0.136,
173.750=1.091;
#DELAYS:;
#WARPS:;
#TIMESIGNATURES:0.000=4=4;
#TICKCOUNTS:0.000=4;
#COMBOS:0.000=1;
#SPEEDS:0.000=1.000=0.000=0;
#SCROLLS:0.000=1.000;
#FAKES:;
#LABELS:0.000=Song Start;
#BGCHANGES:;
#KEYSOUNDS:;
#ATTACKS:
;

//---------------dance-single - ----------------
#NOTEDATA:;
#CHARTNAME:;
#STEPSTYPE:dance-single;
#DESCRIPTION:;
#CHARTSTYLE:;
#DIFFICULTY:Hard;
#METER:13;
#RADARVALUES:0.595548,0.625425,0.408082,0.200040,0.520104,521.000000,470.000000,51.000000,25.000000,0.000000,0.000000,0.000000,0.000000,0.000000,0.595548,0.625425,0.408082,0.200040,0.520104,521.000000,470.000000,51.000000,25.000000,0.000000,0.000000,0.000000,0.000000,0.000000;
#CREDIT:;
#NOTES:
0000
0000
0000
0000
,
0000
0000
0000
0000
,
0000
0000
0000
0000
,
0000
0000
0000
0000
0000
0000
0000
0000
0000
0000
0000
0000
0000
0000
0000
2001
,
0000
0000
0000
0000
0010
0000
0000
0000
0010
0000
0001
0000
3100
0000
0100
1000
,
0000
0000
0001
0000
0100
0000
0010
0000
0000
0010
1000
0010
0000
0010
0001
0000
,
0100
0001
0101
0010
1000
0010
1010
0001
,
0100
0000
0010
0000
1000
0000
0100
0000
0001
0000
0001
0000
0010
1000
0000
1010
,
0000
0000
1200
0000
0010
0000
0000
0000
0010
0000
0000
0000
0310
0000
0001
0110
,
0000
0000
0102
0000
1000
0000
0000
0000
1000
0000
0000
0000
1003
0000
0000
0110
,
0000
2010
0100
0000
0100
0000
3100
0000
,
0011
1000
0010
0000
1000
0100
0000
0100
0001
0000
1010
0000
0100
0000
0000
0000
,
0100
0000
0010
0100
0010
0001
1000
0000
,
0001
1000
0010
0000
1000
0100
1000
0010
,
0100
0000
0100
0001
0010
0000
1000
0100
,
0001
0100
0010
0000
0001
0010
0100
0010
,
1000
0100
0010
0001
0100
1000
0010
0100
,
0010
1000
0010
1000
0001
0100
0001
0100
1000
0010
0000
0010
0100
0001
0100
0000
,
2100
0000
0000
0000
3001
0000
0010
0100
0000
0100
0000
0101
0000
0010
0001
0000
,
1000
0000
0100
0010
0000
0100
0000
1000
0000
0001
1000
0001
0010
0001
0100
0000
,
0210
0000
0000
0000
1300
0000
0010
1000
0000
1000
0000
1001
0000
0010
0100
0010
,
0100
0000
0001
1000
0000
0001
0000
0010
0000
0100
0010
1000
0010
0100
0000
0011
,
0000
0000
0101
0000
0001
0000
1000
0010
0000
0100
0000
1000
0001
0010
0002
0000
,
1003
0000
1000
0010
0000
0001
0000
0010
0000
0100
0001
0100
0010
0001
0000
0000
,
1020
0000
0000
0000
0031
0000
1000
0001
0000
1000
0000
0010
0100
0010
0001
0000
,
0010
0000
1000
1010
0000
0100
0010
0100
0001
0000
0010
0011
0000
2010
0000
0000
,
3001
0000
0100
0000
0110
0000
0001
0010
0000
1000
0000
0010
1000
0000
1000
0000
,
0100
0000
0001
0000
0100
0000
0010
0001
0000
0011
0000
1001
0000
0010
0010
0000
,
0100
0000
1000
0000
1100
0000
0010
1000
0000
0010
0000
0100
0001
0100
0010
0000
,
0001
0000
1000
0000
0010
0000
1000
0000
0100
0000
0100
0000
0010
1000
0010
1002
,
0000
0000
0100
0000
0103
0000
1000
0000
0010
0000
0001
0000
0100
1000
0200
0000
,
0310
0000
0010
0001
0000
1000
0000
1001
0000
0100
0010
0100
1000
0100
0001
0000
,
0010
0100
0110
0001
0010
1000
0100
0010
,
1000
0000
1000
0000
0100
0000
0100
0000
0001
0000
1000
0000
0001
0010
0000
0110
,
0000
0000
1020
0000
0001
0000
0000
0000
0001
0000
0000
0000
0031
0000
1000
1010
,
0000
0000
0210
0000
1000
0000
0000
0000
1000
0000
0000
0000
1300
0000
0000
1001
,
0000
0012
0100
0000
0100
0000
0103
0000
,
1010
0010
1000
0000
1000
0001
0000
0001
0010
0000
1001
0000
0001
0000
0000
0000
,
0010
0000
0001
0000
0001
0000
0100
0010
,
0100
1000
0100
0000
0001
1000
0100
0010
,
0001
0000
0010
0100
0010
0000
0100
1000
,
0100
0001
0010
0000
1000
0100
1000
0001
,
0010
0100
0010
1000
0001
0100
0010
1000
,
0100
0001
0100
0001
0010
0001
0010
0001
0100
0100
0000
1000
0100
0010
0110
0000
,
2000
0000
0100
0000
3100
0000
0010
0001
0000
0010
0000
0100
1000
0100
1000
0000
,
0002
0000
1000
0000
1003
0000
0100
1000
0000
0010
1000
0010
0001
0010
0100
0000
,
0020
0000
0100
0000
0130
0000
1000
0010
0000
0100
0000
0001
0000
0010
0010
0000
,
0200
0000
0001
0000
0301
0000
1000
0100
0000
1010
0000
0100
0001
0010
0001
0021
,
0000
0000
1000
0000
1030
0000
0100
0000
0001
0000
0100
0000
0010
1000
0020
0000
,
0130
0000
1000
1000
0000
0010
0000
0100
0000
0010
0000
0001
0010
0100
1000
0000
,
0010
0000
0001
0000
0110
0000
1000
0100
0000
1000
0100
0000
0101
0000
0001
0000
,
0010
0000
0100
0000
0010
0000
0010
0000
1100
0000
0000
1010
0000
0000
1001
0000
,
0002
0000
0013
0100
1000
0010
0100
0100
,
1000
0100
1000
0001
0010
0100
0011
0000
,
2001
0000
3100
0001
0100
0010
0001
0001
,
0010
0000
0100
0000
1000
0000
0100
0000
0100
0000
0001
0000
0010
0000
0100
0120
,
0000
0000
1000
0000
0130
0000
0001
0000
1000
0000
1000
0000
0010
0100
0020
0000
,
0130
0000
0001
1000
0001
0000
0010
1000
0000
1000
0010
0000
0100
0001
0100
0000
,
1020
0000
0100
0000
0031
0000
0100
0000
0100
0000
1000
0010
1000
0000
1100
0000
,
0001
0000
0001
0000
0010
0000
0010
0000
0100
0000
1000
0000
0100
0010
0001
0101
,
0000
1001
0000
0000
0000
0000
0000
0000
;

//---------------dance-single - ----------------
#NOTEDATA:;
#CHARTNAME:;
#STEPSTYPE:dance-single;
#DESCRIPTION:;
#CHARTSTYLE:;
#DIFFICULTY:Medium;
#METER:10;
#RADARVALUES:0.401223,0.408932,0.272054,0.320064,0.116023,351.000000,317.000000,34.000000,40.000000,0.000000,0.000000,0.000000,0.000000,0.000000,0.401223,0.408932,0.272054,0.320064,0.116023,351.000000,317.000000,34.000000,40.000000,0.000000,0.000000,0.000000,0.000000,0.000000;
#CREDIT:;
#NOTES:
0000
0000
0000
0000
,
0000
0000
0000
0000
,
0000
0000
0000
0000
,
0000
0000
0000
0000
,
0100
0000
0110
0000
1000
0010
0100
0000
,
0010
0000
1000
0000
0010
0000
0100
0000
0000
0001
0000
0001
1000
0000
0100
0000
,
0200
0000
1300
0010
0002
0000
0103
0010
,
0010
0000
0000
0000
0011
0000
0000
0000
0001
0000
0100
0000
1000
0000
0000
0220
,
0000
0000
0000
0000
0330
0000
0001
0000
1000
0000
0000
0010
0000
0000
1000
0000
,
2020
0000
3030
0000
0100
0010
0100
0001
,
0202
0000
0303
0010
1000
0100
1000
0000
,
0001
0000
0020
0000
0000
0230
0000
0000
0002
0000
0303
0000
1000
0000
0000
0000
,
0001
0010
0100
0010
,
0001
0001
1000
0001
,
0100
0001
0010
1000
,
0100
1000
0100
0000
0010
0000
0001
0000
,
0001
0010
0001
0000
0100
0000
1000
0010
,
1000
0000
0001
0000
0100
0000
0010
0000
0001
0010
0000
0000
0220
0000
0030
0000
,
1300
0000
0110
0000
1000
0100
0010
0000
,
0010
0001
0010
1000
1000
0100
0010
0000
,
0001
0000
1010
0000
1000
0010
0001
0000
,
0100
0010
0100
0001
0001
1000
0010
0000
,
0100
0000
0101
0000
0010
1000
0020
0000
,
0031
1000
0100
0010
0010
1000
0010
0000
,
1000
0000
1001
0000
0100
0001
0100
0000
,
0001
1000
0010
0100
0010
0001
2002
0003
,
3010
0000
1100
0000
0001
0010
0001
0000
,
0010
0000
1000
0000
0100
0000
1000
0000
0000
0010
0000
0000
0110
0000
0000
0000
,
1000
0000
0011
0000
0010
0001
1000
0000
,
0010
0001
0010
1000
0010
0100
1100
0000
,
0010
0000
0110
0000
0010
0001
0002
0000
,
1003
0000
0100
0000
0001
0000
0100
0000
0000
0001
0000
0000
1001
0000
0100
0000
,
0100
0000
0001
1000
0010
0000
0010
0001
,
0100
0000
0010
0000
0001
0000
0100
0000
0010
0000
1000
0000
0010
0000
0000
2002
,
0000
0000
3003
0010
0100
1000
0010
0000
,
0022
0000
0033
0000
0010
1000
0001
0000
,
2020
0000
3030
0100
0010
1000
1000
0000
,
0010
0000
0200
0000
0000
0302
0000
0000
2000
0000
3003
0000
0000
0000
0000
0000
,
0110
0000
0001
1000
,
1001
0000
1000
0100
,
0010
1000
0010
0010
,
0011
0000
0001
0001
,
1000
0000
0001
0010
0001
0000
0010
1000
,
0010
0000
0100
0000
1000
0000
0010
0000
0100
0010
0000
0000
2020
0000
0030
0000
,
3100
0000
0001
0000
0100
0000
0000
0010
0000
1000
0000
0010
0000
0000
0100
0000
,
1000
0000
0100
0000
0000
0001
0000
0010
0000
1000
0000
0000
0200
0000
0001
0000
,
0301
0000
0000
0000
1001
0000
0000
0100
0000
0010
0000
0001
0000
0000
0010
0000
,
0100
0000
0000
0000
1000
0000
0100
0000
0001
0000
1000
0000
1000
0000
0000
0101
,
0000
0010
1000
0100
1000
0010
0020
0000
,
0130
0000
0000
0000
0001
0000
0010
0000
0000
0100
0000
0010
0000
1000
0001
0000
,
1000
0000
0000
0000
0100
0000
0001
0010
0000
1000
0000
0010
0000
0000
0100
0000
,
0001
0000
1000
0000
0100
0000
0010
0000
1000
0000
0000
0001
0000
0000
0110
0000
,
0100
0000
0012
0000
1003
0001
2000
0000
,
3100
0001
0100
0010
0100
1000
1000
0000
,
1002
0000
0103
1000
0010
0000
0100
0010
,
1000
0010
1000
0100
0000
0010
1010
0000
,
0201
0000
0301
1000
0002
0000
2003
0010
,
3100
0000
1000
0010
0001
0010
0100
0000
,
1200
0000
0301
1000
0002
0000
0013
0100
,
0001
0000
0100
0000
0010
0000
1000
0000
0100
0000
0000
0000
1010
0000
0000
0220
,
0000
0330
0000
0000
0000
0000
0000
0000
;

//---------------dance-single - ----------------
#NOTEDATA:;
#CHARTNAME:;
#STEPSTYPE:dance-single;
#DESCRIPTION:;
#CHARTSTYLE:;
#DIFFICULTY:Easy;
#METER:5;
#RADARVALUES:0.276627,0.336067,0.168034,0.304061,0.000000,242.000000,221.000000,21.000000,38.000000,0.000000,0.000000,0.000000,0.000000,0.000000,0.276627,0.336067,0.168034,0.304061,0.000000,242.000000,221.000000,21.000000,38.000000,0.000000,0.000000,0.000000,0.000000,0.000000;
#CREDIT:;
#NOTES:
// measure 0
0000
0000
0000
0000
,  // measure 1
0000
0000
0000
0000
,  // measure 2
0000
0000
0000
0000
,  // measure 3
0000
0000
0000
0000
,  // measure 4
2000
3000
0002
0003
,  // measure 5
0010
0100
0020
0030
,  // measure 6
1000
0100
1000
0010
,  // measure 7
0010
1000
0002
0003
,  // measure 8
2002
3003
0010
0100
,  // measure 9
0220
0330
0010
1000
,  // measure 10
2020
3030
0001
0100
,  // measure 11
0101
0001
0000
1001
0000
0000
0000
0000
,  // measure 12
0010
0000
0100
0000
,  // measure 13
0001
0000
1000
0000
,  // measure 14
1000
0000
0010
0000
,  // measure 15
0010
0000
0100
0010
,  // measure 16
0100
0000
1000
0010
,  // measure 17
1000
0000
0100
1001
,  // measure 18
0020
0130
0001
0100
,  // measure 19
1000
0000
0010
0000
0001
1000
0001
0000
,  // measure 20
0100
0010
1000
1000
,  // measure 21
0001
0000
0010
0000
0001
0010
0001
0000
,  // measure 22
0110
0001
1000
0010
,  // measure 23
0100
0000
0001
0000
0010
1000
0010
0000
,  // measure 24
0100
0001
1000
1000
,  // measure 25
0010
0100
2002
3003
,  // measure 26
0010
0000
0100
0000
0010
0000
0100
0010
,  // measure 27
0100
0000
1000
0000
0100
0000
1000
0100
,  // measure 28
1000
0000
0001
0000
1000
0000
0001
1000
,  // measure 29
0001
0000
0010
0000
0001
0010
0001
0000
,  // measure 30
1001
0000
0100
0000
0001
0000
1000
0010
,  // measure 31
1000
0000
0100
0000
0001
0000
0010
0001
,  // measure 32
0010
0100
0001
1000
,  // measure 33
0010
1000
0010
0000
0100
0010
0100
0000
,  // measure 34
2002
3003
0100
1000
,  // measure 35
2200
3300
0100
0001
,  // measure 36
0202
0303
0001
1000
,  // measure 37
1001
0010
0000
0110
0000
0000
0000
0000
,  // measure 38
0001
0000
1000
0000
,  // measure 39
0010
1000
0010
0000
,  // measure 40
0100
0010
0100
1000
,  // measure 41
0010
0000
0010
0100
,  // measure 42
0010
0000
1000
0001
,  // measure 43
1000
0100
0001
1001
,  // measure 44
0200
0301
0010
1000
,  // measure 45
0200
0000
1300
0000
0010
1000
0010
0000
,  // measure 46
2000
0000
3001
0000
0010
0000
0001
0010
,  // measure 47
0002
0000
0013
1000
0010
0000
1001
0000
,  // measure 48
2000
3010
0100
0001
,  // measure 49
0020
0000
0130
0000
0001
0010
1000
0000
,  // measure 50
0200
0301
0010
1000
,  // measure 51
0100
1000
0010
1000
0001
0000
0110
0000
,  // measure 52
0200
0302
2003
3020
,  // measure 53
0230
0000
0302
0000
1003
0010
1000
0000
,  // measure 54
0020
0032
0023
0230
,  // measure 55
2300
0000
3002
0000
1003
0100
1000
0000
,  // measure 56
0001
0101
0100
0110
,  // measure 57
0010
1000
0001
0110
,  // measure 58
0010
0010
0001
0000
0100
0100
1000
0000
,  // measure 59
0010
1000
0100
0001
0010
0000
0100
0000
,  // measure 60
1001
0000
0000
0000
;
