#TITLE:EPIC;
#SUBTITLE:;
#ARTIST:Sota Fujimori;
#TITLETRANSLIT:;
#SUBTITLETRANSLIT:;
#ARTISTTRANSLIT:;
#GENRE:;
#CREDIT:;
#BANNER:EPIC.png;
#BACKGROUND:EPIC-bg.png;
#LYRICSPATH:;
#CDTITLE:;
#MUSIC:EPIC.ogg;
#OFFSET:-0.073000;
#SAMPLESTART:82.112000;
#SAMPLELENGTH:15.000000;
#SELECTABLE:YES;
#BPMS:0.000000=152.000000
;
#STOPS:
;
#BGCHANGES:;
#KEYSOUNDS:;
#ATTACKS:;

//---------------dance-single - ----------------
#NOTES:
     dance-single:
     :
     Beginner:
     3:
     0.131858,0.210263,0.031828,0.190967,0.000000,116.000000,112.000000,4.000000,24.000000,0.000000,0.000000,0.131858,0.210263,0.031828,0.190967,0.000000,116.000000,112.000000,4.000000,24.000000,0.000000,0.000000:
// measure 0
0000
0000
0000
0000
,  // measure 1
0000
0000
0000
0000
,  // measure 2
0000
0000
0000
0000
,  // measure 3
0000
0000
0000
0000
,  // measure 4
0000
0000
0000
0000
,  // measure 5
0000
0000
0000
0000
,  // measure 6
0000
0000
0000
0000
,  // measure 7
0000
0000
0000
0000
,  // measure 8
0001
0000
0000
0000
,  // measure 9
1000
0000
0000
0000
,  // measure 10
0001
0000
0000
0000
,  // measure 11
1000
0000
0000
0000
,  // measure 12
0010
0000
0000
0000
,  // measure 13
0100
0000
0000
0000
,  // measure 14
0010
0000
0000
0000
,  // measure 15
0100
0000
0000
0000
,  // measure 16
0001
0000
0001
0000
,  // measure 17
1000
0000
1000
0000
,  // measure 18
0001
0000
0001
0000
,  // measure 19
1000
0000
1000
0000
,  // measure 20
0100
0000
0100
0000
,  // measure 21
0010
0000
0010
0000
,  // measure 22
0100
0000
0100
0000
,  // measure 23
0010
0000
0010
0000
,  // measure 24
1000
0000
1000
0000
,  // measure 25
2000
0000
3000
0000
,  // measure 26
0001
0000
0001
0000
,  // measure 27
0002
0000
0003
0000
,  // measure 28
0010
0000
0010
0000
,  // measure 29
0020
0000
0030
0000
,  // measure 30
0100
0000
0100
0000
,  // measure 31
0200
0000
0300
0000
,  // measure 32
2000
0000
3000
0000
,  // measure 33
2000
0000
3000
0000
,  // measure 34
0002
0000
0003
0000
,  // measure 35
0002
0000
0003
0000
,  // measure 36
0020
0000
0030
0000
,  // measure 37
0020
0000
0030
0000
,  // measure 38
0200
0000
0300
0000
,  // measure 39
0200
0000
0300
0000
,  // measure 40
1000
0000
1000
0000
,  // measure 41
1000
0000
1000
0000
,  // measure 42
0001
0000
0001
0000
,  // measure 43
0001
0000
0001
0000
,  // measure 44
0100
0000
0100
0000
,  // measure 45
0100
0000
0100
0000
,  // measure 46
0010
0000
0010
0000
,  // measure 47
0010
0000
0010
0000
,  // measure 48
1000
0000
0000
0000
,  // measure 49
0001
0000
0000
0000
,  // measure 50
1000
0000
0000
0000
,  // measure 51
0001
0000
0000
0000
,  // measure 52
2002
0000
3003
0000
,  // measure 53
0001
0000
1000
0000
,  // measure 54
0002
0000
0003
0000
,  // measure 55
1000
0000
0001
0000
,  // measure 56
0220
0000
0330
0000
,  // measure 57
0010
0000
0100
0000
,  // measure 58
0020
0000
0030
0000
,  // measure 59
0100
0000
0010
0000
,  // measure 60
2002
0000
3003
0000
,  // measure 61
1000
0000
0001
0000
,  // measure 62
2000
0000
3000
0000
,  // measure 63
0001
0000
1000
0000
,  // measure 64
0220
0000
0330
0000
,  // measure 65
0100
0000
0010
0000
,  // measure 66
0200
0000
0300
0000
,  // measure 67
0010
0000
0100
0000
,  // measure 68
0001
0001
0001
0000
,  // measure 69
1000
1000
1000
0000
,  // measure 70
0001
0001
0001
0000
,  // measure 71
1000
1000
1000
0000
,  // measure 72
0010
0010
0010
0000
,  // measure 73
0100
0100
0100
0000
,  // measure 74
0010
0010
0010
0000
,  // measure 75
0100
0100
0100
0000
;

//---------------dance-single - ----------------
#NOTES:
     dance-single:
     :
     Easy:
     5:
     0.239846,0.300376,0.047742,0.262580,0.000000,211.000000,205.000000,6.000000,33.000000,0.000000,0.000000,0.239846,0.300376,0.047742,0.262580,0.000000,211.000000,205.000000,6.000000,33.000000,0.000000,0.000000:
0000
0000
0000
0000
,
0000
0000
0000
0000
,
0000
0000
0000
0000
,
0000
0000
0000
0000
,
0000
0000
0000
0000
,
0000
0000
0000
0000
,
0000
0000
0000
0000
,
0000
0000
0000
0000
,
0002
0000
1003
0000
,
0001
1000
0100
0000
,
0020
0000
0130
0000
,
0010
0001
1000
0000
,
2000
0000
3010
0000
,
1000
0100
0010
0000
,
0020
0000
1030
0000
,
0001
0010
0001
0000
,
1000
0100
1000
0100
,
0010
0100
0010
0100
,
0001
0010
0001
0010
,
0100
0010
0100
0010
,
0001
0100
1000
0100
,
0001
0010
1000
0010
,
0001
1000
0001
1000
,
0010
0100
0010
0000
,
2000
3000
1000
0100
,
0002
0003
0001
0010
,
0200
0300
0100
0010
,
2000
3000
1000
0001
,
2000
3010
0100
0001
,
0020
0130
0001
0100
,
0020
0130
1000
0001
,
2000
3000
2002
3003
,
0010
0010
0100
0000
,
1000
1000
0100
0000
,
0001
0001
0100
0000
,
0010
0010
1000
0001
,
0100
0100
0001
0000
,
0100
0100
0010
0000
,
0100
0100
1000
0000
,
0001
1000
0001
0000
,
0010
0001
0010
0001
,
0100
1000
0100
1000
,
0010
1000
0010
1000
,
0001
1000
0001
1000
,
0100
0001
0100
1000
,
0100
0010
0100
0010
,
1000
0001
1000
0100
,
0010
0100
0001
0110
,
2000
0000
3001
0000
,
0002
0000
0103
0000
,
0200
0000
0310
0000
,
0020
0000
0130
0110
,
2000
0000
0001
0000
,
0010
0000
0001
3000
,
0002
0000
0100
0000
,
0010
0000
0100
0003
,
0020
0000
1000
0000
,
0100
0000
1000
0030
,
0200
0000
0001
0000
,
1000
0000
0001
0300
,
1000
0100
2000
3000
,
0001
1000
0002
0003
,
0010
0001
0020
0030
,
0100
0010
0200
0300
,
1000
0100
0002
0003
,
0001
0010
0200
0300
,
1000
0001
0020
0030
,
2002
3003
0220
0330
,
1000
0100
1000
0000
,
0010
0100
0010
0000
,
0001
0010
0001
0000
,
0100
0001
0100
0000
,
0010
1000
0001
0000
,
0100
1000
0010
0000
,
0100
0001
0010
0000
,
0100
0000
0110
0000
;

//---------------dance-single - ----------------
#NOTES:
     dance-single:
     :
     Medium:
     7:
     0.308048,0.361644,0.055699,0.190967,0.000000,271.000000,264.000000,7.000000,24.000000,0.000000,0.000000,0.308048,0.361644,0.055699,0.190967,0.000000,271.000000,264.000000,7.000000,24.000000,0.000000,0.000000:
0000
0000
0000
0000
,
0000
0000
0000
0000
,
0000
0000
0000
0000
,
0000
0000
0000
0000
,
0000
0000
0000
0000
,
0000
0000
0000
0000
,
0000
0000
0000
0000
,
0000
0000
0000
0000
,
0020
0000
0000
0000
0030
0000
0100
0010
,
0100
0000
1000
0001
0000
0000
1000
0000
,
0002
0000
0003
2000
0000
3000
0020
0000
,
0030
2000
0000
3000
0000
0001
1000
0000
,
0002
0000
0000
0000
0003
0000
1000
0010
,
1000
0000
0100
0001
0000
0100
0000
0000
,
0020
0000
0030
0200
0000
0300
0020
0000
,
0000
0030
0000
2000
0000
0000
3000
0000
,
0001
1000
0001
1000
,
0010
0000
0100
0000
0010
0000
0001
0010
,
0001
0100
0001
1000
,
0010
0000
0100
0000
1000
0000
0100
0010
,
0100
1000
0100
0001
,
0100
0000
1000
0000
0010
0000
0100
0001
,
0100
0010
0100
0001
,
1000
0000
0001
0000
1000
0001
1000
0000
,
0010
0000
0100
0000
0010
0100
0010
0000
,
1000
0000
0001
0000
1000
0000
0001
0010
,
0001
0000
0100
0000
1000
0000
0100
1000
,
0100
0000
0010
0000
0100
0010
0100
0000
,
1000
0000
0010
0000
1000
0000
0001
1000
,
0001
0000
0010
0000
1000
0000
0100
0010
,
0100
0001
0100
0010
,
1000
0000
0001
0000
1000
0001
1000
0000
,
0010
0001
0010
0001
,
0100
0000
1000
0000
0100
0000
0010
0100
,
0010
0100
0001
0100
,
1000
0010
1000
0000
0001
0010
0001
0000
,
0010
1000
0001
0100
,
1000
0000
0100
0000
0010
0000
0001
0010
,
0001
0100
1000
0100
,
0001
0100
0001
0000
1000
0100
1000
0000
,
0010
0100
0010
0100
,
0001
0000
0100
0000
0010
0100
0001
0100
,
0001
1000
0010
1000
,
0001
0000
1000
0000
0001
1000
0001
1000
,
0010
1000
0010
1000
,
0001
0000
0100
0000
0010
0100
0001
0100
,
0010
0100
0001
1000
,
0010
0000
0100
0000
0001
1000
0001
0000
,
1000
0000
1001
0000
,
0001
0000
0011
0000
,
0010
0000
0110
0000
,
0100
0000
1100
0101
,
0020
0000
0000
0100
0000
0000
0130
0000
,
0200
0000
0000
0001
0000
0000
0301
0000
,
2000
0000
0000
0100
0000
0000
0100
0000
,
0000
3000
0100
0010
,
0002
0000
0000
1000
0000
0000
1003
0000
,
0020
0000
0000
0100
0000
0000
0130
0000
,
0002
0000
0000
0100
0000
0000
0100
0000
,
0000
0003
0100
0100
,
2000
0000
0000
0010
0000
0000
3001
0000
,
0020
0000
0000
0100
0000
0000
1030
0000
,
0200
0000
0000
0001
0000
0000
1000
0000
,
0000
0300
0000
0020
0000
0000
0230
0000
,
0302
0000
0000
1000
0000
0000
0013
0000
,
2000
0000
0000
0100
0000
0000
3010
0000
,
0200
0000
0000
0010
0000
0000
0001
0000
,
0310
0001
0100
1001
,
0100
0010
0100
0001
,
0100
0010
1000
0100
,
0010
0001
0100
0010
,
0100
0000
1000
0000
0100
0000
0001
1000
,
0001
0010
0001
0100
,
0010
1000
0100
0010
,
0001
0100
0010
0100
,
1000
0100
0001
1001
;

//---------------dance-single - ----------------
#NOTES:
     dance-single:
     :
     Hard:
     12:
     0.441043,0.513597,0.127311,0.389891,0.274515,388.000000,372.000000,16.000000,49.000000,0.000000,0.000000,0.441043,0.513597,0.127311,0.389891,0.274515,388.000000,372.000000,16.000000,49.000000,0.000000,0.000000:
0000
0000
0000
0000
,
0000
0000
0000
0000
,
0000
0000
0000
0000
,
0000
0000
0000
0000
,
0000
0000
0000
0000
,
0000
0000
0000
0000
,
0000
0000
0000
0000
,
0000
0000
0000
0000
,
2000
0000
0000
0000
3000
0001
0010
0100
,
0020
0000
0030
2000
0000
3000
0100
0000
,
0002
0000
0000
0203
0000
0000
0320
0000
,
0000
2030
0000
0000
3000
0001
0100
1000
,
0200
0000
0000
0000
0300
0010
0100
0010
,
0002
0000
1003
0200
0000
0320
0000
0030
,
2000
0000
3000
0002
0000
0003
2020
0000
,
0000
0000
3000
0200
0000
0000
0330
0000
,
1000
0001
1000
0000
0001
0010
0001
0100
,
0000
0000
0010
0000
0100
0000
0000
0000
1001
0000
0000
0000
1000
0001
1000
0010
,
0000
0100
0002
0000
0000
0000
0003
0100
,
2000
0000
3000
0002
0000
0000
0013
1000
,
1000
0100
0010
0000
0100
1000
0001
1000
,
0000
0000
0001
0000
0010
0000
0000
0000
0110
0000
0000
0000
1000
0010
0100
0010
,
0000
0001
0200
0000
0000
0000
0300
1000
,
0200
0000
0000
0000
0300
0000
0020
0000
0000
1030
0100
0000
0010
0000
0000
0000
,
0010
0100
0010
0100
0000
0000
0001
0000
0100
0000
1000
0000
0010
0000
0200
0000
,
0000
0001
0301
0000
0010
1000
0100
0001
,
0100
0000
1000
0020
0000
0031
1000
0001
,
1000
0000
0100
0001
0000
0001
1000
0100
,
0010
1000
0010
1000
0000
0000
1000
0000
0100
0000
0010
0000
0001
0000
0200
0000
,
0000
1000
1300
0000
0001
0100
0001
0010
,
0100
0000
0001
1000
0000
0010
0100
0010
,
1000
0000
0001
0000
1000
0001
0000
1000
0000
0010
0001
0000
0100
0000
0001
0000
,
0100
0000
0000
0010
0000
0000
0100
0000
1000
0000
0000
0001
0000
0000
0000
0100
,
0000
0000
0010
0000
0100
0000
0001
1000
0000
0000
0010
0000
0100
0000
0001
0000
,
1000
0000
0000
0010
0000
0000
0100
0000
0001
0000
0000
0100
0000
0000
0010
0000
,
0000
0000
1000
0000
0001
1000
0000
0100
0000
0000
0001
0000
1000
0000
0100
0000
,
0010
0000
0000
0100
0000
0000
0001
0000
1000
0000
0000
0010
0000
0000
0000
0100
,
0000
0000
0010
0000
0001
0000
1000
0010
0000
0000
1000
0000
0100
0000
0001
0000
,
1000
0000
0000
0010
0000
0000
0100
0000
0001
0000
0000
0100
0000
0000
0000
0001
,
0000
0000
1000
0000
0001
0000
1000
0100
0000
0000
0010
0000
0100
0000
0001
0000
,
1000
0000
0000
0100
0000
0000
1000
0000
0010
0000
0000
0100
0000
0000
0000
0001
,
0000
0000
0100
0001
0000
0000
0010
0100
0000
0010
0000
1000
0000
0000
0010
0000
,
0100
0000
0000
0001
0000
0000
0100
0000
0010
0000
0000
0100
0000
0000
0001
0000
,
0000
0000
1000
0000
0001
0100
0000
0010
0000
1000
0000
0001
0000
0010
0000
0000
,
1000
0000
0000
0100
0000
0000
1000
0000
0100
0000
0000
0010
0000
0000
0000
0100
,
0000
0000
0010
0000
0100
0000
0001
0100
0000
1000
0000
0001
0000
1000
0000
0000
,
0010
0000
0000
0100
0000
0000
0001
0000
0100
0000
0000
0010
0000
0000
0000
1000
,
0000
0000
0010
0001
0000
0000
0100
0010
0000
0001
0000
0010
0000
0110
0000
0000
,
1000
0000
0001
0000
1000
0000
0010
0000
0001
0000
0000
0010
0000
0000
0100
0000
,
0000
0000
0010
0000
1000
0000
0100
0000
0001
0000
0000
0100
0000
0000
0001
0000
,
1000
0000
0100
0000
0010
0000
1000
0000
0010
0000
0000
0100
0000
0000
0010
0000
,
0100
0000
0000
0100
0000
0000
0001
0000
1000
0001
0000
0000
0110
0000
0000
0000
,
0002
0000
0000
1000
0003
1000
0001
0100
,
0020
0000
0000
0100
0030
0100
0010
0000
,
2000
0000
0000
3002
0000
0000
0203
0000
,
0000
0300
0000
0200
0000
0000
0320
0000
,
0031
0000
1000
0002
0000
1003
0010
0001
,
0020
0000
0000
0230
0000
0000
1300
0000
,
0020
0000
0000
2030
0000
0000
3002
0000
,
0003
0200
0000
0320
0000
0000
0130
0000
,
2000
0000
3001
0002
0000
0013
1000
0010
,
0100
0000
0000
0100
0000
0000
0020
0000
0000
0000
0000
0000
1030
0000
0000
0000
,
0002
0000
0000
0023
0000
0000
0230
0000
,
0000
0000
0300
0020
0000
0000
1030
0000
,
0001
0000
1000
0002
0000
1003
0010
0001
,
0010
0000
0010
0200
0000
1300
0001
0000
,
0010
0000
0000
0010
0000
0000
0100
0000
0000
0000
0001
0000
1000
0000
0000
0000
,
1000
0000
1010
0000
0000
0000
0010
0000
0001
1000
0000
1100
0000
0000
0000
0000
,
0100
0000
1010
0000
0100
0010
0001
0010
,
1000
0000
0011
0000
0100
1000
0010
0100
,
0001
0000
1001
0000
0010
1000
0100
1000
,
0001
0000
0000
0000
0101
0000
0000
0000
0010
0000
1000
0000
0001
0000
0100
0001
,
0100
0000
1010
0000
1000
0100
0010
1000
,
0100
0000
0110
0000
1000
0010
0001
0010
,
0100
0000
0011
0000
1000
0100
0001
0010
,
0100
0000
0000
0000
1010
0000
0000
0000
1000
0000
0010
0000
0100
0010
0000
1001
;
