#TITLE:EOS;
#SUBTITLE:-INFINITE EDIT-;
#ARTIST:ginkiha;
#TITLETRANSLIT:;
#SUBTITLETRANSLIT:;
#ARTISTTRANSLIT:;
#GENRE:;
#CREDIT:;
#BANNER:EOS -INFINITE EDIT-.png;
#BACKGROUND:EOS -INFINITE EDIT--bg.png;
#LYRICSPATH:;
#CDTITLE:;
#MUSIC:EOS -INFINITE EDIT-.ogg;
#OFFSET:-0.606032;
#SAMPLESTART:34.206032;
#SAMPLELENGTH:10.971428;
#SELECTABLE:YES;
#BPMS:0.000000=175.000000
;
#STOPS:
;
#BGCHANGES:;
#KEYSOUNDS:;
#ATTACKS:;

//---------------dance-single - ----------------
#NOTES:
     dance-single:
     :
     Hard:
     11:
     0.469650,0.647713,0.288084,0.389761,0.042365,388.000000,354.000000,34.000000,46.000000,0.000000,0.000000,0.469650,0.647713,0.288084,0.389761,0.042365,388.000000,354.000000,34.000000,46.000000,0.000000,0.000000:
0000
0000
0000
0000
0000
0000
0100
0001
,
0200
0000
0000
0000
,
0000
0000
0302
0000
,
0023
0000
0000
0000
,
0000
0000
2030
0000
,
3002
0000
0000
0000
,
0000
0000
0203
0000
,
0320
0000
0000
0000
,
0230
0000
0000
0300
,
1000
1000
0010
1000
,
0010
0100
0010
0001
,
0001
0010
1000
0100
,
1000
0010
0001
0100
,
1010
0000
1000
0000
0001
0000
0100
0100
,
1100
0000
0010
0000
0001
0000
1000
0100
,
0011
0010
0000
0110
0100
0000
1100
1000
,
0000
0001
1000
0010
0100
0010
0001
0100
,
1000
0000
0100
0010
0000
0100
0000
0002
,
0000
0000
0003
0000
0001
0010
0000
0000
,
0010
0000
0100
0010
0000
0000
1000
0002
,
0000
0000
0003
0000
0001
0010
0000
0001
,
0100
0000
0100
0010
0000
1000
0000
0200
,
0000
0000
0300
0000
0100
0100
0000
0000
,
0010
0000
0001
0010
0000
0000
1000
0002
,
0000
0000
0000
0000
0003
0000
0000
0000
0100
0000
0000
0010
0000
0000
0100
0000
,
0001
0000
1000
0010
0000
0100
0000
0020
,
0000
0000
0030
0000
1000
1000
0000
0000
,
0100
0000
0010
0100
0000
0000
0001
0020
,
0000
0000
0030
0000
0001
0010
0000
0010
,
0100
0000
0001
1000
0000
0100
0000
2000
,
0000
0000
3000
0000
0100
0010
0000
0000
,
0100
0000
0100
0010
0000
0000
0001
2000
,
0000
0001
3001
0001
0000
0010
0100
0001
,
2002
0000
0000
0000
,
0000
0000
0000
0000
3003
0202
0000
0303
,
0022
0000
0000
0033
,
2200
0000
3300
2002
0000
3003
0220
0330
,
2100
0010
0100
0000
,
0100
0010
0001
3010
,
0022
0030
0020
0030
,
0010
0000
0100
0000
0013
2020
0000
3030
,
0110
0000
0010
0000
0100
1000
0100
0000
,
0010
0000
0001
0100
0000
0100
1000
0000
,
0101
0000
1000
0000
0010
0100
0010
0000
,
1000
0100
0001
0100
0000
0100
0010
0000
,
0001
0001
0010
0000
0000
1000
0010
0000
,
0100
0100
0001
0100
0000
1000
0001
0000
,
0010
1000
0010
1000
0010
0001
0010
0001
,
0100
1000
0010
0001
0010
1000
0001
1000
,
2002
0000
0000
0003
,
0200
0000
0300
0010
3010
0000
0001
0010
,
0110
0001
0010
0001
,
1000
0100
1010
0010
,
0011
0001
0100
0001
,
0100
0001
0101
0100
,
1010
0100
0100
1000
,
0010
0100
0011
0010
,
0110
0010
0001
0001
,
1001
0010
0100
0001
,
0201
1000
0010
1000
,
0001
0310
0012
0103
,
2100
0010
0010
3001
,
0201
0310
0021
0130
,
2010
0010
0001
0100
,
0001
0010
3100
1100
,
0120
0001
1000
0031
,
1000
0100
1000
0100
0010
0001
0010
0000
,
0100
0000
0010
0000
0100
0000
0000
0000
0001
0000
0000
0010
0000
0000
0001
0000
,
1000
0000
0100
0000
1000
0000
0100
0000
0010
0000
0000
0001
0000
0000
0010
0000
,
0000
0000
0100
0000
0100
0000
0000
0000
0001
0000
0000
1000
0000
0000
0010
0000
,
0000
0000
0100
0000
1000
0000
0100
0000
1000
0000
0000
1000
0000
0000
0010
0000
,
0100
0000
0001
0000
0000
0100
0000
0000
0010
0000
0000
0010
0000
0000
0001
0000
,
0000
0000
0100
0000
1000
0000
0000
0000
0010
0000
0000
0100
0000
0000
0001
0000
,
0100
0000
0010
0000
0000
0000
1000
0000
0100
0000
0000
0001
0000
0000
0010
0000
,
0100
0000
0010
0000
0001
0000
0100
0000
0010
0000
0000
1000
0000
0000
0010
0000
,
1000
0100
1000
0100
0010
0001
0010
0001
,
0100
0000
0001
0010
0000
0001
0100
0000
,
1000
0010
0100
0010
0000
0010
1000
0001
,
0010
0100
0000
0100
0010
0100
0001
1000
,
0100
0010
0001
0000
1000
1000
0000
0100
,
0010
0010
1000
0100
0000
0001
0100
0010
,
1000
1000
0000
0100
0100
0000
0010
0010
,
0000
0001
0001
0100
0010
1000
0100
0010
,
2002
0000
0000
0000
,
0000
0000
0000
0000
0000
0000
0000
0000
0000
0000
0000
0000
0000
0000
0000
3003
;

//---------------dance-single - ----------------
#NOTES:
     dance-single:
     :
     Medium:
     8:
     0.423653,0.539761,0.152515,0.423653,0.000000,350.000000,332.000000,18.000000,50.000000,0.000000,0.000000,0.423653,0.539761,0.152515,0.423653,0.000000,350.000000,332.000000,18.000000,50.000000,0.000000,0.000000:
0000
0000
0000
1000
,
2000
0000
0000
0000
,
0000
3000
0020
0030
,
0002
0000
0000
0000
,
0000
0003
0200
0300
,
0020
0000
0000
0000
,
0000
0030
2000
3000
,
0002
0000
0000
0003
,
2000
0000
0000
3000
,
0020
0000
0001
0000
,
0001
0030
0200
0300
,
0020
0000
1000
0030
,
2000
3000
0002
0003
,
0001
1000
0010
0000
,
1000
0001
0100
0000
,
1000
0000
0000
0011
0000
0000
0010
0000
,
0000
1010
0000
0000
0100
0000
1001
0000
,
0100
0000
1000
0000
0001
0000
1000
0100
,
2000
3000
0010
0010
,
1000
0000
0010
0000
1000
0000
0100
0010
,
0200
0300
0010
0001
,
1000
0000
0010
0000
0001
0000
0010
0001
,
0020
0030
0100
1000
,
0100
0000
1000
0000
0001
0000
0100
1000
,
0200
0300
1000
0001
,
1000
0100
1000
0000
0001
0010
0001
0000
,
0020
0031
1000
0100
,
0010
1000
0010
0000
0100
0001
0100
0000
,
2000
3010
0100
0010
,
1000
0001
0010
0000
0001
0010
1000
0000
,
0200
0310
0010
0001
,
1000
1000
0100
0000
0010
0010
1000
0000
,
0020
0000
1030
0100
1000
0010
0001
0000
,
0220
0330
0010
0010
,
1000
0100
0002
0003
,
0022
0033
0100
0010
,
2200
3300
0220
0330
,
0100
0010
0100
0000
,
1000
0010
1000
0010
,
2002
3003
0010
1000
,
0001
0100
0202
0303
,
1000
0000
0001
0000
1000
0010
1000
0000
,
1000
0000
0001
0010
0000
0010
1000
0000
,
0100
0000
1000
0000
0010
0001
0010
0000
,
1000
0000
0100
0001
0000
1000
0010
0000
,
0010
0000
1000
0000
0001
1000
0001
0000
,
1000
0000
0010
0010
0000
0100
0100
0000
,
0010
0100
0001
0000
0010
0001
0100
0000
,
1000
0010
1000
0100
0001
0001
0010
0000
,
2000
0000
0000
0000
,
0002
0000
0000
0003
3000
0000
0000
0000
,
0002
0013
0100
0010
,
0001
1000
0100
0010
,
0200
0301
1000
0010
,
1000
0001
1000
0010
,
2000
3001
0010
0001
,
0001
0100
0010
0001
,
0020
0130
1000
0010
,
0200
1300
0010
0100
,
1002
1003
0010
0001
,
0010
1000
0021
0031
,
0210
0310
0100
1000
,
2010
3010
0102
0103
,
0201
0310
1000
0010
,
0001
0010
0100
1000
,
2001
3100
0010
0100
,
0010
0000
0010
0000
0100
0010
1000
0000
,
0010
0000
0001
0000
0100
0001
0010
0000
,
1000
0000
0001
0000
0100
0010
0001
0000
,
0100
0000
1000
0000
0010
0001
0001
0000
,
1000
0000
0010
0000
0100
0010
0100
0000
,
0010
0001
0010
0000
0001
1000
0001
0000
,
1000
0100
0001
0000
0010
0010
0010
0000
,
0100
0010
0100
0000
0010
0100
1000
0000
,
0001
0010
0001
0010
0100
0000
1001
0000
,
1000
0010
0100
0010
0001
0000
1000
0010
,
0100
0000
1000
0010
0001
0010
1000
0000
,
1000
0100
0010
0001
0000
0001
0010
0100
,
0010
0000
0001
0100
0001
0010
0001
0000
,
0010
1000
0010
0100
0000
0000
0100
0010
,
1000
0010
0000
0010
0001
1000
0001
0000
,
0100
1000
0010
0000
0010
0001
0100
0000
,
1000
0010
0001
0010
1000
0000
0001
0000
,
0220
0000
0000
0000
,
0000
0000
0000
0000
0000
0000
0000
0000
0000
0000
0000
0000
0000
0000
0000
0330
;

//---------------dance-single - ----------------
#NOTES:
     dance-single:
     :
     Easy:
     4:
     0.236035,0.281306,0.042365,0.220300,0.000000,195.000000,190.000000,5.000000,26.000000,0.000000,0.000000,0.236035,0.281306,0.042365,0.220300,0.000000,195.000000,190.000000,5.000000,26.000000,0.000000,0.000000:
0000
0000
0000
0000
,
2000
0000
0000
0000
,
0000
3000
0020
0030
,
0200
0000
0000
0000
,
0000
0300
0002
0003
,
0020
0000
0000
0000
,
0000
0030
0002
0003
,
0020
0000
0000
0030
,
0200
0000
0000
0300
,
1000
0000
1000
0000
,
1000
0000
0100
0000
,
0001
0000
0001
0000
,
0001
0000
0010
0000
,
1000
1000
1000
0000
,
0100
0100
0100
0000
,
1000
0000
0001
0000
,
1000
0000
1001
0000
,
0010
0100
0010
0000
,
0002
0003
0020
0030
,
1000
0100
1000
0000
,
0020
0030
2000
3000
,
0001
1000
0001
0000
,
0200
0300
2000
3000
,
0100
0010
0100
0000
,
2000
3000
2000
3000
,
0001
0010
0001
0000
,
0020
0030
0200
0300
,
0100
0010
0100
0000
,
0002
0003
2000
3000
,
1000
0010
1000
0000
,
0200
0300
0002
0003
,
0010
0001
0010
0000
,
0200
0300
0002
0003
,
1000
0000
0010
0000
,
0001
0000
0010
0000
,
1000
0000
0100
0000
,
0001
0000
0010
0000
,
1000
0000
1000
0000
,
0001
0000
0001
0000
,
0010
0000
0100
0000
,
0010
0000
0110
0000
,
1000
0100
1000
0000
,
0001
0010
0001
0000
,
0010
0100
0010
0000
,
0010
0001
0010
0000
,
1000
0001
1000
0000
,
0100
0001
0100
0000
,
0010
1000
0010
0000
,
0100
0001
0100
0000
,
2002
0000
0000
0000
,
0000
0000
3003
0000
,
0010
0100
0010
0000
,
0001
0000
1000
0000
,
0100
1000
0100
0000
,
0001
0000
0010
0000
,
0100
0010
0100
0000
,
1000
0000
0100
0000
,
1000
0010
1000
0000
,
0001
0000
0010
0000
,
1000
0100
0001
0000
,
0010
0000
0001
0000
,
0010
0100
1000
0000
,
0100
0000
0010
0000
,
0001
1000
0010
0000
,
1000
0000
0100
0000
,
0100
0010
0001
0000
,
1000
0000
0010
0000
,
1000
1000
1000
0000
,
0010
0000
0100
0000
,
0001
0001
0001
0000
,
0001
0000
0010
0000
,
0100
0100
0100
0000
,
0010
0000
0100
0000
,
1000
1000
1000
0000
,
0010
0000
0100
0000
,
1000
0010
0001
0000
,
0100
0010
0001
0000
,
0001
0010
1000
0000
,
1000
0001
0010
0000
,
0100
1000
0010
0000
,
0100
0010
0001
0000
,
1000
0000
0001
0000
,
0100
0000
1001
0000
,
1001
0000
0000
0000
;

//---------------dance-single - ----------------
#NOTES:
     dance-single:
     :
     Beginner:
     2:
     0.121044,0.173698,0.050838,0.101677,0.000000,100.000000,94.000000,6.000000,12.000000,0.000000,0.000000,0.121044,0.173698,0.050838,0.101677,0.000000,100.000000,94.000000,6.000000,12.000000,0.000000,0.000000:
// measure 0
0000
0000
0000
0000
,  // measure 1
0100
0000
0000
0000
,  // measure 2
0000
0000
0000
0000
,  // measure 3
0001
0000
0000
0000
,  // measure 4
0000
0000
0000
0000
,  // measure 5
0010
0000
0000
0000
,  // measure 6
0000
0000
0000
0000
,  // measure 7
1000
0000
0000
0000
,  // measure 8
0100
0000
0000
0000
,  // measure 9
2000
0000
0000
0000
,  // measure 10
3000
0000
0001
0000
,  // measure 11
0002
0000
0003
0000
,  // measure 12
0020
0000
0030
0000
,  // measure 13
0200
0000
0000
0000
,  // measure 14
0300
0000
1000
0000
,  // measure 15
2000
0000
3000
0000
,  // measure 16
0020
0000
0030
0000
,  // measure 17
0001
0000
0001
0000
,  // measure 18
0001
0000
0000
0000
,  // measure 19
0010
0000
0010
0000
,  // measure 20
0010
0000
0000
0000
,  // measure 21
1000
0000
1000
0000
,  // measure 22
1000
0000
0000
0000
,  // measure 23
0100
0000
0100
0000
,  // measure 24
0100
0000
0000
0000
,  // measure 25
0001
0000
0000
0000
,  // measure 26
1000
0000
0000
0000
,  // measure 27
0010
0000
0000
0000
,  // measure 28
0100
0000
0000
0000
,  // measure 29
0001
0000
0000
0000
,  // measure 30
0100
0000
0000
0000
,  // measure 31
1000
0000
0000
0000
,  // measure 32
0010
0000
0000
0000
,  // measure 33
0110
0000
0000
0000
,  // measure 34
0000
0000
0000
0000
,  // measure 35
1001
0000
0000
0000
,  // measure 36
0000
0000
0000
0000
,  // measure 37
0110
0000
0000
0000
,  // measure 38
0000
0000
0000
0000
,  // measure 39
1001
0000
0000
0000
,  // measure 40
0000
0000
0000
0000
,  // measure 41
0200
0000
0300
0000
,  // measure 42
0010
0000
0010
0000
,  // measure 43
0020
0000
0030
0000
,  // measure 44
0001
0000
0001
0000
,  // measure 45
0002
0000
0003
0000
,  // measure 46
2000
0000
3000
0000
,  // measure 47
0200
0000
0300
0000
,  // measure 48
0020
0000
0030
0000
,  // measure 49
0000
0000
0000
0000
,  // measure 50
0000
0000
0000
0000
,  // measure 51
0110
0000
0000
0000
,  // measure 52
0100
0000
0001
0000
,  // measure 53
0100
0000
0000
0000
,  // measure 54
1000
0000
0001
0000
,  // measure 55
1000
0000
0000
0000
,  // measure 56
0010
0000
1000
0000
,  // measure 57
0010
0000
0000
0000
,  // measure 58
0001
0000
0000
0000
,  // measure 59
0100
0000
0100
0000
,  // measure 60
0100
0000
0000
0000
,  // measure 61
1000
0000
1000
0000
,  // measure 62
1000
0000
0000
0000
,  // measure 63
0001
0000
0001
0000
,  // measure 64
0001
0000
0000
0000
,  // measure 65
0010
0000
0010
0000
,  // measure 66
0010
0000
0000
0000
,  // measure 67
0001
0000
0000
0000
,  // measure 68
1000
0000
0100
0000
,  // measure 69
1000
0000
0000
0000
,  // measure 70
0010
0000
0100
0000
,  // measure 71
0010
0000
0000
0000
,  // measure 72
0100
0000
0001
0000
,  // measure 73
0100
0000
0000
0000
,  // measure 74
1001
0000
0000
0000
,  // measure 75
0010
0000
0010
0000
,  // measure 76
0010
0000
0100
0000
,  // measure 77
0001
0000
0001
0000
,  // measure 78
0001
0000
1000
0000
,  // measure 79
0100
0000
0100
0000
,  // measure 80
0100
0000
0000
0000
,  // measure 81
0010
0000
0000
0000
,  // measure 82
0100
0000
0000
0000
;
