#VERSION:0.83;
#TITLE:EMPTY OF THE SKY;
#SUBTITLE:;
#ARTIST:AKIRA YAMAOKA;
#TITLETRANSLIT:;
#SUBTITLETRANSLIT:;
#ARTISTTRANSLIT:;
#GENRE:;
#CREDIT:;
#MUSIC:EMPTY OF THE SKY.ogg;
#BANNER:EMPTY OF THE SKY.png;
#BACKGROUND:EMPTY OF THE SKY-bg.png;
#CDTITLE:;
#SAMPLESTART:72.198;
#SAMPLELENGTH:15.000;
#SELECTABLE:YES;
#OFFSET:-1.785;
#BPMS:0.000=182.000;
#STOPS:;
#SPEEDS:0.000=1.000=0.000=0;
#SCROLLS:0.000=1.000;
#TICKCOUNTS:0.000=4;
#TIMESIGNATURES:0.000=4=4;
#LABELS:0.000=Song Start;
#COMBOS:0.000=1;
#ORIGIN:;
#PREVIEWVID:;
#JACKET:;
#CDIMAGE:;
#DISCIMAGE:;
#BGCHANGES:2.000=EMPTY OF THE SKY.avi=1.000=0=0=0=StretchNoLoop====,
99999.000=-nosongbg-=1.000=0=0=0=StretchNoLoop====
;
#FGCHANGES:;

//--------------- dance-single - ----------------
#NOTEDATA:;
#STEPSTYPE:dance-single;
#DESCRIPTION:;
#DIFFICULTY:Beginner;
#METER:3;
#RADARVALUES:0.129333,0.215117,0.016024,0.096142,0,113,111,2,12,0,0,0,0,0,0.129333,0.215117,0.016024,0.096142,0,113,111,2,12,0,0,0,0,0;
#CHARTNAME:;
#CHARTSTYLE:;
#CREDIT:;
#NOTES:
0000
0000
0000
0000
,
0001
0000
0000
0000
,
0001
0000
0000
0000
,
1000
0000
0000
0000
,
1000
0000
0000
0000
,
0010
0000
0000
0000
,
0010
0000
0000
0000
,
0100
0000
0000
0000
,
0100
0000
0000
0000
,
2000
0000
0000
0000
,
3000
0000
0000
0000
,
0010
0000
0000
0000
,
0010
0000
0000
0000
,
0020
0000
0000
0000
,
0030
0000
0000
0000
,
0100
0000
0000
0000
,
0100
0000
0000
0000
,
0001
0000
0001
0000
,
0001
0000
0000
0000
,
1000
0000
1000
0000
,
1000
0000
0000
0000
,
0200
0000
0000
0000
,
0300
0000
0000
0000
,
0200
0000
0000
0000
,
0300
0000
0000
0000
,
1001
0000
0000
0000
,
0000
0000
0000
0000
,
0010
0000
0010
0000
,
0010
0010
0010
0000
,
1000
0000
1000
0000
,
1000
0000
0000
0000
,
0100
0000
0100
0000
,
0100
0000
0000
0000
,
0001
0000
0001
0000
,
0001
0000
0000
0000
,
0010
0000
0010
0000
,
0010
0000
0000
0000
,
0001
0000
0000
0000
,
0001
0000
0000
0000
,
1000
0000
1000
0000
,
1000
0000
0000
0000
,
0100
0000
0000
0000
,
0100
0000
0000
0000
,
0010
0000
0010
0000
,
0010
0000
0000
0000
,
2000
0000
3000
0000
,
1000
0000
0000
0000
,
0001
0000
0000
0000
,
1000
0000
0000
0000
,
0002
0000
0003
0000
,
0001
0000
0000
0000
,
0010
0000
0000
0000
,
0100
0000
0000
0000
,
0000
0000
0100
0000
,
0100
0000
0100
0000
,
0000
0000
0001
0000
,
0001
0000
0001
0000
,
0000
0000
0010
0000
,
0010
0000
0010
0000
,
0000
0000
1000
0000
,
1000
0000
1000
0000
,
0000
0000
0001
0000
,
0001
0000
0001
0000
,
0000
0000
1000
0000
,
1000
0000
1000
0000
,
0000
0000
0100
0000
,
0100
0000
0100
0000
,
0000
0000
0010
0000
,
0010
0000
0010
0000
,
0000
0000
0200
0000
,
0000
0000
0300
0000
,
0000
0000
0001
0000
,
0001
0000
1000
0000
,
1000
0000
0002
0000
,
0003
0000
0100
0000
,
0100
0000
0200
0000
,
0300
0000
0010
0000
,
0010
0000
0020
0000
,
0030
0000
1000
0000
,
1000
0000
2000
0000
,
3000
0000
0002
0000
,
0003
0000
0010
0000
,
0010
0000
0010
0000
,
0000
0000
0100
0000
,
0100
0000
0100
0000
,
0000
0000
1000
0000
,
1000
0000
1000
0000
,
0000
0000
0001
0000
,
0001
0000
0001
0000
,
0000
0000
1001
0000
;

//--------------- dance-single - ----------------
#NOTEDATA:;
#STEPSTYPE:dance-single;
#DESCRIPTION:;
#DIFFICULTY:Easy;
#METER:5;
#RADARVALUES:0.29987,0.322675,0.112165,0.304448,0,262,248,14,38,0,0,0,0,0,0.29987,0.322675,0.112165,0.304448,0,262,248,14,38,0,0,0,0,0;
#CHARTNAME:;
#CHARTSTYLE:;
#CREDIT:;
#NOTES:
0000
0000
0000
0000
,
0001
0000
0100
0000
,
1000
0100
1000
0000
,
0010
0000
0001
0000
,
0010
1000
0010
0000
,
0100
0100
0001
0000
,
0010
0010
0100
0000
,
1000
0001
1000
0010
,
0100
0000
1001
0000
,
0002
0000
0003
1000
,
0100
0010
0100
0000
,
0010
1000
0100
1000
,
0001
0000
0100
0000
,
0200
0000
0300
0010
,
1000
0001
0001
0000
,
0010
1000
0010
0001
,
0100
0000
1001
0000
,
0002
0000
0010
0000
,
0013
1000
0001
0000
,
0200
0000
0001
0000
,
0301
1000
0010
0000
,
1000
0100
0200
0300
,
0001
0010
0020
0030
,
0100
1000
0100
0001
,
1000
0000
0110
0000
,
0002
0000
1000
0000
,
0100
0000
0100
0003
,
0110
0000
1001
0000
,
0010
0010
0020
0030
,
1000
0001
1000
0000
,
0100
1000
0100
0000
,
0010
1000
0010
0100
,
2000
3000
0002
0003
,
1000
0100
0010
0000
,
0001
0100
1000
0000
,
0001
0010
0100
1000
,
0020
0030
0200
0300
,
0001
0001
1000
0000
,
0010
0010
0100
0000
,
0020
0030
2000
3000
,
0100
0001
0002
0003
,
0110
0000
0100
0001
,
1000
0000
0010
0100
,
0001
0000
1000
0010
,
0100
0010
1000
0000
,
0020
0000
0100
0000
,
0130
0001
1000
0000
,
0010
0100
0010
0100
,
0001
0000
1001
0000
,
2000
0000
0001
0000
,
3001
0010
0100
0000
,
1000
0100
1000
0010
,
0001
0000
0100
0000
,
0220
0330
0100
1000
,
0100
1000
0020
0030
,
0001
0100
0200
0300
,
0010
1000
0100
0010
,
0020
0030
0001
1000
,
0100
0001
2000
3000
,
0010
0001
0002
0003
,
0100
1000
0200
0300
,
2002
3003
0010
0100
,
0010
0001
0020
0030
,
0010
0100
2000
3000
,
0001
1000
0100
0001
,
0002
0003
0010
0100
,
0010
1000
0200
0300
,
1000
0010
2000
3000
,
0010
0001
0010
0100
,
0100
0000
0220
0000
,
0000
0000
0330
0000
,
0000
0000
1000
0000
,
0001
0000
0010
0010
,
0010
0000
0200
0000
,
1000
0000
1300
0010
,
0001
0000
2000
0000
,
0010
0000
3010
1000
,
0100
0000
0020
0000
,
1000
0000
1030
0001
,
0100
0010
0002
0000
,
0100
0000
0103
0010
,
1000
0000
1001
0000
,
1000
0100
0010
1000
,
0001
0000
0110
0000
,
0010
0100
0100
1000
,
0010
0000
1000
0001
,
0001
0000
0100
1000
,
1000
0000
0010
0100
,
0100
0010
0100
0000
,
1001
0000
0110
0000
;

//--------------- dance-single - ----------------
#NOTEDATA:;
#STEPSTYPE:dance-single;
#DESCRIPTION:;
#DIFFICULTY:Medium;
#METER:8;
#RADARVALUES:0.41318,0.47585,0.176259,0.528778,0,361,339,22,66,0,0,0,0,0,0.41318,0.47585,0.176259,0.528778,0,361,339,22,66,0,0,0,0,0;
#CHARTNAME:;
#CHARTSTYLE:;
#CREDIT:;
#NOTES:
0000
0000
0000
0000
,
0002
0000
0000
0203
0000
0000
2300
0000
,
0000
0010
0000
0000
3001
0000
0010
0000
,
0200
0000
0000
2300
0000
0000
3020
0000
,
0000
0100
0000
0000
1030
0000
0001
0000
,
0002
0000
0000
2003
0000
0000
3020
0000
,
0000
0001
0000
0000
0130
0000
1000
0000
,
0001
0000
0001
1000
0000
1000
0010
0000
,
0010
0100
0010
0000
0001
0000
0100
0000
,
2002
3003
0010
0001
,
1000
0001
0100
0000
,
1000
0000
0010
0001
0010
0000
0001
0100
,
0000
0100
0001
0000
1000
0000
1000
0000
,
0110
0000
0001
0010
,
0001
1000
0100
0000
,
1000
0000
0100
0001
0100
0000
0010
1000
,
0000
1000
0010
0000
0220
0000
0330
0000
,
1000
0001
0002
0003
,
0010
0100
0010
0010
,
1000
0010
2000
3000
,
0100
0000
0010
0000
0100
0000
0010
0001
,
0020
0030
0100
1000
,
0001
0000
0100
0000
0100
0000
1000
0010
,
2000
0000
0100
0000
3100
0000
0001
0010
,
0000
0010
0100
0000
0001
0000
0010
0000
,
0022
0033
0001
0100
,
1000
0000
1000
0001
0010
0000
0100
0000
,
0101
0000
0000
1010
0000
0000
1001
0000
,
0100
0000
0010
0000
0100
1000
0010
0000
,
2200
3300
0010
1000
,
0010
0000
0001
0100
0001
0000
0100
0000
,
0001
0000
0010
0100
0000
0010
0100
0000
,
1000
0001
0000
0001
0010
0000
1000
0000
,
0202
0303
0010
0100
,
1000
0000
0010
0100
0010
0000
0001
0000
,
1000
0000
0100
0001
0100
0000
0010
0000
,
0001
0010
0001
0000
2002
0000
3003
0000
,
0100
0010
0200
0001
,
0301
1000
0010
0100
,
0002
0000
0000
2003
0000
0000
3020
0000
,
0000
0230
0000
0000
0301
0000
0110
0000
,
0010
0100
2000
0010
,
3010
0000
0001
0000
0100
0010
0100
0000
,
0002
1000
1003
0100
,
1000
0010
1000
0000
0100
0000
1100
0000
,
0020
0001
0000
0031
,
0200
0300
0020
0030
,
0010
0000
1000
0000
0001
0010
0001
0000
,
1000
0000
0100
0000
0001
1000
0001
0000
,
0200
1000
0000
1300
,
0010
0010
1000
0010
,
2000
0000
3000
0000
0100
0000
1000
0001
,
2000
0010
0020
3030
,
0110
0110
0200
0300
,
0100
0001
0100
0010
,
1000
0000
0001
0100
,
1000
0100
0010
0100
,
0001
0000
1000
0010
,
0010
1000
0100
0001
,
0001
0100
0001
0010
,
1000
0010
0200
1300
,
2002
3003
0010
0001
,
0100
0010
0001
0100
,
1000
0001
0010
0100
,
1000
0001
0100
0010
,
0100
0010
0001
1000
,
0010
1000
0001
0010
,
0100
0000
0010
0000
1000
0000
0001
0100
,
0001
0000
1000
0000
0100
0010
0100
0000
,
0001
0010
2001
0000
,
0100
3010
0120
1000
,
0001
0031
1000
1100
,
0100
0101
0010
1000
,
0110
1001
2000
0100
,
0002
3003
0020
1000
,
0200
0330
0002
0010
,
0200
0303
0200
0010
,
2000
3300
0002
0100
,
0013
0100
0020
1000
,
0031
0100
2000
0100
,
3010
0000
0001
0000
0200
0000
0000
0302
,
0000
1003
0210
0000
,
0301
1000
0010
0001
,
0001
0000
1000
0100
,
1000
0001
0010
0100
,
0100
0000
0020
0001
,
0031
1000
0002
0100
,
0103
0010
1000
1000
,
0001
0001
0020
0230
,
2300
3002
0020
0000
,
0000
0000
0000
0000
,
0000
0000
0000
0033
0000
0000
0000
0000
;

//--------------- dance-single - ----------------
#NOTEDATA:;
#STEPSTYPE:dance-single;
#DESCRIPTION:;
#DIFFICULTY:Hard;
#METER:12;
#RADARVALUES:0.489864,0.695474,0.384566,0.721061,0.004006,428,380,48,90,0,0,0,0,0,0.489864,0.695474,0.384566,0.721061,0.004006,428,380,48,90,0,0,0,0,0;
#CHARTNAME:;
#CHARTSTYLE:;
#CREDIT:;
#NOTES:
0000
0000
1001
1001
,
0010
0000
0010
1000
0000
1000
0100
0000
,
0100
0001
0000
0001
1000
0000
0001
0000
,
0100
0000
0100
0001
0000
0001
1000
0000
,
1000
0010
0000
0010
0100
0001
0100
0000
,
0010
0000
1000
0100
0000
0010
0100
0000
,
0001
0010
0000
1000
0100
0000
0010
0000
,
0100
0000
0100
1100
0000
1000
1010
0000
,
0100
0001
0101
0000
0110
0000
1001
0000
,
0020
0000
0000
0032
0000
0000
2003
0000
,
0000
0100
3000
0200
,
0000
0020
0300
0000
0000
0000
0001
0000
,
0030
1000
0100
1000
0001
0010
0100
0010
,
0002
0000
0000
2003
0000
0000
3200
0000
,
0000
0010
0300
0020
,
0000
2030
0100
0000
0001
0000
3001
0010
,
0000
0100
1000
0000
0011
0000
0011
0000
,
0200
0000
0000
2300
0000
0000
3020
0000
,
0000
0100
0000
0000
1000
0000
0031
0000
,
2000
0000
0000
3200
0000
0000
0302
0000
,
0000
0010
0000
0000
0100
0000
0103
0000
,
2010
0000
0000
0002
0000
3000
0010
0000
,
0003
0100
0000
0000
0010
0000
1000
0000
,
1200
0000
0000
0020
0000
0300
0001
0000
,
0030
1000
0000
0000
0100
0000
0001
0000
,
1100
1000
0100
1000
0100
1000
0100
1000
,
0100
0010
0100
0010
0100
0010
0010
0010
,
0011
0000
0000
1001
0000
0000
1100
0000
,
1010
0000
0000
0000
0011
0000
0000
0000
0001
0000
0001
1000
0001
0000
1001
0000
,
2000
0000
0000
3020
0000
0000
0230
0000
,
0001
1000
1000
0320
,
1030
0002
0000
0010
0000
1000
0000
1000
,
0003
0010
1000
0100
1000
0010
0001
0010
,
0002
0000
0000
2003
0000
0000
3020
0000
,
0100
1000
0031
2000
,
3010
0200
0000
0001
0000
0010
0000
0001
,
0300
1000
1000
0100
0010
0100
0001
0000
,
0020
0000
0000
0001
0000
0000
2030
0000
,
0000
0010
0000
0000
3100
0000
0010
0000
,
0101
0000
0010
0011
0000
0100
1100
0000
,
1000
1010
0000
0001
1001
0000
0110
0000
,
2000
0000
3001
2000
0001
0000
0010
0000
,
3100
0001
0000
0001
0010
0000
0200
0000
,
0320
0000
0001
0032
0000
1000
0100
0100
,
0003
0010
1000
0100
0010
0000
0010
0000
,
2001
0100
0001
3100
,
0001
1000
0001
0010
,
1000
0000
1000
0001
0000
0001
0010
0000
,
0100
0000
0100
1000
0000
1000
0010
0000
,
1020
0001
1000
0031
,
0100
0100
0001
1000
,
0200
0001
0301
1001
,
2000
3010
0020
0031
,
0110
0100
0110
0000
0001
0000
1000
0000
,
0100
1000
0020
0130
,
0100
0001
2000
3010
,
0010
0100
0002
1003
,
2000
3100
0001
1000
,
0100
1000
0002
1003
,
1000
0100
0020
0031
,
0001
1000
0200
1300
,
1000
0010
1010
0000
0100
0000
0001
0000
,
0010
0100
2000
3001
,
0001
0010
0100
0010
,
0010
1000
0020
0031
,
0002
0103
0100
1000
,
0010
0001
0200
1300
,
1000
0010
1002
0013
,
0010
0100
2100
3010
,
0020
0130
0201
1000
,
0010
0000
0310
0012
0000
0000
1000
0000
,
0100
0000
0103
0000
0000
1000
1100
0000
,
0010
0110
0000
0101
0000
0010
0011
0001
,
1000
0010
0100
0000
0210
0000
0000
0302
,
0000
0000
0023
0000
0000
2030
0000
0000
,
3001
0000
0100
0000
0002
0000
0000
2003
,
0000
0000
3200
0000
0000
0320
0000
0000
,
1030
0101
2010
0001
,
3001
0020
0230
1000
,
2300
3002
2003
0010
,
0010
0000
3100
0000
0101
0000
0000
0011
,
0000
1001
0120
1000
,
0001
0100
0130
2000
,
3200
0000
0302
0000
0203
0000
0010
0320
,
0000
1030
2000
0000
3001
0002
0000
0100
,
0203
2300
3020
0001
,
0000
0000
2030
0000
3002
0000
0103
0200
,
0000
0310
0020
0000
2030
0000
0100
0000
,
0001
3100
1010
1010
,
0100
0010
0100
0010
2002
0000
0000
0000
,
0000
0000
0000
0000
,
0000
0000
0000
3003
0000
0000
0000
0000
;
