#TITLE:EMPIRE OF FLAME;
#SUBTITLE:;
#ARTIST:Camellia;
#TITLETRANSLIT:;
#SUBTITLETRANSLIT:;
#ARTISTTRANSLIT:;
#GENRE:;
#CREDIT:;
#MUSIC:EMPIRE OF FLAME.mp3;
#BANNER:EMPIRE OF FLAME.png;
#BACKGROUND:EMPIRE OF FLAME-bg.png;
#CDTITLE:;
#SAMPLESTART:18.500;
#SAMPLELENGTH:15.000;
#SELECTABLE:YES;
#OFFSET:0.390;
#BPMS:0.000=114.000
,19.000=228.000
,20.000=114.000
,36.000=228.000
,83.000=114.000
,84.000=228.000
,163.000=114.000
,167.000=228.000
,175.000=114.000
,179.000=228.000
,187.000=114.000
,191.000=228.000
,199.000=114.000
,203.000=228.000
;
#STOPS:19.000=0.263;
#ORIGIN:;
#PREVIEWVID:;
#JACKET:EMPIRE OF FLAME-jacket.png;
#CDIMAGE:;
#DISCIMAGE:;
#BGCHANGES:;
#FGCHANGES:;

//--------------- dance-single - ----------------
#NOTES:
     dance-single:
     :
     Beginner:
     5:
     0,0,0,0,0:
0000
0000
0000
0000
,
1001
0000
0000
0000
,
0000
0000
0000
0000
,
1001
0000
0000
0000
,
0000
0000
0000
0000
,
0100
0000
0100
0000
,
0010
0000
0010
0000
,
0001
0000
0001
0000
,
1000
0000
1000
0000
,
1001
0000
0000
0000
,
1000
0000
0000
0000
,
1001
0000
0000
0000
,
0001
0000
0000
0000
,
1001
0000
0000
0000
,
1000
0000
0000
0000
,
0001
0000
0001
0000
,
0001
0000
0000
0000
,
0110
0000
0000
0000
,
0010
0000
0000
0000
,
0110
0000
0000
0000
,
0100
0000
0000
0000
,
0110
0000
0000
0010
,
0000
0000
0000
0100
,
0000
0100
0000
0100
,
0000
0000
0000
2000
,
0000
3000
0000
2000
,
0000
3000
0000
0002
,
0000
0003
0000
0002
,
0000
0003
0000
0020
,
0000
0030
0000
0020
,
0000
0030
0000
0200
,
0000
0300
0000
0200
,
0000
0300
0000
2000
,
0000
3000
0000
0002
,
0000
0003
0000
2000
,
0000
3000
0000
0002
,
0000
0003
0000
0020
,
0000
0030
0000
0200
,
0000
0300
0000
0010
,
0000
0010
0000
0100
,
0000
0100
0000
2002
,
0000
3003
0000
0001
,
0000
0001
0000
1000
,
0000
1000
0000
0220
,
0000
0330
0000
0010
,
0000
0010
0000
0100
,
0000
0100
0000
2002
,
0000
3003
0000
0001
,
0000
1000
0000
0001
,
0000
1000
0000
0010
,
0010
0100
0100
0110
,
0000
0000
0000
0110
,
0000
0000
0000
1001
,
0000
0000
0000
2002
,
0000
3003
0000
0100
,
0000
0100
0000
0010
,
0000
0010
0000
0100
,
0000
0010
0000
0100
,
0000
0010
0000
0001
,
0000
0001
0000
1000
,
0000
1000
0000
0001
,
0000
1000
0000
0001
,
0000
1000
0000
0010
,
0000
0100
0000
0010
,
0000
0100
0000
0001
,
0000
0100
0000
0001
,
0000
0100
0000
0001
,
0000
1000
0000
0001
,
0000
1000
0000
0010
,
0000
1000
0000
0010
,
0000
1000
0000
1001
,
0000
1000
0000
0001
,
0000
1000
0000
0110
,
0000
0010
0000
0100
,
0000
0010
0000
1001
,
0000
0001
0000
1000
,
0000
0001
0000
1001
,
0000
1001
0000
0110
,
0000
0110
0000
1001
,
0000
1001
0000
0110
,
0000
0110
0000
1000
,
0000
1000
0000
1000
,
0000
1000
0000
0001
,
0000
0001
0000
0001
,
0000
0001
0000
0010
,
0000
0010
0000
0010
,
0000
0010
0000
0100
,
0000
0100
0000
0100
,
0000
0100
0000
0010
,
0000
0100
0000
0010
,
0000
0100
0000
0001
,
0000
1000
0000
0001
,
0000
1000
0000
0100
,
0000
0010
0000
0100
,
0000
0010
0000
1000
,
0000
1000
0000
0001
,
0000
0001
0000
1000
,
0000
0001
0000
0010
,
0000
0100
0000
0220
,
0000
0000
0000
0000
,
0000
0000
0000
0330
;

//--------------- dance-single - ----------------
#NOTES:
     dance-single:
     :
     Easy:
     8:
     0,0,0,0,0:
0000
0000
0000
0000
,
2000
0000
0000
0000
,
0000
0000
0000
3001
,
0002
0000
0000
0000
,
1003
0100
0010
1001
,
0100
0000
0100
0010
,
1000
0001
0100
0010
,
0110
0000
0010
0010
,
1000
1010
0001
0101
,
1001
0000
0001
0000
,
1000
0001
1000
0000
,
0110
0000
0100
0000
,
0010
0100
0010
0000
,
0011
0000
0010
0000
,
0001
0010
0001
0000
,
1000
0001
1000
0000
,
0001
0100
0001
0000
,
0110
0000
0010
0000
,
0100
1000
0100
0000
,
1001
0000
0001
0000
,
0100
0010
0100
0002
,
0013
0100
0000
1000
,
0000
0100
0001
0100
,
0000
0010
0000
0100
,
0010
1001
0000
2000
,
0000
3100
0000
0010
,
0000
0001
0000
0020
,
0000
0130
0000
0010
,
0000
1000
0000
0002
,
0000
0013
0000
1000
,
0000
0100
0000
0020
,
0100
0130
0000
0002
,
1000
1003
0000
2000
,
0000
3100
0000
0001
,
0000
0100
0000
0020
,
0000
1030
0000
0001
,
0000
1000
0000
0010
,
0100
0010
0100
0002
,
0000
1003
0000
0020
,
0000
0100
0000
1000
,
1000
1030
0000
0200
,
0320
0030
0100
1000
,
0100
0010
0000
0100
,
0001
0010
0000
2000
,
3002
0003
0001
1000
,
0100
0001
0010
0100
,
1000
0001
0000
0020
,
0032
0003
0010
0100
,
1000
0010
0000
0100
,
0001
1000
0000
0002
,
2003
3020
0230
1300
,
0000
0000
1001
0000
,
0000
1001
0000
0000
0000
0000
0110
0000
,
0000
0000
0220
0000
,
0000
0330
0000
0100
,
0000
0010
0000
0100
,
0000
0001
0000
0100
,
0000
1000
0000
0100
,
0001
0100
0010
0001
,
0000
1000
0000
0001
,
0000
0100
0000
1000
,
0000
0001
0000
1000
,
0010
1000
0010
0100
,
0000
0001
0000
0010
,
0000
0001
0000
0100
,
0000
0010
0000
1000
,
0010
1000
0001
1000
,
0000
0010
0000
1000
,
0000
0001
0000
1000
,
0000
0010
0000
1000
,
0001
0100
0001
0010
,
0000
0010
0000
1000
,
0000
1000
0000
0001
,
0000
0001
0000
0100
,
0000
0100
0000
0010
,
0000
0010
0000
1000
,
0000
1000
0000
1100
,
0000
1100
0000
0101
,
0000
0101
0000
0011
,
0000
0011
0000
0110
,
0000
0110
0000
1000
,
0100
1000
0100
0001
,
1000
0001
0000
0100
,
0010
0100
1000
0100
,
0001
0100
0000
0001
,
0010
0001
1000
0001
,
1000
0010
0000
0011
,
0000
0011
0000
0101
,
0000
0101
0000
0010
,
0100
0010
0100
0010
,
0001
1000
0000
0001
,
0100
0010
1000
0010
,
0100
0001
0000
0010
,
1000
0001
0010
1000
,
0010
0100
0000
0011
,
0000
0011
0000
1100
,
0000
1100
0000
0101
,
0000
1010
0000
1100
,
0000
0110
0000
2002
,
0000
3000
0000
0100
,
0000
0103
0000
0110
;

//--------------- dance-single - ----------------
#NOTES:
     dance-single:
     :
     Medium:
     12:
     0.412426,0.581726,0.098982,0,0.004124,350,338,12,0,0,0,0,0,0,0.412426,0.581726,0.098982,0,0.004124,350,338,12,0,0,0,0,0,0:
0000
0000
0000
0000
,
0020
0000
0000
0000
,
0000
0000
0000
0000
0030
0000
0100
0100
,
0200
0000
0000
0000
,
0301
0010
1000
0100
0010
0000
0110
0000
,
0001
0002
0003
0000
0010
0000
0010
0000
,
1000
0000
0000
0000
0001
0000
0000
0000
0100
0000
0010
0000
0100
0010
0000
0000
,
1000
2000
3000
0000
1000
0000
1000
0000
,
0001
0001
0100
0010
0010
1000
0010
0100
,
1001
0000
0010
0001
,
0010
0100
0001
0100
,
0110
0000
1000
0010
,
1000
0001
1000
0100
,
1010
0000
0100
0001
,
0100
0010
0100
1000
,
0001
0001
1001
0010
,
0010
1100
0001
0100
,
0110
0000
0100
0001
,
0100
0010
0100
0001
,
0011
0000
0001
1000
,
0001
1000
0001
1100
,
1010
0100
0010
0100
,
0010
0000
0000
0100
0000
0010
0000
0100
0000
1000
0000
0000
,
0001
0010
0001
1000
,
0000
1001
0000
0020
,
0000
0032
0000
0203
,
0000
0320
0000
2030
,
0000
0000
0000
0000
,
3000
0002
0000
0203
,
0000
0000
0000
0000
,
0000
0320
0000
2030
,
0100
0100
0000
0001
,
0001
0001
3000
0200
,
0000
0320
0000
2030
,
0000
3002
0000
0203
,
0000
0000
0000
0000
,
0000
0300
0010
1000
,
0100
1000
0010
0002
,
0000
0000
0023
0032
,
0000
0100
0000
0100
,
0100
0103
1000
0001
,
0010
0000
0000
1000
0001
1000
0010
0000
,
1000
0010
0100
0001
,
0100
0010
0100
0001
,
0010
0000
0000
0100
0001
0100
0010
0000
,
1000
0010
0100
0001
,
0100
0000
0010
1000
0010
0000
0001
0000
,
1000
0000
0000
0010
1000
0010
1000
0000
,
0100
0001
0010
0100
,
0001
0000
1000
0000
0010
0000
0100
0001
,
0100
0010
1000
0001
0100
0010
0110
0000
,
0000
0000
1100
0000
,
0000
0101
0000
0000
0000
0000
0110
0000
,
0000
0000
1001
0000
,
0000
0000
0100
0010
,
0001
0100
1000
0010
,
0001
0000
0100
0000
1000
0100
1000
0000
,
0100
0010
1000
0010
,
1000
0000
0001
0000
0100
0010
0100
0000
,
0010
1000
0001
0100
,
0001
0000
0010
0000
0001
0010
0001
0000
,
0100
1000
0010
1000
,
0010
0000
0100
0000
0001
0100
0001
0000
,
0010
0100
0010
0001
,
0100
0000
0010
1000
0010
0100
0010
0000
,
0100
1000
0001
0010
,
0001
0000
1000
0001
1000
0001
0200
0000
,
0000
0310
0001
0100
,
0010
0000
1000
0010
1000
0001
0100
0000
,
0010
1000
0001
0100
,
0010
0000
0100
1000
0010
1000
0002
0000
,
0000
0013
1000
0100
,
0010
0100
0001
0020
,
0000
1030
0001
1000
,
0100
0010
0100
2000
,
0000
3010
0100
0001
,
0010
0001
0010
2020
,
3030
0220
0330
0202
,
0303
0022
0033
2020
,
3030
2002
3003
0202
,
0303
1001
0000
0100
,
0100
1000
0010
0000
0100
0000
0010
0000
,
0001
0000
1000
0100
0001
1000
0010
0000
,
0100
0000
0001
0000
1000
0000
0100
0001
,
0010
0000
0100
1000
0001
1000
0100
0000
,
0010
1000
0001
0100
,
0010
0000
0100
1000
0001
0000
1100
0000
,
1000
0001
1000
0000
0001
0100
0001
0000
,
0100
0010
0100
0000
0010
0000
0202
0000
,
0303
0100
0010
0100
,
0001
0000
0100
0001
0010
0001
1000
0000
,
0001
0000
1000
0000
0100
0000
0010
0001
,
0100
0000
0001
1000
0100
1000
0010
0000
,
0001
1000
0010
1000
,
0001
0000
0100
0010
0001
0010
1000
0000
,
1000
0001
0001
0100
,
0100
0010
0010
0101
,
0001
0110
0100
1010
,
1000
0011
0001
2002
,
0000
0003
0000
0010
,
0010
0010
3010
0110
;

//--------------- dance-single - ----------------
#NOTES:
     dance-single:
     :
     Hard:
     16:
     0.810711,1.168505,0.296946,0.428923,0.338189,688,652,36,52,0,0,0,0,0,0.810711,1.168505,0.296946,0.428923,0.338189,688,652,36,52,0,0,0,0,0:
0000
0000
0000
0000
,
2002
0000
0000
0000
,
0000
0000
0000
0000
0000
0000
0000
0000
0000
0000
3000
0000
0100
0100
0103
0000
,
0220
0000
0000
0000
0000
0000
0000
0300
,
1030
0001
0100
0010
1000
0010
0100
0000
,
2001
0000
0002
0000
3003
0000
0100
0000
0000
0010
0000
0010
1000
0000
0010
0000
,
0100
0000
0000
0001
0000
0000
1000
0000
0010
0000
0100
0000
0001
1000
0000
0000
,
0120
0000
0200
0000
0330
0000
0010
0000
1000
0001
0000
0001
0100
0000
0010
0000
,
0100
0001
0010
0100
1000
0000
0010
0100
0001
1000
0010
0000
0100
0001
1000
1000
,
2020
0000
3030
0000
0001
0100
0100
0010
,
1000
1000
0001
0010
0010
0100
1000
0001
,
0022
0000
0033
0000
0100
0010
0010
1000
,
0001
0001
1000
0100
0100
0010
0100
1000
,
2200
0000
3300
0000
0100
0001
0001
0100
,
0010
0010
1000
0001
0001
0100
0010
0000
,
1000
0000
0010
1000
0000
0010
0100
0000
0000
0001
0000
0010
,
0001
0000
0000
0000
0010
0000
0100
0000
0000
0000
0000
0000
1000
0000
0000
0010
0000
0000
0100
0000
0000
0100
0000
0000
,
0220
0000
0330
0000
0010
1000
1000
0001
,
0100
0100
0010
0100
0100
0001
1000
0010
,
2020
0000
3030
0000
0100
0001
0001
1000
,
0001
0000
0001
0000
0010
0000
0100
0000
0100
0000
0001
0000
2000
0000
0000
3000
,
1100
0000
0001
0100
0100
0001
1000
1000
,
0001
0000
0000
0010
0000
0000
0010
0000
0000
0000
0001
0000
0000
0000
1000
0000
0000
0000
0102
0000
0000
0000
0000
0000
,
1000
0010
0010
1003
,
0010
0110
0100
2000
,
0000
0001
3002
0000
0000
0010
0023
0000
,
0000
0000
0000
0100
0000
0000
0230
0000
0000
0000
1000
0000
0000
0000
1000
0000
0000
0000
2300
0000
0000
0000
0000
0000
,
0000
0010
0010
0000
0000
0100
0100
0000
,
0000
0000
0000
0001
0000
0000
3002
0000
0000
0000
0100
0000
0000
0000
0100
0000
0000
0000
0203
0000
0000
0000
0000
0000
,
0000
1000
1000
0000
0000
0010
0010
0000
,
0000
0000
0000
0001
0000
0000
0302
0000
0000
0000
1000
0000
0000
0000
1000
0000
0000
0000
2003
0000
0000
0000
0000
0000
,
0010
0001
0001
0100
,
0001
0000
3010
1000
0010
1000
0200
0000
,
0000
0001
0302
0000
0000
0010
0023
0000
,
0000
0000
0000
0001
0000
0000
0032
0000
0000
0000
0100
0000
0000
0000
0100
0000
0000
0000
0203
0000
0000
0000
0000
0000
,
0000
1000
1000
0000
0000
0010
0010
0000
,
0000
1000
1300
0010
0100
0000
0010
0100
,
0010
0001
0010
0100
1000
0001
0020
0000
,
0000
0000
0000
1000
1030
0001
2000
0000
,
0100
0100
0001
0010
,
0010
0000
3001
0100
0001
1000
1002
0000
,
0200
0000
0000
0000
0303
0000
0010
1000
0010
0100
0001
1000
0010
0000
1000
0000
,
0010
0100
0001
0010
0100
0010
0001
1000
,
0010
0100
0001
1000
0100
0000
2100
0000
,
0020
0000
0000
0000
3030
0000
0001
0100
0010
1000
0010
0100
0001
0000
0010
0000
,
0100
0000
0000
1000
0000
0000
0001
0000
1000
0000
0100
0000
0010
0000
0001
0000
0100
0000
0010
0000
1000
0000
0001
0000
,
0100
0000
1000
1000
0001
0000
0102
0000
,
2000
0000
0000
0000
3003
0000
0010
1000
0010
0100
0001
0010
0100
0000
1000
0000
,
0100
0010
0100
0001
0010
0001
1000
0010
,
1000
0000
0000
0100
0000
0000
1000
0000
0000
0010
0000
0000
0100
0000
0000
0001
0000
0000
0200
0000
0000
0310
0000
0010
,
2000
0000
0000
3001
0000
0001
0020
0000
0000
0031
0000
0001
0100
0000
1000
0001
0000
0010
0100
0000
0000
0110
0000
0000
,
0000
0001
1000
0000
0001
0101
0000
0100
,
0010
1000
1010
0000
0001
1000
0100
1100
,
0000
1000
0001
0000
0010
0022
0000
0000
,
0000
0033
0000
1001
,
1000
0010
0100
0010
0010
1000
0100
1000
,
0001
0000
0100
0001
0100
0010
1000
0010
,
0001
0100
0010
1000
0010
0000
1000
0001
,
0100
0000
0000
0001
0000
0000
0010
0000
0000
0100
0000
0000
0010
0000
0001
0000
1000
0000
0100
0000
0000
0000
0000
0000
,
1000
0001
0010
0001
0100
1000
0100
0001
,
0010
0000
0100
0000
0010
1000
0001
0010
,
0100
0001
1000
0010
1000
0001
0100
1000
,
0001
0000
0000
0100
0000
0000
0010
0000
0000
0100
0000
0000
0001
0000
1000
0000
0100
0000
0010
0000
0000
0000
0000
0000
,
0001
1000
0010
1000
0100
0010
0000
1000
,
0010
1000
0100
0001
0010
0001
1000
0000
,
0010
0100
0000
0010
1000
0001
1000
0001
,
0100
0000
0000
0001
0000
0000
0010
0000
0000
0100
0000
0000
1000
0000
0010
0000
0100
0000
0001
0000
0000
0000
0000
0000
,
1000
0001
1000
0000
0100
0010
0100
1000
,
0001
0100
0010
0001
0100
0001
1000
0000
,
0010
0100
0001
0010
0001
0100
1000
0100
,
0010
1000
0010
0100
0001
0100
0110
0000
,
0000
0000
0100
0010
0100
0001
1000
0010
,
1000
0001
0100
0010
1000
0001
0101
0000
,
0000
0000
0010
0001
0010
0100
0010
0001
,
1000
0001
0100
0010
1000
0001
0011
0000
,
0000
0000
0100
0001
1000
0010
1000
0001
,
0100
0000
0000
0010
0000
0000
1000
0000
0000
0100
0000
0000
0010
0000
0000
0001
0000
0000
1000
0000
0001
0000
1000
0000
,
0001
1000
0001
0100
0010
0100
0010
0100
0010
1000
0010
1000
,
0010
1000
0010
0100
0001
0100
0001
0100
0001
1000
0100
1000
,
0100
1000
0100
0010
0001
0010
0001
0010
0001
1000
0100
0010
,
0001
0100
0010
2000
0000
0000
3000
0000
0000
0110
0000
0000
,
1000
0001
1000
0010
0100
0010
1000
0001
,
1000
0010
0100
0001
1000
0010
1010
0000
,
0010
0100
0010
1000
0100
0001
0100
0010
,
1000
0010
0100
0001
0010
0100
1100
0000
,
1000
0100
1000
0010
0100
0001
0100
0010
,
0001
1000
0010
0100
0010
1000
0001
0001
,
0100
0010
1000
1000
0010
0100
0001
0001
,
0100
0010
0100
0100
0010
1000
1001
0000
,
0100
0001
0100
0010
1000
0001
1000
0010
,
0100
0010
1000
0001
0100
0001
0101
0000
,
1000
0001
1000
0100
0001
0100
1000
0010
,
0100
0010
0100
0001
1000
0010
1010
0000
,
0100
0001
0010
0100
1000
0100
0010
0001
,
0010
0001
1000
0001
0100
0010
1000
1000
,
0010
0100
0010
0010
0100
0001
0100
0100
,
0001
0010
0001
0001
1000
0010
0110
0100
,
0010
1000
1100
0100
0010
0001
0011
1000
,
0010
0100
0101
0100
0010
1000
2002
0000
,
0000
0000
3003
0100
,
0010
1000
0001
0220
,
0000
0000
0000
0330
0000
0000
0000
0000
0000
0000
0000
0000
0000
0000
0000
0000
;

//--------------- dance-single - ----------------
#NOTES:
     dance-single:
     :
     Challenge:
     19:
     1.074663,1.418899,0.461917,0.511408,1.113549,912,856,56,62,0,0,0,0,0,1.074663,1.418899,0.461917,0.511408,1.113549,912,856,56,62,0,0,0,0,0:
0000
0000
0000
0000
,
0210
0001
0000
0001
,
0000
0000
0000
0000
0000
0000
0000
0000
0001
0000
0000
0000
0000
0000
0000
0000
0000
0000
0000
0000
0300
0000
0000
0000
0010
0100
0010
0000
1000
0000
0000
0000
,
1020
0000
0100
0000
0000
0000
0100
0030
,
1100
0000
0000
0000
0000
0000
0000
0000
0100
0000
0000
0000
0000
0000
0000
0000
0001
0000
0000
0000
0000
0000
0000
0000
0100
0000
0000
0000
0000
0000
0000
0000
0010
0000
0000
0000
0000
0000
0000
0000
1000
0000
0000
0000
0000
0000
0000
0000
2002
3003
0000
0000
0000
0000
0000
0000
0000
0000
0000
0000
0000
0000
0000
0000
,
0101
0000
0202
0000
0303
0000
0010
0000
1000
0010
0000
0010
0100
0000
0001
0000
,
1000
0000
1000
0001
0000
0001
0100
0000
0010
1000
0010
0001
0100
0110
0000
0000
,
1010
0000
0000
0000
2020
0000
0000
0000
3030
0000
0000
0000
0100
0000
0000
0000
0001
0000
1000
0000
0000
0000
1000
0001
0010
0000
0000
0000
0100
0000
0000
0000
,
0010
0000
1000
0000
0100
0000
0001
0000
0010
0000
0100
0000
1100
0000
0000
0000
0000
0000
0100
0000
0010
0000
1000
0000
0001
0000
0010
0000
1000
0000
1001
0000
0000
0000
0000
0000
0010
0000
1000
0000
0100
0000
0010
0000
0000
0010
0000
0000
,
0220
0000
0000
0000
0330
0000
0000
0000
1000
0000
0001
0010
0001
0000
0100
0000
,
0010
0010
1000
0001
0001
0010
0100
1000
,
2200
0000
0000
0000
3300
0000
0000
0000
0100
0000
0010
1000
0010
0000
1000
0000
,
0001
0000
0000
1000
0000
0000
0001
0000
0000
0001
0000
0000
0010
0000
0000
0100
0000
0000
0010
0000
0001
0000
0010
0000
,
2020
0000
0000
0000
3030
0000
0000
0000
0001
0000
1000
0100
1000
0000
0010
0000
,
0100
0100
0010
1000
1000
0010
0100
0000
,
0010
1000
0100
0001
0010
0100
0101
0000
0000
1000
0010
0100
,
0001
0000
0000
0000
0010
0000
0000
0000
1000
0000
0000
0000
1100
0000
0000
0000
0000
0000
0000
0000
0000
0000
0000
0000
0010
0000
0000
0100
0000
0000
0010
0000
0000
0000
0000
0000
0001
0000
0000
0000
0000
0000
0001
0000
0000
0000
0000
0000
,
2002
0000
0000
0000
3003
0000
0000
0000
0010
0000
0100
0001
0100
0000
1000
0000
,
0010
0010
0100
0001
0001
1000
0010
0001
,
0022
0000
0000
0000
0033
0000
0000
0000
0100
0000
1000
0010
1000
0000
0001
0000
,
1000
0000
0010
0000
0100
0000
0100
0000
0001
0000
0010
0000
0202
0000
0000
0303
,
0110
0000
0000
0000
1000
0000
0010
0100
0010
0000
1000
0000
0001
0000
0001
0000
,
1000
0000
0000
0010
0000
0000
0100
0000
0000
0000
0101
0000
0000
0000
1001
0000
0000
0000
1010
0000
0000
0010
0000
0000
,
0000
0100
0000
0100
0001
0000
1000
0010
,
0100
0000
0001
0000
0110
0000
1000
0000
0010
0000
0100
0000
0010
1000
0010
0000
,
0000
0000
1000
0000
0001
0000
0100
0001
0100
0000
0000
0000
0100
0010
0100
0010
,
0100
0000
0000
0000
0000
0000
0000
0000
0000
0000
0000
0000
0001
0000
0000
0000
0000
0000
0000
0000
1000
0000
0000
0000
0000
0000
0000
0000
1000
0000
0000
0000
0000
0000
0000
0000
0010
0000
0000
0100
0000
0000
0010
0000
0000
0000
0000
0000
,
0000
0000
0001
0000
0010
0000
0100
1000
0100
0000
0000
0000
1000
0010
1000
0010
,
1000
0000
0000
0000
0000
0000
0000
0000
0000
0000
0000
0000
0001
0000
0000
0000
0000
0000
0000
0000
0100
0000
0000
0000
0000
0000
0000
0000
0100
0000
0000
0000
0000
0000
0000
0000
0010
0000
0000
0100
0000
0000
0010
0000
0000
0000
0000
0000
,
0000
0000
1000
0000
0001
0000
0010
0001
0010
0000
0000
0000
0001
0100
0001
0100
,
0001
0000
0000
0000
0000
0000
0010
0000
0000
0000
0001
0000
0000
0000
0001
0000
0000
0000
0020
0000
0000
0230
0000
0000
,
2300
3020
0230
0302
0203
0300
2000
3200
,
0302
0000
0203
0000
0320
0000
0032
0000
0203
0000
0300
0000
1000
0010
1000
0000
,
0000
0000
0100
0000
0001
0000
1000
0001
1000
0000
0000
0000
0100
1000
0100
1000
,
0100
0000
0000
0000
0000
0000
0000
0000
0000
0000
0000
0000
0001
0000
0000
0000
0000
0000
0000
0000
0100
0000
0000
0000
0000
0000
0000
0000
0100
0000
0000
0000
0000
0000
0000
0000
0010
0000
0000
0001
0000
0000
0010
0000
0000
0000
0000
0000
,
0000
0000
0100
0000
1000
0000
0100
0010
0100
0000
0000
0000
0010
0001
0010
0001
,
0010
0000
0000
0000
0000
0000
0000
0000
0000
0000
0000
0000
1000
0000
0000
0000
0000
0000
0000
0000
0010
0000
0000
0000
0000
0000
0000
0000
0010
0000
0000
0000
0000
0000
0000
0000
0100
0000
0000
0001
0000
0000
0100
0000
0000
0000
0000
0000
,
0000
0000
0010
0000
1000
0000
0001
0010
0001
0000
0000
0000
1000
0010
1000
0010
,
1000
0000
0000
0000
0000
0000
0100
0000
0000
0000
0001
0000
0000
0000
1000
0000
0000
0000
0010
0000
0000
0100
0000
0000
,
0010
1000
1001
0000
1000
0001
0100
0001
,
0011
0000
0000
1000
0001
0000
1000
0000
0001
0000
0010
0000
2200
0000
3300
0000
,
2020
0000
0000
0000
0000
0000
0000
0000
0000
0000
0000
0000
3030
0000
0000
0000
0000
0000
1000
0000
0100
0000
0001
0000
0010
0000
0000
0100
0000
0000
1000
0000
0000
0001
0000
0000
1000
0000
0000
0100
0000
0000
1000
0000
0000
0010
0000
0000
,
0100
0010
0100
0001
0010
0000
0000
0000
0010
0100
0010
0001
1000
0001
1000
0010
,
0100
0000
0001
0001
1000
0000
0202
0303
,
0022
0000
0000
0000
0000
0000
0000
0000
0000
0000
0000
0000
0033
0000
0000
0000
0000
0000
0100
0000
0010
0000
0001
0000
1000
0000
0000
0010
0000
0000
0100
0000
0000
0001
0000
0000
0100
0000
0000
0010
0000
0000
0100
0000
0000
0001
0000
0000
,
1000
0001
0010
0100
1000
0000
0000
0000
0100
0001
0100
0010
0100
0010
1000
0100
,
0010
0000
0001
0001
1000
0000
2020
3030
,
2002
0000
0000
0000
0000
0000
0000
0000
0000
0000
0000
0000
3003
0000
0000
0000
0000
0000
0100
0000
1000
0000
0010
0000
0001
0000
0000
0100
0000
0000
0010
0000
0000
1000
0000
0000
0100
0000
0000
0001
0000
0000
0100
0000
0000
0001
0000
0000
,
0010
0001
0100
0010
1000
0000
0000
0000
0100
1000
0100
0010
0001
0010
0100
1000
,
0001
0000
0000
0000
0000
0000
0010
0000
0000
0010
0000
0000
1000
0000
0000
0100
0000
0000
0010
0000
0000
1000
0100
0010
,
0001
0000
0000
0100
0010
0001
1000
0000
0000
0010
0001
1000
0100
1000
0010
0001
1000
0100
0110
0000
0000
0110
0000
0000
,
0100
1000
0001
0001
1001
1001
1000
0010
,
0100
1100
1100
1000
0001
0010
0011
0011
,
0001
1000
0100
0010
0110
0220
0000
0000
,
0000
0000
0000
0330
0000
0000
0010
0001
0100
2000
0000
0000
,
0000
0000
3010
0100
0010
0000
1000
0000
0100
0000
1000
0000
0010
0000
0002
0000
,
0000
0000
0000
0000
0000
0000
0003
0000
0100
0001
1000
0010
1000
0000
0100
0000
,
0001
0010
1000
0100
2000
0000
3000
0000
,
0100
0010
1000
0001
0010
1000
0100
0001
1000
0020
0000
0000
,
0000
0000
0000
0030
0000
0000
0000
0001
,
1000
0010
0100
0001
0010
1000
0100
0101
,
0001
1000
1001
0001
0100
0110
0010
1000
,
1100
0200
0000
0000
0000
0000
0310
0000
,
0001
0000
0010
0000
0001
0000
1000
0000
0000
0001
0000
0000
0100
0000
0000
0020
0000
0000
0000
0000
0000
0000
0000
0000
,
2000
0000
0000
0000
3030
0000
0100
0000
0010
0000
0001
0000
1000
0000
0100
0001
,
0100
0000
0010
0000
0001
1000
0001
0000
1000
0000
0010
0100
0010
0000
0001
0000
,
0100
1000
0001
0100
0010
1000
0001
0100
1000
0020
0000
0000
,
0000
0000
0000
0030
,
1000
0100
1000
0001
0010
0001
0100
0001
0100
0010
1000
0010
0100
0000
1000
0010
,
1000
0000
0100
0000
0001
1000
0001
0000
0100
0000
0010
1000
0010
0000
0100
0000
,
0001
0000
0000
0010
0000
0000
0001
0000
0000
0000
0000
0000
1000
0000
0000
0000
0100
0000
0000
0000
0010
0000
0000
0000
0001
0000
0000
0000
0010
0000
0000
0000
0100
0000
0000
0000
2100
0000
0000
0000
0000
0000
0000
0000
0000
0000
0000
0000
,
3001
0100
0001
0010
0000
0000
1000
0010
0100
0001
0000
0000
,
0100
1000
0001
0010
0000
0000
1000
0001
0010
0012
0000
0000
,
0103
0010
1000
0001
0000
0000
1000
0001
0010
0100
0000
0000
,
0010
1000
0010
0100
0000
0000
1000
0100
0010
0210
0000
0000
,
0301
0010
1000
0010
0000
0000
0001
1000
0010
0100
0000
0000
,
1000
0000
0000
0000
0010
0000
0000
0000
0001
0000
0000
0000
0010
0000
0000
0000
0000
0000
0000
0000
0000
0000
0000
0000
0100
0000
0000
0000
0010
0000
0000
0000
1000
0000
0000
0000
0001
0000
0000
0010
0000
0000
0001
0000
0000
0010
0000
0000
,
0001
0010
0001
0010
0100
0010
0100
0010
0100
0010
0100
0010
0100
1000
0100
1000
,
0100
1000
0100
1000
0001
1000
0001
1000
0001
1000
0001
1000
0010
1000
0010
1000
,
0010
1000
0010
1000
0010
0100
0010
0100
0010
0100
0010
0100
0001
0100
0001
0100
,
0001
0100
0001
0100
0010
0000
0000
0000
0000
0000
0000
0000
0110
0000
1000
0000
,
0001
0100
0001
0100
0001
0000
0100
0000
0010
0000
0100
0000
0100
0000
1000
0000
,
0001
0000
0100
0000
0010
0000
0001
0010
0001
0000
0100
0000
1100
0000
1000
0000
,
0100
0010
0100
0010
0100
0000
0001
0000
0000
0000
1000
0001
1000
0000
0010
0000
,
0001
0000
0100
0000
0010
0000
0100
0010
0100
0000
0001
0000
0101
0000
1000
0000
,
0010
1000
0010
1000
0010
0000
0100
0000
0010
0000
1000
0000
1000
0000
0001
0000
,
0100
0000
0001
0000
0010
0000
0100
0010
0100
0000
0001
0000
1000
0000
1000
0000
,
0010
0000
0100
0000
1000
0000
0001
0000
0000
0001
0000
0000
0100
0000
0001
0000
1000
0000
0010
0000
0000
0010
0000
0000
,
1000
0000
0010
0000
0001
0000
0100
0000
0000
0100
0000
0000
0010
0000
1000
0000
0100
0000
0011
0000
0000
0010
0000
0000
,
1000
0010
1000
0010
1000
0000
0100
0000
1000
0000
0001
0000
0001
0000
0100
0000
,
0010
0000
0100
0000
0001
0000
1000
0010
1000
0000
0001
0000
1001
0000
0100
0000
,
0001
0010
0001
0010
0001
0000
1000
0000
0000
0000
0010
1000
0010
0000
0100
0000
,
0001
0001
0010
1000
0001
0010
1010
0001
,
1000
0100
1000
0100
1000
0000
0010
0000
0100
0000
0010
0000
0010
0000
1000
0000
,
0100
0000
0000
0000
0000
0000
0001
0000
0000
0000
0000
0000
0100
0000
0000
0000
0000
0000
1000
0000
0000
0010
0000
0000
1000
0000
0000
0000
0000
0000
0010
0000
0000
0000
0000
0000
1000
0000
0000
0000
0100
0000
0000
0000
0001
0000
0000
0000
,
0010
0001
0100
0010
1000
0100
0001
0010
0100
1000
0001
1000
,
0100
0000
0000
0000
0010
0000
0000
0000
0100
0000
0000
0000
0001
0000
0000
0000
0010
0000
0000
0000
1000
0000
0000
0000
0100
0000
0000
0000
0010
0000
0000
0000
0001
0000
0000
0000
1000
0000
0000
0001
0000
0000
1000
0000
0000
0000
0000
0000
,
0010
0000
1000
0000
0010
0001
0010
0000
0100
0000
0010
0000
0001
0010
0001
1000
,
0100
0010
0001
1000
0001
0100
0010
1000
0010
0100
0010
0001
2000
0000
0000
0000
,
0000
0000
0000
0000
0000
0000
0000
0000
0000
0000
0000
0000
3010
0001
0000
0000
,
0001
0100
0000
0000
0100
1000
0000
0000
1000
0001
0000
0000
2002
0000
0000
0000
,
0000
0000
0000
3003
0000
0000
0000
0000
0000
0000
0000
0000
0000
0000
0000
0000
;
