#TITLE:Dyscontrolled Galaxy;
#SUBTITLE:;
#ARTIST:Camellia;
#TITLETRANSLIT:;
#SUBTITLETRANSLIT:;
#ARTISTTRANSLIT:;
#GENRE:;
#CREDIT:;
#BANNER:Dyscontrolled Galaxy.png;
#BACKGROUND:Dyscontrolled Galaxy-bg.png;
#LYRICSPATH:;
#CDTITLE:;
#MUSIC:Dyscontrolled Galaxy.ogg;
#OFFSET:-0.144000;
#SAMPLESTART:82.138000;
#SAMPLELENGTH:15.001000;
#SELECTABLE:YES;
#DISPLAYBPM:40.247002:160.988007;
#BPMS:0.000000=160.988007
,60.000000=80.494003
,64.000000=160.988007
,71.000000=321.976013
,72.000000=160.988007
,147.000000=40.247002
,155.000000=160.988007
,183.000000=80.494003
,187.000000=160.988007
,219.000000=80.494003
,219.375000=321.976013
,220.000000=160.988007
,249.000000=80.494003
,250.000000=160.988007
;
#STOPS:71.000000=0.093000,
71.500000=0.093000,
83.750000=0.373000
;
#BGCHANGES:;
#KEYSOUNDS:;
#ATTACKS:;

//---------------dance-single - ----------------
#NOTES:
     dance-single:
     :
     Hard:
     15:
     0.681917,0.799203,0.198892,0.145344,0.852942,624.000000,598.000000,26.000000,19.000000,0.000000,0.000000,0.681917,0.799203,0.198892,0.145344,0.852942,624.000000,598.000000,26.000000,19.000000,0.000000,0.000000:
// measure 0
0220
0000
0000
0000
0330
0000
1000
0000
0001
0000
0000
0100
0000
0000
0110
0000
,  // measure 1
0000
0000
1000
0100
0010
0001
0000
0000
0100
0000
0000
0001
0000
0000
0010
0000
,  // measure 2
2002
0000
0000
0000
3003
0000
1000
0000
0010
0000
0000
0100
0000
0000
1001
0000
,  // measure 3
0000
0000
0100
0000
0000
1000
0000
0000
0100
0000
0000
0010
0000
0000
0100
0000
,  // measure 4
2020
0000
0000
0000
3030
0000
1000
0000
0001
0000
0000
0010
0000
0000
1010
0000
,  // measure 5
0000
0000
1000
0100
1000
0100
0000
0000
0010
0000
0000
0001
0000
0000
0010
0000
,  // measure 6
0202
0000
0000
0000
0303
0000
0001
0000
0100
0000
0000
0010
0000
0000
0110
0000
,  // measure 7
0000
2002
0000
3003
0000
0000
0000
0000
,  // measure 8
1000
0010
0000
1000
0100
0000
0000
0001
,  // measure 9
0100
0001
0000
0100
1000
0010
1000
0001
,  // measure 10
1000
0000
0000
0010
0000
0000
0100
0000
0001
0000
0010
0000
0000
0000
0100
0000
,  // measure 11
0010
0000
0010
0000
0001
0010
0001
0000
,  // measure 12
1000
0000
0000
0010
0000
0000
1000
0000
0001
0000
0000
0000
0000
0000
1000
0000
,  // measure 13
0010
0100
0000
0001
0100
0000
0010
0000
,  // measure 14
0100
0000
0000
0001
0000
0000
1000
0000
0010
0000
1000
0000
0100
0000
0000
0000
,  // measure 15
0000
0000
1001
0000
1001
0000
0000
1000
0001
1000
0000
0001
0001
0000
0100
0000
,  // measure 16
0101
0000
1000
0010
0100
0001
0100
0001
,  // measure 17
0100
0000
0100
0010
0100
0010
1000
1000
,  // measure 18
1000
0000
1000
0010
0100
0010
0100
0001
,  // measure 19
0100
0000
0010
0000
1000
0000
0001
0000
0100
0010
0000
0010
1000
0000
1000
0000
,  // measure 20
0000
0100
0000
0000
1000
0000
0001
0000
0010
0000
0001
0000
1000
0000
0001
0100
,  // measure 21
0010
0000
0100
0000
0010
0000
1000
0000
0010
0100
0000
0100
0010
0000
0000
1000
,  // measure 22
0000
0100
0000
0000
1000
0000
0000
1000
0000
0001
0000
0000
0001
0000
1000
0000
,  // measure 23
0000
0010
0000
0000
1001
0000
0000
0000
0000
0000
0000
0000
0010
0000
0001
0100
,  // measure 24
0000
0010
1000
0000
0001
0100
0000
0001
1000
0000
0010
0000
0000
1000
0000
0010
,  // measure 25
1000
0000
0001
0000
0000
0010
0100
0000
1000
0001
0000
1000
0000
1000
0000
0010
,  // measure 26
1000
0000
0100
0000
0000
0010
0001
0000
0010
0001
0100
0001
0000
0100
0000
0100
,  // measure 27
0010
0000
0100
0001
0000
0000
0010
0000
0100
1000
0010
0000
0100
0000
0001
0010
,  // measure 28
0000
0001
0100
0000
0010
0100
0000
0010
1000
0000
0010
0000
0000
1000
0000
1000
,  // measure 29
0001
0000
1000
0000
0000
0010
0100
0000
0001
0000
0010
0000
0001
0000
1000
0000
,  // measure 30
0010
0000
1000
0000
0100
0000
0010
0000
0100
0000
1000
0000
0001
0000
0010
0001
,  // measure 31
0000
0010
0001
0010
0200
0000
0000
0000
0000
0000
0000
0000
1300
0000
0010
1000
,  // measure 32
0000
1000
0000
0001
0100
0000
0010
0100
0000
0100
0000
0010
0100
0000
0001
0010
,  // measure 33
0000
0010
0001
0000
1000
0100
1000
0000
0010
0000
0000
0000
0100
0000
0001
0100
,  // measure 34
0000
0100
0000
0010
1000
0000
0001
1000
0000
1000
0000
0100
0010
0000
0100
0010
,  // measure 35
0000
0010
0000
0001
0010
0100
1000
0010
0100
0001
0100
0000
1001
0000
0001
0000
,  // measure 36
1000
0010
0100
0001
1000
0000
0200
0000
,  // measure 37
0000
2300
0000
3002
,  // measure 38
0000
0000
0023
0000
0000
0030
0100
1000
,  // measure 39
0000
0000
1000
0000
0001
0000
0000
0000
0000
0000
0100
0000
0010
0000
0000
0010
,  // measure 40
0000
0000
1000
0000
0001
0000
1000
0000
0100
0000
1000
0000
0010
0000
0000
0100
,  // measure 41
0000
0001
0100
0001
0000
0010
0100
0000
,  // measure 42
1000
0000
0000
0000
0010
0000
0100
0000
0010
0000
0000
0000
1000
0000
0000
0001
,  // measure 43
0000
1000
0010
0000
0000
1000
0001
1000
,  // measure 44
0000
0000
0100
0000
0010
0000
0000
0000
0100
0000
0000
0000
1000
0000
0000
0010
,  // measure 45
0000
0100
0010
0100
0001
0000
0000
1001
,  // measure 46
1001
0000
0000
0100
0010
0010
0000
0100
0010
0000
0100
0000
1000
0000
0001
1000
,  // measure 47
0000
0100
0000
0001
0000
0010
0100
0000
0001
1000
0001
1000
0100
0000
0010
0100
,  // measure 48
0000
1000
0000
0010
0000
0100
0001
0100
0000
0010
0100
0010
1000
0001
1000
0010
,  // measure 49
0000
1000
0000
0100
0000
1000
0001
1000
0000
0010
0100
0010
1000
0100
1000
0001
,  // measure 50
0000
0010
0001
0010
0001
0100
0010
1000
0010
1000
0001
0000
1000
0001
0010
0001
,  // measure 51
0000
0100
0000
0010
0000
1000
0001
0000
1000
0100
1000
0100
0010
0001
0010
0001
,  // measure 52
0000
0010
0000
0100
0000
1000
0100
1000
0000
0000
0001
0000
1000
0010
1000
0100
,  // measure 53
1000
0001
1000
0020
0000
0000
0030
0000
1001
0000
0000
0000
0100
0000
0010
0100
,  // measure 54
0000
0000
0110
0000
1000
0000
0100
1000
0000
0000
1010
0000
1000
0000
0000
0000
,  // measure 55
1001
0001
0000
1000
0000
0010
0100
0000
0100
0001
0010
0001
0100
0010
0100
0010
,  // measure 56
0000
1000
0000
0001
0000
0100
0010
0100
0001
0010
0001
1000
0100
0010
0001
1000
,  // measure 57
0010
1000
0000
0100
0000
0010
0100
0000
1000
0001
1000
0010
0100
0001
1000
0001
,  // measure 58
0000
0100
0010
0100
0000
0100
0010
1000
0001
0010
0001
1000
0001
0100
0000
0010
,  // measure 59
0000
0000
0100
0000
0010
1000
0000
0010
1010
0000
0000
0000
0100
0001
0000
0100
,  // measure 60
0000
0000
0010
0000
1000
0001
0000
0001
1001
0000
0000
0000
0100
0010
0000
0100
,  // measure 61
0010
0000
0100
0001
0000
1000
0001
0000
0100
0010
0000
1000
0010
0100
0001
1000
,  // measure 62
0010
1000
0001
0010
0100
0000
0000
0000
0120
0000
0000
0000
0130
0000
0001
0000
,  // measure 63
1000
0000
0000
0010
1000
0000
0100
0000
0010
0000
0001
0000
0100
0010
0000
0000
,  // measure 64
1000
0000
0001
1000
0000
0000
0001
0000
0100
0000
0000
0001
0100
0000
1000
0000
,  // measure 65
0100
0000
0010
0100
0000
0000
0010
0000
0100
0000
0001
0000
1000
0100
0010
0001
,  // measure 66
1000
0000
1000
0100
0000
0000
1000
0000
0000
0010
0000
0010
0100
0000
0001
0000
,  // measure 67
0100
0000
0000
0001
1000
0000
0001
0000
0010
0000
0001
0000
1000
0001
0000
0000
,  // measure 68
0100
0000
0100
0010
0000
0000
0100
0000
0001
0000
0010
0100
0000
0100
1000
0010
,  // measure 69
1000
0000
0100
0010
0000
0010
0001
0100
0001
0010
0001
0100
0010
1000
0001
0100
,  // measure 70
0220
0000
0000
0000
0330
0000
0000
0000
1000
0000
0001
1000
0000
0001
0000
0010
,  // measure 71
0100
0000
1000
0100
0000
1000
0000
0001
0100
0000
0001
0100
0000
0010
0000
1000
,  // measure 72
0100
1000
0000
0010
0100
0000
0000
0000
0001
0000
0100
0001
0000
0100
0000
0010
,  // measure 73
1000
0000
0010
1000
0000
0010
0000
0100
0001
0000
0100
0010
0000
1000
0001
0000
,  // measure 74
1000
0010
1000
0100
0010
0001
0100
0000
1001
0000
1001
0000
0000
0000
0000
0000
;
