#TITLE:Dynamis;
#SUBTITLE:;
#ARTIST:Jin Senbonmatsu;
#TITLETRANSLIT:;
#SUBTITLETRANSLIT:;
#ARTISTTRANSLIT:;
#GENRE:;
#CREDIT:;
#BANNER:Dynamis.png;
#BACKGROUND:Dynamis-bg.png;
#LYRICSPATH:;
#CDTITLE:;
#MUSIC:Dynamis.ogg;
#OFFSET:-0.583646;
#SAMPLESTART:25.518999;
#SAMPLELENGTH:15.000000;
#SELECTABLE:YES;
#BPMS:0.000000=154.000000
;
#STOPS:
;
#BGCHANGES:0.000=Dynamis.avi=1.000=0=0=0=StretchNoLoop====,
99999=-nosongbg-=1.000=0=0=0 // don't automatically add -songbackground-
;
#KEYSOUNDS:;
#ATTACKS:;

//---------------dance-single - ----------------
#NOTES:
     dance-single:
     :
     Hard:
     13:
     0.600117,0.617332,0.333911,0.398539,0.274669,390.000000,359.000000,31.000000,37.000000,0.000000,0.000000,0.600117,0.617332,0.333911,0.398539,0.274669,390.000000,359.000000,31.000000,37.000000,0.000000,0.000000:
0000
0000
0000
0000
,
0000
0000
0000
0000
,
0200
0000
0010
0000
0310
0001
0010
2000
,
0000
0001
0000
0001
3100
0010
0100
0002
,
0000
0000
0010
0010
0003
1000
0010
1000
,
0100
0100
0001
0010
1000
0010
0000
0001
,
0101
0000
0020
0000
1030
0100
0010
0002
,
0000
0100
0000
0100
1003
0010
0100
0020
,
0000
0000
1000
0100
1030
1000
0001
0100
,
0010
0000
1000
0000
0010
0000
0100
1000
0100
0000
0001
0000
1001
0000
0000
0000
,
0010
0000
0001
0000
0100
0000
0000
0001
0000
0000
1000
0000
0100
0000
1000
0000
,
0001
0000
0000
0010
0000
0000
0100
0000
1000
0000
0100
0000
0001
0000
0000
1000
,
0000
0000
1000
0000
0010
0000
0100
0000
0010
0000
0000
0001
0000
0000
0001
0000
,
1000
0000
0010
0000
1000
0100
0000
0001
0000
0100
0001
0000
0010
0000
0001
0000
,
0010
1000
0000
0001
0000
0000
1001
0000
1000
0000
0001
0000
0100
0010
0000
0001
,
0000
0010
0001
0000
0100
0000
0000
0101
0000
0000
0010
0000
0110
0000
0000
0000
,
1000
0001
1000
0001
0200
0000
0000
0000
0000
0000
0000
0000
0320
0000
0000
0000
,
0032
0000
1003
0100
0010
0001
0010
0000
,
0100
0010
0100
0010
0002
0000
0000
0000
0000
0000
0000
0000
2003
0000
0000
0000
,
3020
0000
0000
0000
2030
0000
0000
0000
3000
0000
0001
0100
0001
0000
0000
0000
,
0010
0100
0010
0100
2000
0000
0000
0000
0000
0000
0000
0000
3100
0000
0000
0001
,
0000
0100
0020
0000
0000
0100
0200
0000
,
0330
1010
0000
0100
0001
0100
0010
1000
,
0100
0001
1000
1000
0001
0001
0010
0100
,
1100
0000
0000
0000
0100
0000
0010
0000
0001
0000
0000
0010
0000
0000
0001
0000
,
1000
0100
1000
0010
0100
0101
0001
0010
,
0000
1000
0000
0000
0100
0000
1000
0000
0001
0000
0010
0000
0100
0000
0010
0000
,
1000
0000
1010
0000
0010
0000
0100
0000
0000
0001
0000
0000
0001
0000
0010
0000
,
1000
0000
0100
0000
0010
0000
0100
0000
0110
0000
0001
0000
0001
0000
1000
0010
,
0000
1000
0100
0000
0010
0000
0001
0000
0010
0000
0100
0000
0100
0000
0001
0000
,
1000
0000
0001
1000
0000
0001
0000
0100
0000
0220
0000
0000
0000
0000
0330
0000
,
0001
0000
0100
0001
0000
0010
0000
1000
0000
0100
0000
0100
0002
0000
0000
0000
,
0013
0000
1000
0100
0000
0001
0000
1000
0000
2020
0000
0000
3030
0000
0000
0000
,
0010
0000
0001
0010
0000
1000
0000
0100
0000
0001
0000
0001
0200
0000
0000
0000
,
1300
0001
0100
0010
0001
0200
0000
0300
,
0020
0000
1000
0130
,
1000
0001
1000
0010
0100
0010
0002
0000
0000
0013
0000
0000
,
1000
0100
0001
0100
1000
0010
0001
0200
,
0000
0000
1300
2000
0000
0010
3010
0002
,
0000
0010
0103
0010
1000
0100
0010
0200
,
0000
1000
1300
0001
0010
0001
0100
0020
,
0000
0001
1030
0001
0100
1000
0100
0010
,
0010
0001
1000
0001
0022
0000
0033
0000
,
1000
1010
0000
0110
0000
0011
0000
0101
,
0000
1100
0000
0101
0000
1001
0000
0110
,
1000
0001
1000
0100
0010
0001
1000
0100
,
0010
0010
0100
0100
0001
0100
1000
0010
,
1000
0001
1000
0100
0010
0001
0010
0100
,
0001
0010
1000
0100
0010
0001
1000
0010
,
0100
0010
0001
0001
1000
0010
1000
1000
,
0100
0001
0100
0000
0010
0001
0010
0000
0100
0000
2200
0000
0000
0000
0000
0000
,
3300
0011
1001
0101
,
1100
0000
0101
0000
0110
0000
1000
1020
,
0000
0100
1030
0100
1000
0001
0010
0001
,
0100
1000
0010
0001
1000
0100
0001
0110
,
0000
1000
0100
0100
0001
1000
0010
0100
,
0202
0000
0000
0000
,
0000
0000
0000
0000
0000
0303
0000
0000
0000
0000
0000
0000
0000
0000
0000
0000
;

//---------------dance-single - ----------------
#NOTES:
     dance-single:
     :
     Medium:
     9:
     0.470861,0.462999,0.204655,0.193884,0.086171,306.000000,287.000000,19.000000,18.000000,0.000000,0.000000,0.470861,0.462999,0.204655,0.193884,0.086171,306.000000,287.000000,19.000000,18.000000,0.000000,0.000000:
0000
0000
0000
0000
,
0000
0000
0000
0000
,
0002
0000
0000
1000
0003
1000
0001
0000
,
0200
0000
0010
0000
0310
0001
1000
0000
,
0020
0000
0100
0000
0130
0000
1000
0100
,
0001
0000
0010
0100
0000
0100
0010
0000
,
2000
0000
0001
0000
3001
0100
0010
0000
,
0002
0000
0100
0000
0103
1000
0010
0000
,
2000
0100
0001
3100
,
0100
0001
0010
0001
0100
0000
1001
0000
,
0100
0000
0010
0001
0010
0000
1000
0000
,
0100
0010
0100
0000
0010
0000
1000
0001
,
1000
0000
0010
0001
0010
0000
1010
0000
,
1000
0001
0010
0000
0100
0000
0010
1000
,
0001
0000
0100
0000
1000
0100
0010
0000
,
0001
1000
0010
0000
1000
0000
0110
0000
,
1000
0001
2000
0000
3000
0000
0010
0000
,
0001
0000
0100
1000
0100
0000
0001
0000
,
0010
1000
0020
0000
0030
0000
0001
0000
,
0100
0000
1000
0000
0010
0001
0010
0000
,
1000
1000
0200
0000
0300
0000
0010
0000
,
0010
0000
1000
0100
0001
0000
0010
0000
,
0000
0012
0000
0000
1003
0000
0100
1000
,
0010
0000
0001
0010
0100
0010
1000
0000
,
0110
0000
0001
0100
0010
0000
1000
0000
,
0100
0010
0100
0000
1000
0100
0000
0010
,
0000
0001
0000
1000
0010
1000
0000
0101
,
0000
0010
0000
0100
0000
0001
0000
0100
,
1000
0100
0000
0010
1000
0000
0001
0100
,
0010
0000
0100
0010
0100
0010
0001
0000
,
0100
0000
0000
0010
0000
1000
0000
1000
0000
0002
0000
0000
0100
0000
0003
0000
,
1000
0000
0000
0100
0000
0001
0000
0010
0000
0010
0000
0000
1010
0000
0000
0000
,
0100
0000
0000
0010
0000
0001
0000
0001
0000
0200
0000
0000
0010
0000
0300
0000
,
0100
0000
0000
0010
0000
0001
0000
0100
0000
0100
0000
0000
1001
0000
0000
0000
,
1000
0100
0022
0033
,
0100
1000
0100
0001
,
0010
0100
0010
0000
0001
0000
0101
0000
,
0100
1000
0010
0000
0010
0100
0001
0000
,
1000
0100
0010
0100
0100
0000
1001
0000
,
0001
0010
0100
0000
1000
0001
0100
0000
,
0010
1000
0100
0010
0100
0000
1000
0000
,
0002
0000
0013
1000
0020
0000
1030
0100
,
1000
0010
0100
0000
1010
0000
0011
0000
,
0001
1000
0000
1000
0100
0000
1000
0010
,
0001
0000
0100
0010
0000
0100
1000
0000
,
0010
0001
0100
0000
1000
0010
0100
0000
,
0001
0010
1000
0100
0010
0000
0101
0000
,
0010
0000
0001
1000
1000
0000
0100
0010
,
0010
0000
0010
1000
1000
0001
1000
0000
,
0100
0010
0100
0000
0010
1000
0010
0000
,
1000
0100
0001
0100
0010
1000
0001
0000
,
0010
1010
1000
1001
,
0001
0000
0101
0000
0100
0000
0010
0110
,
0000
0010
0001
0000
0100
0010
0100
0001
,
0010
0000
0010
1000
0100
1000
0010
0000
,
0001
0000
1000
0100
1000
0010
0010
0000
,
2002
0000
0000
0000
,
0000
0000
0000
0000
3000
0003
0000
0000
0000
0000
0000
0000
0000
0000
0000
0000
;

//---------------dance-single - ----------------
#NOTES:
     dance-single:
     :
     Easy:
     6:
     0.300059,0.306983,0.129256,0.193884,0.000000,195.000000,183.000000,12.000000,18.000000,0.000000,0.000000,0.300059,0.306983,0.129256,0.193884,0.000000,195.000000,183.000000,12.000000,18.000000,0.000000,0.000000:
0000
0000
0000
0000
,
0000
0000
0000
0000
,
0020
0030
1000
0001
,
0002
0003
0010
0100
,
0200
0300
1000
0100
,
0001
1000
2000
3000
,
0110
0000
0100
1000
,
0001
0000
0010
0100
,
0001
0000
0100
0010
,
1000
0100
0100
0000
,
1001
0000
0010
0001
,
0010
0100
1000
0000
,
0100
0010
0001
0001
,
0110
0000
0100
0010
,
1000
0010
0001
0010
,
0010
0001
0000
1001
,
0000
2000
3000
0001
,
0010
0100
0001
0001
,
0000
0020
0030
1000
,
0100
0001
1000
1000
,
0000
0200
0300
0001
,
1000
0001
0010
0010
,
0000
0002
0003
0010
,
0001
0100
0010
1010
,
0000
1000
0001
1000
,
0010
0000
0100
0000
0100
0001
0000
0100
,
0000
0010
0000
1000
0000
0100
0000
0100
,
0000
1001
0000
0100
0000
1000
0000
0010
,
0000
1000
0000
0100
1000
0000
0001
0000
,
0100
1000
0100
0101
,
1000
0001
2000
3000
,
0100
0010
0100
0110
,
1000
0001
0020
0030
,
1000
0001
1000
1001
,
0200
0000
0000
0300
,
0020
1000
0000
1000
,
1030
0100
0002
0003
,
0010
0001
0010
0100
,
1000
0000
1000
0000
0100
0000
0000
0002
,
0000
0000
0010
0000
0010
0000
0003
2000
,
0000
0000
0100
0000
0100
0000
3000
0020
,
0000
0100
1030
0100
,
0001
0010
1100
0000
,
1000
0001
1000
0001
,
0010
0001
0010
0001
,
0100
1000
0010
0001
,
0100
0010
0100
0100
,
1000
1000
0001
1000
,
0010
0010
0001
0010
,
0100
1000
0010
1000
,
0001
0010
0200
0000
,
0300
0010
0001
1000
,
0010
0000
0100
0000
1000
0000
0000
0101
,
0000
0010
1000
1000
,
0001
0100
0010
1010
,
1000
0001
0010
1000
,
0020
0000
0000
0000
,
0030
0000
0000
0000
;

//---------------dance-single - ----------------
#NOTES:
     dance-single:
     :
     Beginner:
     3:
     0.176958,0.211118,0.075399,0.096942,0.000000,115.000000,108.000000,7.000000,9.000000,0.000000,0.000000,0.176958,0.211118,0.075399,0.096942,0.000000,115.000000,108.000000,7.000000,9.000000,0.000000,0.000000:
// measure 0
0000
0000
0000
0000
,  // measure 1
0000
0000
0000
0000
,  // measure 2
0100
0000
0000
1000
,  // measure 3
1000
0000
0001
0000
,  // measure 4
1000
0000
0000
0010
,  // measure 5
0010
0000
0100
0000
,  // measure 6
0000
0001
0000
0010
,  // measure 7
0010
0000
0100
0000
,  // measure 8
0001
0000
0000
1000
,  // measure 9
1000
0000
1001
0000
,  // measure 10
0010
0000
0000
0100
,  // measure 11
0000
0001
0001
0000
,  // measure 12
0000
1000
0000
0010
,  // measure 13
0010
0000
0100
0100
,  // measure 14
0000
1000
1000
0000
,  // measure 15
0001
0001
0000
1001
,  // measure 16
0000
0020
0000
0030
,  // measure 17
0000
0100
0000
0001
,  // measure 18
0000
0200
0000
0300
,  // measure 19
0000
1000
0000
0001
,  // measure 20
0000
2000
0000
3000
,  // measure 21
0000
0010
0000
0100
,  // measure 22
0000
0020
0000
0030
,  // measure 23
0000
2002
0000
3003
,  // measure 24
0000
1000
0000
0100
,  // measure 25
0100
0000
0000
0000
0000
0001
0000
0000
,  // measure 26
0000
1000
0000
1000
0000
0000
0000
0010
,  // measure 27
0000
0010
0000
0000
0000
0001
0000
0001
,  // measure 28
0000
0000
0100
0000
,  // measure 29
1000
1000
0000
0000
,  // measure 30
0100
0100
0100
0000
,  // measure 31
0001
0000
0010
0000
,  // measure 32
0001
0001
0001
0000
,  // measure 33
1000
0000
1001
0000
,  // measure 34
0000
0000
0000
0000
,  // measure 35
2000
0000
3000
0000
,  // measure 36
0001
0000
1000
0000
,  // measure 37
0010
0000
0010
0000
,  // measure 38
0200
0000
0300
0000
,  // measure 39
0001
0001
0001
0000
,  // measure 40
1000
0000
0001
0000
,  // measure 41
0100
0100
0100
0000
,  // measure 42
0010
0000
0110
0000
,  // measure 43
0000
1000
0000
0001
,  // measure 44
0000
1000
0000
0001
,  // measure 45
0001
0000
0010
0000
,  // measure 46
0100
0000
0010
0000
,  // measure 47
0100
0100
0100
0000
,  // measure 48
1000
1000
1000
0000
,  // measure 49
0001
0000
1000
0000
,  // measure 50
1001
0000
0001
0000
,  // measure 51
0000
0100
0000
0010
,  // measure 52
0000
0100
0000
0001
,  // measure 53
0001
0000
1000
0000
,  // measure 54
0100
0000
1000
0000
,  // measure 55
0020
0000
0030
0000
,  // measure 56
1001
0000
0000
0000
;
