#TITLE:Duration;
#SUBTITLE:;
#ARTIST:Denji Sano;
#TITLETRANSLIT:;
#SUBTITLETRANSLIT:;
#ARTISTTRANSLIT:;
#GENRE:;
#CREDIT:;
#MUSIC:Duration.ogg;
#BANNER:Duration.png;
#BACKGROUND:Duration-bg.png;
#CDTITLE:;
#SAMPLESTART:48.207;
#SAMPLELENGTH:15.000;
#SELECTABLE:YES;
#OFFSET:-0.207;
#BPMS:0.000=180.000;
#STOPS:;
#BGCHANGES:;
#FGCHANGES:;

//--------------- dance-single - ----------------
#NOTES:
     dance-single:
     :
     Beginner:
     2:
     0,0,0,0,0:
0000
0000
0000
0000
,
0000
0000
0000
0000
,
0000
0000
0000
0000
,
0000
0000
0000
0000
,
0000
0000
0000
0000
,
0000
0000
0000
0000
,
0000
0000
0000
0000
,
0000
0000
0000
0000
,
0100
0000
0000
0000
,
0000
0000
0000
0000
,
0100
0000
0000
0000
,
0000
0000
0000
0000
,
0010
0000
0000
0000
,
0000
0000
0000
0000
,
0010
0000
0000
0000
,
0000
0000
0000
0000
,
1000
0000
0000
0000
,
1000
0000
0000
0000
,
1000
0000
0000
0000
,
1000
0000
0000
0000
,
0001
0000
0000
0000
,
0001
0000
0000
0000
,
0001
0000
0000
0000
,
0001
0000
0000
0000
,
0100
0000
0000
0000
,
0100
0000
0000
0000
,
0100
0000
0000
0000
,
0100
0000
0000
0000
,
0010
0000
0000
0000
,
0100
0000
0000
0000
,
0010
0000
0000
0000
,
0100
0000
0000
0000
,
0001
0000
0000
0000
,
1000
0000
0000
0000
,
0001
0000
0000
0000
,
1000
0000
0000
0000
,
0100
0000
0100
0000
,
0100
0000
0000
0000
,
0010
0000
0010
0000
,
0010
0000
0000
0000
,
1000
0000
1000
0000
,
1000
0000
0000
0000
,
0001
0000
0001
0000
,
0001
0000
0000
0000
,
0100
0000
0100
0000
,
0100
0000
0000
0000
,
0001
0000
0001
0000
,
0001
0000
0000
0000
,
0010
0000
0010
0000
,
0010
0000
0000
0000
,
1000
0000
1000
0000
,
1000
0000
0000
0000
,
0100
0000
0000
0000
,
0100
0000
0000
0000
,
0100
0000
0000
0000
,
0100
0000
0000
0000
,
0010
0000
0000
0000
,
0010
0000
0000
0000
,
0010
0000
0000
0000
,
0010
0000
0000
0000
,
0001
0000
0000
0000
,
0001
0000
0000
0000
,
0001
0000
0000
0000
,
0001
0000
0000
0000
,
1000
0000
0000
0000
,
1000
0000
0000
0000
,
1000
0000
0000
0000
,
1000
0000
0000
0000
,
0100
0000
0000
0000
,
0000
0000
0000
0000
,
0100
0000
0000
0000
,
0000
0000
0000
0000
,
0010
0000
0000
0000
,
0000
0000
0000
0000
,
0010
0000
0000
0000
,
0000
0000
0000
0000
,
1000
0000
0000
0000
,
1000
0000
0000
0000
,
0001
0000
0000
0000
,
0001
0000
0000
0000
,
1000
0000
0000
0000
,
1000
0000
0000
0000
,
0001
0000
0000
0000
,
0001
0000
0000
0000
,
0100
0000
0000
0000
,
0100
0000
0000
0000
,
0100
0000
0000
0000
,
0100
0000
0000
0000
;

//--------------- dance-single - ----------------
#NOTES:
     dance-single:
     :
     Easy:
     4:
     0,0,0,0,0:
0000
0000
0000
0000
,
0000
0000
0000
0000
,
0000
0000
0000
0000
,
0000
0000
0000
0000
,
0000
0000
0000
0000
,
0000
0000
0000
0000
,
0000
0000
0000
0000
,
0000
0000
0000
0000
,
1000
0100
0000
0010
,
1000
0010
0000
1000
,
0001
1000
0000
0010
,
1000
0010
0000
0100
,
0010
0100
0000
0001
,
0010
0001
0000
0100
,
1000
0100
0000
0100
,
0010
0100
0000
0010
,
2000
0000
0010
0000
,
0001
0000
0010
0000
,
3020
0000
0100
0000
,
0001
0000
0001
0000
,
2030
0000
0010
0000
,
0100
0000
0010
0000
,
3002
0000
1000
0000
,
0100
0000
0010
0000
,
0203
0000
0001
0000
,
1000
0000
0010
0000
,
2300
0000
0100
0000
,
0010
0000
0001
0000
,
3100
0000
0010
0000
,
0100
0000
0010
0000
,
0001
0000
0010
0000
,
0100
0000
0010
0000
,
1000
0000
0001
0000
,
0100
0000
1000
0000
,
0010
0000
0100
0000
,
0001
0000
0010
0000
,
0200
0000
0000
0300
,
0001
1000
0000
1000
,
0010
0100
0000
0100
,
0010
0001
0000
0001
,
0010
1000
0000
1000
,
0001
1000
0000
1000
,
0100
1000
0000
1000
,
0010
0100
0000
0100
,
0010
0001
0000
0001
,
0010
1000
0000
1000
,
0010
0100
0000
0100
,
0001
0010
0000
0010
,
0100
0001
0000
0001
,
1000
0010
0000
0010
,
0100
0001
0000
0001
,
0100
0010
0000
0010
,
0200
0000
1000
0000
,
0001
0000
1000
0000
,
0320
0000
1000
0000
,
0001
0000
0100
0000
,
0032
0000
1000
0000
,
0010
0000
0100
0000
,
2003
0000
0010
0000
,
0001
0000
0100
0000
,
3020
0000
0100
0000
,
0001
0000
1000
0000
,
0230
0000
0010
0000
,
0001
0000
1000
0000
,
0302
0000
1000
0000
,
0010
0000
1000
0000
,
0203
0000
0010
0000
,
1000
0000
0001
0000
,
1300
0000
0000
0001
,
0000
0000
1000
0000
,
0100
0000
0000
0010
,
0000
0000
0100
0000
,
1000
0000
0000
0001
,
0000
0000
0010
0000
,
0001
0000
0000
0100
,
0000
0000
0010
0000
,
0100
0000
0001
0000
,
0010
0000
0100
0000
,
1000
0000
0010
0000
,
0100
0000
0010
0000
,
0001
0000
0010
0000
,
0100
0000
1000
0000
,
0010
0000
0100
0000
,
0001
0000
0010
0000
,
0100
0000
0000
0000
,
0100
0000
0000
0000
,
0010
0000
0000
0000
,
0010
0000
0000
0000
;

//--------------- dance-single - ----------------
#NOTES:
     dance-single:
     :
     Medium:
     6:
     0,0,0,0,0:
0000
0000
0000
0000
,
0000
0000
0000
0000
,
0000
0000
0000
0000
,
0000
0000
0000
0000
,
0000
0000
0000
0000
,
0000
0000
0000
0000
,
0000
0000
0000
0000
,
0000
0000
0000
0000
,
0020
0000
0000
0000
,
0030
0000
0000
0000
0000
0200
0000
0020
,
0000
0000
0000
0000
,
0330
0000
0000
0000
0000
2000
0000
0002
,
0000
0000
0000
3003
,
0020
0000
0000
0002
0000
0000
0033
0000
,
0200
0000
0000
0300
,
0020
0000
0000
0000
0000
2000
0000
0000
,
3030
0000
0100
0000
0000
0001
0000
0000
,
0100
0000
0000
0010
0000
0000
1000
0000
,
0100
0000
1000
0000
0000
0001
0000
0000
,
0010
0000
0000
0100
0000
0000
0001
0000
,
0000
0000
0100
0000
0000
0010
0000
0000
,
0100
0000
0000
1000
0000
0000
0001
0000
,
0100
0000
0010
0000
0000
0100
0000
0000
,
0010
0000
0000
1000
0000
0000
0001
0000
,
0000
0000
1000
0000
0000
0010
0000
0000
,
1000
0000
0000
0100
0000
0000
1000
0000
,
0001
0000
0010
0000
0000
0100
0000
0000
,
0010
0000
0000
0001
0000
0000
0100
0000
,
0000
0000
0010
0000
0000
0100
0000
0000
,
0001
0000
0001
1000
0000
0010
0000
0010
,
0200
0000
0000
0020
0000
0000
0000
0000
,
0000
0000
0330
0000
0000
2000
0000
0002
,
3000
0100
0000
0103
,
1000
0000
0000
0010
0000
0100
0000
0000
,
0010
0000
0000
0100
0000
0010
0000
0000
,
0100
0000
0000
0001
0000
0100
0000
0000
,
0020
0000
0000
0030
0000
0110
0000
0000
,
0000
0010
1000
0000
1000
0010
0000
0200
,
0000
0000
0000
0000
0301
0000
0000
0000
0002
0000
0000
0003
0000
0000
0000
0000
,
0000
0001
0000
1000
0000
0010
0000
0000
,
1000
0000
0000
0001
0000
1000
1000
0000
,
0010
0010
0000
0100
0000
0000
0000
0100
,
0010
0000
0000
1000
0000
0010
0000
0010
,
0001
0000
0000
0001
0000
0100
0000
0000
,
0001
0000
0000
0100
0000
0110
0000
0000
,
0000
0001
0000
0000
0001
0010
0000
0100
,
0000
0000
0001
0000
1000
0000
1000
0001
,
0000
1000
0000
0010
0000
1000
0000
0000
,
0100
0000
0000
0000
0100
0000
0010
0000
0000
0000
0010
0000
,
1000
0000
0000
0001
0000
0100
0000
0100
,
0001
0000
0000
0001
0000
0010
0000
0000
,
1000
0000
1000
0100
0000
0010
0000
0100
,
0000
0000
0010
0000
0000
0100
0000
0000
,
0001
0000
0001
1000
0000
0010
0000
0010
,
0200
0000
0000
0002
0000
0000
0000
0000
,
0000
0000
0303
0000
0000
0002
0000
2000
,
0003
3010
0000
1000
,
0010
0000
0000
0100
0000
0010
0000
0000
,
0100
0000
0001
0000
0000
0100
0000
0001
,
0000
1000
0000
0010
0000
1000
0010
0000
,
0000
0000
0100
0000
0000
0010
0000
0000
,
0100
0000
0100
0001
0000
1000
0000
1000
,
0020
0000
0000
0200
0000
0000
0330
0000
,
0001
0000
0000
0100
0000
0001
0000
0001
,
1000
0000
0010
0000
0000
1000
0000
0000
,
0100
0000
0000
1000
0000
0010
0000
0000
,
1000
0000
1000
0000
0000
0001
0000
0000
,
0100
0000
0000
0010
0000
0100
0000
0000
,
0000
0000
0010
0000
0000
0001
0000
0000
,
0010
0000
0000
0100
0000
0000
0001
0000
,
1000
0000
0010
0000
0000
1000
0000
0000
,
0100
0000
0000
1000
0000
0000
0001
0000
,
0000
0000
0010
0000
0000
0001
0000
0000
,
0100
0000
0000
1000
0000
0000
0100
0000
,
0010
0000
0100
0000
0000
0010
0000
0000
,
0001
0000
0000
0010
0000
0000
0001
0000
,
1000
0000
0000
1000
0000
0001
0000
0000
,
0000
0010
0000
0000
0010
0001
0000
0100
,
0000
0000
0010
0000
0100
0000
0100
1000
,
0000
0010
0000
0000
0100
0010
0000
0000
,
0100
0000
0000
0000
0100
0000
1000
0000
0000
0000
1000
0000
,
0001
0000
0000
0010
0000
1000
0000
1000
,
0010
0000
0000
0100
0000
0010
0000
0000
,
0100
0000
0000
0001
0000
0100
0000
0000
,
0010
0000
0000
0100
0000
0010
0000
0000
,
0000
0100
0000
0000
0100
1000
0000
0100
,
0000
0000
0100
0000
0010
0000
0000
0100
,
0000
0010
0000
0000
0100
0001
0000
0000
;

//--------------- dance-single - ----------------
#NOTES:
     dance-single:
     :
     Hard:
     11:
     0,0,0,0,0:
0000
0000
0000
0000
,
0000
0000
0000
0000
,
0000
0000
0000
0000
,
0000
0000
0000
0000
,
0000
0000
0000
0000
,
0000
0000
0000
0000
,
0000
0000
0000
0000
,
0000
0000
0000
0000
,
0100
0000
0001
0000
0000
0100
0010
0000
,
0100
0000
0001
1000
0000
1000
0010
0000
,
0100
0000
0001
0000
0000
0100
0010
0000
,
1000
0000
0001
1000
0000
1000
0010
0010
,
0100
0000
0001
0000
0000
0100
0010
0000
,
1000
0000
0001
1000
0000
1000
0010
0000
,
0200
0000
0000
0300
,
0002
0000
0000
0000
0003
2000
0000
3000
,
0110
0000
0002
0000
0000
2003
0000
0000
,
3002
0000
0000
0203
0000
0000
0320
0000
,
0230
0000
0302
0000
0000
2003
0000
0000
,
3200
0000
0000
0320
0000
0000
0032
0000
,
1003
0000
0020
0000
0000
0230
0000
0000
,
0320
0000
0000
2030
0000
0000
3002
0000
,
0023
0000
0032
0000
0000
0203
0000
0000
,
0320
0000
0000
0230
0000
0000
0320
0000
,
1030
0000
0002
0000
0000
2003
0000
0000
,
3002
0000
0000
0203
0000
0000
0320
0000
,
0230
0000
0302
0000
0000
0203
0000
0000
,
0320
0000
0000
2030
0000
0000
3020
0000
,
1030
0000
0020
0000
0000
2030
0000
0000
,
3001
1000
0010
0100
0000
0010
0000
0100
,
0001
0000
0000
2000
0000
0000
0001
0000
,
0000
0010
0000
0000
3100
0010
0000
0020
,
0000
0000
0100
0030
1000
0010
0100
0010
,
0001
0000
0000
1000
0000
0000
0001
0000
,
0010
0001
0010
0100
0000
0001
1000
0001
,
0010
0100
0010
1000
0000
0010
0100
0001
,
2000
0000
0000
0000
3000
2000
3000
0000
,
0100
0010
0001
0000
0100
0010
0000
2000
,
0000
0000
3001
0000
0001
0200
0000
0010
,
0300
0001
1000
0100
0010
0100
0000
0001
,
0200
0000
0300
0100
0000
0200
0000
0000
,
0310
0010
0000
2000
0000
0000
3000
0100
,
0002
0000
0003
0001
0000
1000
0000
0001
,
0010
0010
0000
2000
0000
3200
0000
0300
,
2000
0000
0000
3001
0000
1001
0000
0000
,
0000
0010
0010
0000
0100
0010
0000
0100
,
1000
0000
1000
0000
0100
0001
0010
0001
,
0000
0100
0000
0100
0010
0100
0000
0000
,
0001
0000
1000
0000
0001
0000
0010
0000
0100
0000
0010
0000
,
1000
0000
1000
0100
0000
0010
0000
0100
,
0002
0000
0003
0001
0000
1000
0001
0000
,
0100
0000
0010
0100
0010
1000
0000
0100
,
0000
0000
0020
0000
0000
0032
0000
0000
,
0013
0100
0010
1000
0000
0001
0000
0100
,
0010
0000
0000
0200
0000
0000
0001
0000
,
1000
0000
1000
0000
0300
0010
0010
0010
,
0100
0000
0001
0000
1000
0100
0010
0001
,
1000
0100
1000
0010
0100
0010
0100
0001
,
0010
0000
0100
0000
0010
0001
0010
0100
,
1000
0100
0010
0001
0010
0001
0100
0010
,
1000
0000
0002
0000
0000
2003
0000
0000
,
3010
0100
0001
0100
0000
0010
0000
0100
,
2000
0000
0000
3002
0000
0000
0000
0000
,
0003
0010
0100
0010
0000
1000
0100
0100
,
1000
0000
0001
0000
1000
0001
0100
0010
,
0100
0001
0010
0100
1000
0010
0100
0010
,
1000
0000
1000
0000
0000
1000
0000
0000
,
0001
0000
0001
0000
0000
0100
0000
0000
,
0010
0000
0200
0000
0000
0302
0000
0000
,
2003
0000
0000
3020
0000
0000
0230
0000
,
2300
0000
3200
0000
0000
0320
0000
0000
,
0230
0000
0000
0302
0000
0000
0023
0000
,
0031
0000
0200
0000
0000
0320
0000
0000
,
2030
0000
0000
3020
0000
0000
0230
0000
,
0302
0000
0203
0000
0000
0320
0000
0000
,
2030
0000
0000
3002
0000
0000
2003
0000
,
3010
0000
0100
0000
0000
0010
0100
0000
,
0001
0000
0100
0010
0000
0010
0100
0000
,
1000
0000
0100
0000
0000
1000
0100
0000
,
0010
0001
0100
0010
0000
0010
0100
0100
,
0001
0000
0010
0000
0000
0100
0001
0000
,
1000
0000
0000
0000
0010
0000
0100
0000
0000
0000
0100
0000
0010
0001
0010
0000
,
0200
0000
0300
0100
0000
0010
0100
0000
,
1000
0000
1000
0001
0010
0100
0000
0100
,
2000
0000
3000
1000
0000
1001
0000
0000
,
0000
0010
0010
0000
0100
1000
0000
0020
,
0000
0001
0031
0000
0100
0000
0010
0110
,
0000
1000
0000
1000
0100
0011
0000
0000
;
