#TITLE:Drivin';
#SUBTITLE:(undulated mix);
#ARTIST:Yu Takami;
#TITLETRANSLIT:;
#SUBTITLETRANSLIT:;
#ARTISTTRANSLIT:;
#GENRE:;
#CREDIT:;
#MUSIC:Drivin' (undulated mix).ogg;
#BANNER:Drivin' (undulated mix).png;
#BACKGROUND:Drivin' (undulated mix)-bg.png;
#CDTITLE:;
#SAMPLESTART:37.156;
#SAMPLELENGTH:12.387;
#SELECTABLE:YES;
#OFFSET:-0.021;
#BPMS:0.000=155.100
,64.000=77.500
,80.000=155.000
,143.000=77.500
,151.000=155.000
,166.833=175.000
,167.000=156.000
,183.000=155.000
,279.000=81.500
,281.000=77.500
;
#STOPS:110.000=0.387;
#DISPLAYBPM:78.000:155.000;
#ORIGIN:;
#PREVIEWVID:;
#JACKET:;
#CDIMAGE:;
#DISCIMAGE:;
#BGCHANGES:;
#FGCHANGES:;

//--------------- dance-single - ----------------
#NOTES:
     dance-single:
     :
     Beginner:
     2:
     0,0,0,0,0:
0000
0000
0000
0000
,
0000
0000
0000
0000
,
0000
0000
0000
0000
,
0000
0000
0000
0000
,
0000
0000
0000
0000
,
0000
0000
0000
0000
,
0000
0000
0000
0000
,
0000
0000
0000
0000
,
1000
0000
0000
0000
,
1000
0000
0000
0000
,
0001
0000
0000
0000
,
0001
0000
0000
0000
,
0100
0000
0000
0000
,
0100
0000
0000
0000
,
0010
0000
0000
0000
,
0010
0000
0000
0000
,
2000
0000
3000
0000
,
2000
0000
3000
0000
,
0002
0000
0003
0000
,
0002
0000
0003
0000
,
0100
0000
0100
0000
,
0100
0000
0000
0000
,
0010
0000
0010
0000
,
0010
0000
0000
0000
,
0001
0000
0001
0000
,
0001
0000
0000
0000
,
1000
0000
1000
0000
,
1000
0000
0000
0010
,
0000
0000
0000
0010
,
0000
0000
0000
1000
,
0000
0000
0000
1000
,
0000
0000
0000
0001
,
0000
0000
0000
0001
,
0000
0000
0000
0100
,
0000
0000
0000
0100
,
0000
0000
0000
0020
,
0030
0020
0030
0200
,
0300
0200
0300
0001
,
0000
0001
0000
0001
,
0000
0000
0000
1000
,
0000
1000
0000
1000
,
0000
0000
0000
0001
,
0000
0001
0000
0010
,
0000
0010
0000
0100
,
0000
0100
0000
1000
,
0000
1000
0000
0100
,
0000
0100
0000
0010
,
0000
0010
0000
0001
,
0000
0001
0000
1000
,
0000
1000
0000
0020
,
0000
0030
0000
0010
,
0000
0000
0000
0002
,
0000
0003
0000
0001
,
0000
0000
0000
2000
,
0000
3000
0000
1000
,
0000
0000
0000
0200
,
0000
0300
0000
0100
,
0000
0000
0000
1000
,
0000
1000
0000
0010
,
0000
0010
0000
1000
,
0000
1000
0000
0001
,
0000
0001
0000
0100
,
0000
0100
0000
0010
,
0000
0010
0000
0100
,
0000
0100
0000
1000
,
0000
1000
0000
0002
,
0000
0003
0000
0002
,
0000
0003
0000
2000
,
0000
3000
0000
2000
,
0000
3000
0000
0010
,
0000
0010
0000
0010
;

//--------------- dance-single - ----------------
#NOTES:
     dance-single:
     :
     Easy:
     5:
     0,0,0,0,0:
0000
0000
0000
0000
,
0000
0000
0000
0000
,
0000
0000
0000
0000
,
0000
0000
0000
0000
,
0000
0000
0000
0000
,
0000
0000
0000
0000
,
0000
0000
0000
0000
,
0000
0000
0000
0000
,
1000
0001
1000
0000
,
0010
0000
0100
0000
,
0010
0001
0010
0000
,
2000
0000
3000
0000
,
0100
0001
0100
0000
,
0010
0000
1000
0000
,
0010
0100
0010
0000
,
0002
0000
0003
0000
,
1000
1000
0001
0001
,
0100
0010
0001
1000
,
0010
0010
0100
0100
,
0001
0010
1000
1001
,
0010
0001
0010
0000
,
0100
0010
0100
0000
,
1000
0000
1000
0000
,
0001
0000
0100
0000
,
1000
0010
1000
0000
,
0001
0100
0001
0000
,
0010
0000
0010
0000
,
0100
0000
0110
1000
,
0000
0001
0000
0100
,
0000
0010
0100
0010
,
0000
1000
0000
0001
,
0000
1000
0010
1000
,
0000
0100
0100
0010
,
0000
0001
1000
0001
,
0000
0100
0000
0010
,
0000
0110
0000
1000
,
1000
0100
0100
0010
,
0010
0001
1001
1000
,
0010
1000
0000
0100
,
0000
0010
0000
0001
,
0100
0001
0000
0020
,
0000
0030
0000
0100
,
0010
1000
0010
1000
,
0001
0010
0000
0100
,
0001
0100
0010
1000
,
0001
1000
0000
0010
,
0100
0010
0001
0010
,
1000
0001
0000
0100
,
0100
0001
0001
1000
,
0010
0100
1000
0010
,
0000
0010
0000
0100
,
0000
0001
0100
0001
,
0000
1000
0000
0001
,
0000
0010
1000
0010
,
0000
0100
0000
0010
,
0000
1000
0100
1000
,
0000
0001
0000
1000
,
0000
1001
0000
0010
,
0010
0100
0000
0010
,
0000
0001
0000
1000
,
1000
0010
0000
0100
,
0000
0100
0000
0001
,
0001
0010
0000
1000
,
0000
0001
0000
0100
,
0100
1000
0000
0001
,
0000
0001
0000
0020
,
0000
0030
0000
1000
,
0000
1000
0000
0002
,
0000
0003
0000
0100
,
0000
0100
0000
2000
,
3000
0001
1000
2002
,
0000
3003
0000
0000
;

//--------------- dance-single - ----------------
#NOTES:
     dance-single:
     :
     Medium:
     8:
     0,0,0,0,0:
0000
0000
0000
0000
,
0000
0000
0000
0000
,
0000
0000
0000
0000
,
0000
0000
0000
0000
,
0000
0000
0000
0000
,
0000
0000
0000
0000
,
0000
0000
0000
0000
,
0000
0000
0000
0000
,
1000
0000
0001
0000
0010
0000
0100
0010
,
0000
0010
0001
0000
0100
0000
1000
0000
,
0100
0000
0001
0000
0010
0000
0010
0002
,
0000
0000
0100
0003
,
0010
0000
0001
0000
1000
0000
0100
1000
,
0000
1000
0001
0000
0100
0000
0010
0000
,
1000
0000
0010
0000
0100
0000
0100
2000
,
0000
0000
0010
3000
,
0100
0000
0010
1000
0000
0000
0010
0100
0000
0000
0000
0001
0000
0000
1000
0000
,
0001
0000
0000
0100
0000
0000
0001
0010
0000
1000
0000
0200
0000
0000
0300
0000
,
0001
0000
0000
0001
0000
0000
1000
0010
0000
0000
0000
0100
0000
0000
1000
0000
,
0010
0000
0000
0000
0000
0000
0001
0000
0000
0000
0000
0000
0100
0000
0000
0000
0010
0000
0000
1000
0000
0000
0020
0000
0000
0000
0000
0000
0030
0000
0000
0000
,
0100
0000
0001
0000
0010
0000
1000
0001
,
0000
0001
0100
0000
1000
0000
0010
0000
,
0100
0000
1000
0000
0100
0000
0100
0020
,
0000
1000
0100
1030
,
0001
0000
0100
0000
0010
0000
0100
1000
,
0000
1000
0001
0000
0100
0000
0010
0000
,
1000
0000
0001
0000
1000
0000
1000
0200
,
0000
0001
0301
0100
,
0000
0010
0001
0100
,
0000
1000
0010
0001
,
0010
2000
0000
0100
,
3000
0001
0010
0001
,
0000
0100
0001
1000
,
0000
0100
0010
0100
,
0000
1000
1000
0100
,
0001
0000
1001
0000
2000
0000
0000
0010
,
0000
0010
0000
0001
0000
0001
0000
0100
,
0000
0100
0000
0010
3010
0000
0001
0000
,
1000
0000
0100
0000
1000
0010
0000
0010
,
0100
0001
0100
1000
,
0001
0000
0010
0000
0010
0200
0000
0000
,
1000
0000
0001
0000
1300
0000
0010
0001
,
0010
0000
1000
0100
1000
0000
0100
0010
,
0100
0000
1010
0000
0010
0010
0100
0001
,
0100
0000
0010
0100
0010
0000
1000
0001
,
1000
0000
0101
0000
1100
0000
0100
1000
,
0010
0000
1000
0100
0001
0000
0100
0000
,
0001
0010
0001
1000
0010
0000
0100
0010
,
0100
0000
1000
0001
1000
0000
0010
0100
,
0001
0100
0020
0000
1030
0000
0001
0000
,
1000
0000
0100
0000
1000
0020
0000
0000
,
0030
0100
0010
1000
,
0001
0000
0100
0000
0010
0200
0000
0000
,
0300
1000
1000
0010
,
0100
0000
0001
0000
1000
0002
0000
0000
,
0003
0100
0100
1000
,
0100
0000
0010
0000
0001
2000
0000
0000
,
0010
0020
3030
0100
,
0001
0000
0010
0000
1000
0010
0000
0010
,
0100
0001
0100
0010
,
1000
0000
0001
0000
0001
0200
0000
0000
,
0000
0010
0300
0001
,
0010
0000
1000
0000
0100
1000
0000
1000
,
0001
0010
1000
0001
,
0010
0000
1000
0000
1000
0020
0000
0000
,
0100
0130
0001
1000
,
0000
0001
0000
0001
,
0000
0010
0100
0100
,
0000
0010
0000
0001
,
1000
0001
0000
0200
,
0300
0010
0010
0000
1000
0000
2000
0200
,
0000
3300
0000
0000
;

//--------------- dance-single - ----------------
#NOTES:
     dance-single:
     :
     Hard:
     12:
     0.397198,0.632242,0.184866,0.399311,0.136801,376,351,25,54,0,0,0,0,0,0.397198,0.632242,0.184866,0.399311,0.136801,376,351,25,54,0,0,0,0,0:
0000
0000
0000
0000
,
0000
0000
0000
0000
,
0000
0000
0000
0000
,
0000
0000
0000
0000
,
0000
0000
0000
0000
,
0000
0000
0000
0000
,
0000
0000
0000
0000
,
0000
0000
0000
0000
,
0100
0000
0010
0100
0001
0000
0001
1000
,
0000
0010
0100
0010
1000
0000
0100
0000
,
1000
0000
0001
0010
0100
0000
0100
2000
,
0000
3010
0110
0100
,
0002
0000
1003
0010
0100
0000
0100
0010
,
0000
1000
0010
1000
0001
0000
1000
0000
,
0100
0000
0010
0001
1000
0000
1000
0020
,
0000
0000
0130
0000
1000
1000
0001
0001
,
0100
0001
1000
0100
0000
1000
0010
1000
0000
0000
0000
0001
0000
0010
0100
0010
,
0001
0000
0000
1000
0000
0010
0100
0002
0000
0023
0000
0230
0000
0000
0300
0000
,
1000
1000
0000
0010
0000
0100
0001
0100
0000
0000
0000
0010
0000
1000
0010
0100
,
0001
0000
0000
0000
0000
0000
0100
0000
0000
0000
0100
0000
0001
0000
1000
0000
0001
0000
0000
0010
0000
0000
0002
0000
0000
0000
0000
0000
0003
0000
0000
0000
,
2001
0000
0100
0000
3100
0000
0010
1000
,
0000
1000
0010
0000
0100
0000
0001
0000
,
0010
0000
0001
1000
0100
0000
0100
0010
,
0000
0001
1000
0001
0100
0000
0010
0000
,
0200
0000
0001
0000
0301
0000
1000
0010
,
0000
0010
0100
0000
0001
0000
1000
0000
,
0010
0000
1000
0010
0100
0000
0100
1000
,
0000
0000
0000
0000
0001
1000
0001
1000
0001
0000
0100
0000
0010
0000
0000
0000
,
0000
0100
0000
0001
1000
0001
0010
0000
,
0000
0100
0000
1000
0100
1000
0002
0000
,
0003
0010
0020
0000
0000
0000
0030
0000
,
0000
0000
0001
0100
0010
0100
2000
0000
,
3000
0000
0010
0100
1000
0002
0000
0000
,
0003
0000
0010
1000
0010
0100
0000
0000
,
0000
0011
0000
0000
2001
0000
3010
0000
,
0021
0000
0130
0000
1200
0000
0301
1002
,
0103
0210
1300
2100
3010
1020
0031
0201
,
0310
0021
1030
0001
2002
3003
0200
0000
,
0001
0000
0310
0000
0001
1000
0001
0010
,
0000
0100
0000
1000
0010
1000
0001
0000
,
0100
0010
1000
0000
0100
0001
0000
0010
,
1000
0100
0220
0000
0330
0000
0100
0100
,
1000
0100
0001
0001
0010
0001
0010
0010
,
1000
0100
0001
0010
0011
0000
1000
1000
,
0001
1000
0100
0100
0001
0100
0010
0010
,
1000
0000
0010
0000
1010
0000
0000
0000
0010
0100
0010
0100
0010
0000
0001
0000
,
0100
1000
0001
0010
1000
0001
0100
1000
,
0100
0010
0100
0001
1000
0100
0010
0100
,
0010
1000
0001
0100
0010
1000
0100
0010
,
0001
0100
0001
1000
0100
1000
0010
0000
,
0100
0010
0000
0001
0000
2000
0000
0000
,
3000
0010
0001
0110
,
1000
0100
0000
1000
0000
0020
0000
0000
,
0030
0001
1000
1100
,
0010
1000
0000
0010
0000
0200
0000
0000
,
0300
1000
0010
0000
0001
0000
0011
0000
,
0100
0010
0000
0100
0000
2000
0000
0000
,
3001
0202
0303
0010
,
1000
0010
0100
0000
0100
0001
0000
1000
,
0010
1000
0001
0000
0010
0000
0100
0000
,
0001
1000
0010
0000
0010
0200
0000
0000
,
1300
1010
0010
2000
,
3001
0100
0010
0000
0010
1000
0000
0001
,
1000
0001
0100
0000
0001
0000
1000
0000
,
0100
1000
0001
0000
0001
0200
0000
0000
,
0310
0000
0001
1000
0001
0100
0020
0000
,
0000
0000
0030
1000
0000
1000
0002
0000
,
0000
0000
0003
0100
0000
0010
0000
0010
,
0100
0000
0000
2000
0000
0000
3002
0000
,
0000
0013
0000
0100
0010
0001
2002
0000
,
3003
0010
0000
0010
0100
0000
0000
0001
0000
1000
0000
0001
0200
0000
0020
0000
,
0000
0330
0000
0000
;
